999
DXF file: Sensoradapter_DM10_90Grad.dxf
999
Pro/ENGINEER 2018400 by Parametric Technology Corporation
  0
SECTION
  2
HEADER
  9
$ACADVER
  1
AC1027
  9
$DWGCODEPAGE
  3
ANSI_1252
  9
$EXTMAX
 10
420.0
 20
297.0
 30
0.0
  9
$EXTMIN
 10
0.0
 20
-0.0
 30
0.0
  9
$LIMMIN
 10
0.0
 20
-0.0
  9
$LIMMAX
 10
420.0
 20
297.0
  9
$VIEWCTR
 10
210.0
 20
148.5
  9
$VIEWSIZE
 40
297.0
  9
$CLAYER
  8
0
  9
$LTSCALE
 40
23.1
  9
$CELTYPE
  6
BYLAYER
  9
$DIMSCALE
 40
1.0
  9
$DIMASZ
 40
3.5
  9
$DIMEXO
 40
1.0
  9
$DIMDLI
 40
15.96
  9
$DIMEXE
 40
1.5
  9
$DIMCEN
 40
3.78
  9
$DIMLFAC
 40
1.0
  9
$DIMBLK
  1
_FILLED
  9
$DIMALT
 70
0
  9
$DIMALTF
 40
0.0393700787
  9
$DIMTXT
 40
3.5
  9
$DIMTOL
 70
1
  9
$DIMLIM
 70
0
  9
$DIMTFAC
 40
1.0
  9
$DIMTP
 40
0.01
  9
$DIMTM
 40
0.01
  9
$DIMGAP
 40
0.625
  9
$DIMDSEP
 70
44
  9
$AUNITS
 70
0
  9
$PDMODE
 70
3
  9
$PDSIZE
 40
8.0
  9
$HANDSEED
  5
653
  9
$TILEMODE
 70
1
  9
$MEASUREMENT
 70
1
  9
$INSUNITS
 70
4
  0
ENDSEC
  0
SECTION
  2
CLASSES
  0
CLASS
  1
ACDBDICTIONARYWDFLT
  2
AcDbDictionaryWithDefault
  3
AutoCAD 2000
 90
0
 91
1
280
0
281
0
  0
CLASS
  1
ACDBPLACEHOLDER
  2
AcDbPlaceHolder
  3
AutoCAD 2000
 90
0
 91
1
280
0
281
0
  0
CLASS
  1
LAYOUT
  2
AcDbLayout
  3
AutoCAD 2000
 90
0
 91
0
280
0
281
0
  0
ENDSEC
  0
SECTION
  2
TABLES
  0
TABLE
  2
VPORT
  5
8
100
AcDbSymbolTable
 70
2
  0
VPORT
  5
1F4
100
AcDbSymbolTableRecord
100
AcDbViewportTableRecord
  2
*ACTIVE
 70
0
 10
0.0
 20
0.0
 11
1.0
 21
1.0
 12
210.0
 22
148.5
 13
0.0
 23
0.0
 14
1.0
 24
1.0
 15
0.0
 25
0.0
 16
0.0
 26
0.0
 36
1.0
 17
0.0
 27
0.0
 37
0.0
 40
297.0
 41
1.4141414141
 42
50.0
 43
0.0
 44
0.0
 50
0.0
 51
0.0
 71
0
 72
100
 73
1
 74
1
 75
0
 76
0
 77
0
 78
0
  0
ENDTAB
  0
TABLE
  2
LTYPE
  5
5
100
AcDbSymbolTable
 70
6
  0
LTYPE
  5
14
100
AcDbSymbolTableRecord
100
AcDbLinetypeTableRecord
  2
BYBLOCK
 70
0
  3

 72
65
 73
0
 40
0.0
  0
LTYPE
  5
15
100
AcDbSymbolTableRecord
100
AcDbLinetypeTableRecord
  2
BYLAYER
 70
0
  3

 72
65
 73
0
 40
0.0
  0
LTYPE
  5
16
100
AcDbSymbolTableRecord
100
AcDbLinetypeTableRecord
  2
CONTINUOUS
 70
64
  3
Solid line
 72
65
 73
0
 40
0.0
  0
LTYPE
  5
1F5
100
AcDbSymbolTableRecord
100
AcDbLinetypeTableRecord
  2
CENTER
 70
64
  3
____ _ ____ _ ____ _ ____ _ ____ _ ____ _ ____
 72
65
 73
4
 40
0.6
 49
0.375
 74
0
 49
-0.075
 74
0
 49
0.075
 74
0
 49
-0.075
 74
0
  0
LTYPE
  5
1F6
100
AcDbSymbolTableRecord
100
AcDbLinetypeTableRecord
  2
HIDDEN
 70
64
  3
- - - - - - - - - - - - - - - - - - - -
 72
65
 73
2
 40
0.2
 49
0.1
 74
0
 49
-0.1
 74
0
  0
LTYPE
  5
1F7
100
AcDbSymbolTableRecord
100
AcDbLinetypeTableRecord
  2
PHANTOM
 70
64
  3
_____ _ _ _____ _ _ _____ _ _ _____
 72
65
 73
6
 40
0.8
 49
0.45
 74
0
 49
-0.05
 74
0
 49
0.1
 74
0
 49
-0.05
 74
0
 49
0.1
 74
0
 49
-0.05
 74
0
  0
LTYPE
  5
1F8
100
AcDbSymbolTableRecord
100
AcDbLinetypeTableRecord
  2
DOT
 70
64
  3
. . . . . . . . . . . . . . . . . . . .
 72
65
 73
2
 40
0.2
 49
0.1
 74
0
 49
-0.1
 74
0
  0
LTYPE
  5
1F9
100
AcDbSymbolTableRecord
100
AcDbLinetypeTableRecord
  2
DASHED
 70
64
  3
- - - - - - - - - - - - - - - - - - - -
 72
65
 73
2
 40
0.2
 49
0.1
 74
0
 49
-0.1
 74
0
  0
ENDTAB
  0
TABLE
  2
LAYER
  5
2
100
AcDbSymbolTable
 70
36
  0
LAYER
  5
10
100
AcDbSymbolTableRecord
100
AcDbLayerTableRecord
  2
0
 70
0
 62
7
  6
CONTINUOUS
370
-3
390
F
  0
LAYER
  5
1FA
100
AcDbSymbolTableRecord
100
AcDbLayerTableRecord
  2
DEFAULT_1
 70
0
 62
7
  6
CENTER
370
-3
390
F
  0
LAYER
  5
1FB
100
AcDbSymbolTableRecord
100
AcDbLayerTableRecord
  2
DEFAULT_2
 70
0
 62
8
  6
HIDDEN
370
-3
390
F
  0
LAYER
  5
1FC
100
AcDbSymbolTableRecord
100
AcDbLayerTableRecord
  2
DEFAULT_3
 70
0
 62
7
  6
PHANTOM
370
-3
390
F
  0
LAYER
  5
1FD
100
AcDbSymbolTableRecord
100
AcDbLayerTableRecord
  2
01_ALL_DTM_PLN
 70
0
 62
7
  6
CONTINUOUS
370
-3
390
F
  0
LAYER
  5
1FE
100
AcDbSymbolTableRecord
100
AcDbLayerTableRecord
  2
01__ASM_ALL_DTM_PLN
 70
0
 62
7
  6
CONTINUOUS
370
-3
390
F
  0
LAYER
  5
1FF
100
AcDbSymbolTableRecord
100
AcDbLayerTableRecord
  2
01__ASM_DEF_DTM_PLN
 70
0
 62
7
  6
CONTINUOUS
370
-3
390
F
  0
LAYER
  5
200
100
AcDbSymbolTableRecord
100
AcDbLayerTableRecord
  2
01___PRT_ALL_DTM_PLN
 70
0
 62
7
  6
CONTINUOUS
370
-3
390
F
  0
LAYER
  5
201
100
AcDbSymbolTableRecord
100
AcDbLayerTableRecord
  2
01___PRT_DEF_DTM_PLN
 70
0
 62
7
  6
CONTINUOUS
370
-3
390
F
  0
LAYER
  5
202
100
AcDbSymbolTableRecord
100
AcDbLayerTableRecord
  2
02_ALL_AXES
 70
0
 62
7
  6
CONTINUOUS
370
-3
390
F
  0
LAYER
  5
203
100
AcDbSymbolTableRecord
100
AcDbLayerTableRecord
  2
02__ASM_ALL_AXES
 70
0
 62
7
  6
CONTINUOUS
370
-3
390
F
  0
LAYER
  5
204
100
AcDbSymbolTableRecord
100
AcDbLayerTableRecord
  2
02___PRT_ALL_AXES
 70
0
 62
7
  6
CONTINUOUS
370
-3
390
F
  0
LAYER
  5
205
100
AcDbSymbolTableRecord
100
AcDbLayerTableRecord
  2
03_ALL_CURVES
 70
0
 62
7
  6
CONTINUOUS
370
-3
390
F
  0
LAYER
  5
206
100
AcDbSymbolTableRecord
100
AcDbLayerTableRecord
  2
03__ASM_ALL_CURVES
 70
0
 62
7
  6
CONTINUOUS
370
-3
390
F
  0
LAYER
  5
207
100
AcDbSymbolTableRecord
100
AcDbLayerTableRecord
  2
03___PRT_ALL_CURVES
 70
0
 62
7
  6
CONTINUOUS
370
-3
390
F
  0
LAYER
  5
208
100
AcDbSymbolTableRecord
100
AcDbLayerTableRecord
  2
04_ALL_DTM_PNT
 70
0
 62
7
  6
CONTINUOUS
370
-3
390
F
  0
LAYER
  5
209
100
AcDbSymbolTableRecord
100
AcDbLayerTableRecord
  2
04__ASM_ALL_DTM_PNT
 70
0
 62
7
  6
CONTINUOUS
370
-3
390
F
  0
LAYER
  5
20A
100
AcDbSymbolTableRecord
100
AcDbLayerTableRecord
  2
04___PRT_ALL_DTM_PNT
 70
0
 62
7
  6
CONTINUOUS
370
-3
390
F
  0
LAYER
  5
20B
100
AcDbSymbolTableRecord
100
AcDbLayerTableRecord
  2
05_ALL_DTM_CSYS
 70
0
 62
7
  6
CONTINUOUS
370
-3
390
F
  0
LAYER
  5
20C
100
AcDbSymbolTableRecord
100
AcDbLayerTableRecord
  2
05__ASM_ALL_DTM_CSYS
 70
0
 62
7
  6
CONTINUOUS
370
-3
390
F
  0
LAYER
  5
20D
100
AcDbSymbolTableRecord
100
AcDbLayerTableRecord
  2
05__ASM_DEF_DTM_CSYS
 70
0
 62
7
  6
CONTINUOUS
370
-3
390
F
  0
LAYER
  5
20E
100
AcDbSymbolTableRecord
100
AcDbLayerTableRecord
  2
05___PRT_ALL_DTM_CSYS
 70
0
 62
7
  6
CONTINUOUS
370
-3
390
F
  0
LAYER
  5
20F
100
AcDbSymbolTableRecord
100
AcDbLayerTableRecord
  2
05___PRT_DEF_DTM_CSYS
 70
0
 62
7
  6
CONTINUOUS
370
-3
390
F
  0
LAYER
  5
210
100
AcDbSymbolTableRecord
100
AcDbLayerTableRecord
  2
06_ALL_SURFS
 70
0
 62
7
  6
CONTINUOUS
370
-3
390
F
  0
LAYER
  5
211
100
AcDbSymbolTableRecord
100
AcDbLayerTableRecord
  2
06__ASM_ALL_SURFS
 70
0
 62
7
  6
CONTINUOUS
370
-3
390
F
  0
LAYER
  5
212
100
AcDbSymbolTableRecord
100
AcDbLayerTableRecord
  2
06___PRT_ALL_SURFS
 70
0
 62
7
  6
CONTINUOUS
370
-3
390
F
  0
LAYER
  5
213
100
AcDbSymbolTableRecord
100
AcDbLayerTableRecord
  2
07__ASM_ALL_SKELETONS
 70
0
 62
7
  6
CONTINUOUS
370
-3
390
F
  0
ENDTAB
  0
TABLE
  2
STYLE
  5
3
100
AcDbSymbolTable
 70
1
  0
STYLE
  5
11
100
AcDbSymbolTableRecord
100
AcDbTextStyleTableRecord
  2
STANDARD
 70
0
 40
0.0
 41
0.85
 50
0.0
 71
0
 42
0.2
  3
txt
  4

  0
STYLE
  5
214
100
AcDbSymbolTableRecord
100
AcDbTextStyleTableRecord
  2
TEXTSTYLE_1
 70
0
 40
0.0
 41
0.8
 50
0.0
 71
0
 42
0.2
  3
gdt
  4

  0
STYLE
  5
215
100
AcDbSymbolTableRecord
100
AcDbTextStyleTableRecord
  2
TEXTSTYLE_2
 70
0
 40
0.0
 41
0.85
 50
0.0
 71
0
 42
0.2
  3
gdt
  4

  0
ENDTAB
  0
TABLE
  2
VIEW
  5
6
100
AcDbSymbolTable
 70
0
  0
ENDTAB
  0
TABLE
  2
UCS
  5
7
100
AcDbSymbolTable
 70
0
  0
ENDTAB
  0
TABLE
  2
APPID
  5
9
100
AcDbSymbolTable
 70
1
  0
APPID
  5
216
100
AcDbSymbolTableRecord
100
AcDbRegAppTableRecord
  2
ACAD
 70
0
  0
ENDTAB
  0
TABLE
  2
BLOCK_RECORD
  5
1
100
AcDbSymbolTable
 70
0
  0
BLOCK_RECORD
  5
217
100
AcDbSymbolTableRecord
100
AcDbBlockTableRecord
  2
*Model_Space
  0
BLOCK_RECORD
  5
218
100
AcDbSymbolTableRecord
100
AcDbBlockTableRecord
  2
*Paper_Space
  0
BLOCK_RECORD
  5
219
100
AcDbSymbolTableRecord
100
AcDbBlockTableRecord
  2
_FILLED
  0
BLOCK_RECORD
  5
21A
100
AcDbSymbolTableRecord
100
AcDbBlockTableRecord
  2
*D0
  0
BLOCK_RECORD
  5
21B
100
AcDbSymbolTableRecord
100
AcDbBlockTableRecord
  2
*D1
  0
BLOCK_RECORD
  5
21C
100
AcDbSymbolTableRecord
100
AcDbBlockTableRecord
  2
*D2
  0
BLOCK_RECORD
  5
21D
100
AcDbSymbolTableRecord
100
AcDbBlockTableRecord
  2
*D3
  0
BLOCK_RECORD
  5
21E
100
AcDbSymbolTableRecord
100
AcDbBlockTableRecord
  2
*D4
  0
BLOCK_RECORD
  5
21F
100
AcDbSymbolTableRecord
100
AcDbBlockTableRecord
  2
*D5
  0
BLOCK_RECORD
  5
220
100
AcDbSymbolTableRecord
100
AcDbBlockTableRecord
  2
*D6
  0
BLOCK_RECORD
  5
221
100
AcDbSymbolTableRecord
100
AcDbBlockTableRecord
  2
*D7
  0
BLOCK_RECORD
  5
222
100
AcDbSymbolTableRecord
100
AcDbBlockTableRecord
  2
*D8
  0
BLOCK_RECORD
  5
223
100
AcDbSymbolTableRecord
100
AcDbBlockTableRecord
  2
*D9
  0
BLOCK_RECORD
  5
224
100
AcDbSymbolTableRecord
100
AcDbBlockTableRecord
  2
*D10
  0
BLOCK_RECORD
  5
225
100
AcDbSymbolTableRecord
100
AcDbBlockTableRecord
  2
*D11
  0
BLOCK_RECORD
  5
226
100
AcDbSymbolTableRecord
100
AcDbBlockTableRecord
  2
*D12
  0
BLOCK_RECORD
  5
227
100
AcDbSymbolTableRecord
100
AcDbBlockTableRecord
  2
*D13
  0
BLOCK_RECORD
  5
228
100
AcDbSymbolTableRecord
100
AcDbBlockTableRecord
  2
*D14
  0
BLOCK_RECORD
  5
229
100
AcDbSymbolTableRecord
100
AcDbBlockTableRecord
  2
*D15
  0
BLOCK_RECORD
  5
22A
100
AcDbSymbolTableRecord
100
AcDbBlockTableRecord
  2
*D16
  0
BLOCK_RECORD
  5
22B
100
AcDbSymbolTableRecord
100
AcDbBlockTableRecord
  2
*D17
  0
BLOCK_RECORD
  5
22C
100
AcDbSymbolTableRecord
100
AcDbBlockTableRecord
  2
*D18
  0
ENDTAB
  0
TABLE
  2
DIMSTYLE
  5
A
100
AcDbSymbolTable
 70
1
100
AcDbDimStyleTable
 71
0
  0
DIMSTYLE
105
22D
100
AcDbSymbolTableRecord
100
AcDbDimStyleTableRecord
  2
STANDARD
 70
0
  3

  4

 40
1.0
 41
3.5
 42
1.0
 43
0.38
 44
1.5
 45
0.0
 46
0.0
 47
0.01
 48
0.01
140
3.5
141
0.09
142
0.0
143
25.4
144
1.0
145
0.0
146
1.0
147
0.625
 71
1.0
 72
0.0
 73
0
 74
0
 75
0
 76
0
 77
1
 78
8
 79
2
170
0
171
1
172
0
173
0
174
0
175
0
176
0
177
0
178
0
270
2
179
2
271
2
272
2
273
2
274
2
275
0
280
0
281
0
282
0
283
1
284
8
285
0
286
0
287
3
288
0
340
11
278
44
341
219
342
219
343
219
344
219
  0
DIMSTYLE
105
22E
100
AcDbSymbolTableRecord
100
AcDbDimStyleTableRecord
  2
DIMSTYLE_1
 70
0
  3

  4

 40
1.0
 41
3.5
 42
1.0
 43
0.38
 44
1.5
 45
0.0
 46
0.0
 47
0.01
 48
0.01
140
3.5
141
0.09
142
0.0
143
25.4
144
1.0
145
0.0
146
1.0
147
0.875
 71
0.0
 72
0.0
 73
0
 74
0
 75
0
 76
0
 77
1
 78
8
 79
2
170
0
171
1
172
0
173
0
174
0
175
0
176
0
177
0
178
0
270
2
179
2
271
2
272
2
273
2
274
2
275
0
280
0
281
0
282
0
283
1
284
8
285
0
286
0
287
3
288
0
340
11
278
44
341
219
342
219
343
219
344
219
  0
DIMSTYLE
105
22F
100
AcDbSymbolTableRecord
100
AcDbDimStyleTableRecord
  2
DIMSTYLE_2
 70
0
  3
<>
  4

 40
1.0
 41
3.5
 42
1.0
 43
0.38
 44
1.5
 45
0.0
 46
0.0
 47
0.01
 48
0.01
140
3.5
141
0.09
142
0.0
143
25.4
144
1.0
145
0.0
146
1.0
147
0.625
 71
0.0
 72
0.0
 73
0
 74
0
 75
0
 76
0
 77
1
 78
8
 79
2
170
0
171
1
172
1
173
0
174
0
175
0
176
0
177
0
178
0
270
2
179
2
271
2
272
2
273
2
274
2
275
0
280
0
281
0
282
0
283
1
284
8
285
0
286
0
287
3
288
1
340
11
278
44
289
2
341
219
342
219
343
219
344
219
  0
ENDTAB
  0
ENDSEC
  0
SECTION
  2
BLOCKS
  0
BLOCK
  5
20
100
AcDbEntity
  8
0
100
AcDbBlockBegin
  2
*Model_Space
 70
0
 10
0.0
 20
0.0
 30
0.0
  3
*Model_Space
  1

  0
ENDBLK
  5
21
100
AcDbEntity
  8
0
100
AcDbBlockEnd
  0
BLOCK
  5
1C
100
AcDbEntity
  8
0
100
AcDbBlockBegin
  2
*Paper_Space
 70
0
 10
0.0
 20
0.0
 30
0.0
  3
*Paper_Space
  1

  0
ENDBLK
  5
1D
100
AcDbEntity
  8
0
100
AcDbBlockEnd
  0
BLOCK
  5
230
100
AcDbEntity
  8
0
100
AcDbBlockBegin
  2
_FILLED
 70
64
 10
0.0
 20
0.0
  3
_FILLED
  1

  0
SOLID
  5
231
100
AcDbEntity
  8
0
  6
BYBLOCK
 62
0
100
AcDbTrace
 10
0.0
 20
0.0
 11
-1.0
 21
0.2142857143
 12
-1.0
 22
-0.2142857143
 13
-1.0
 23
-0.2142857143
  0
ENDBLK
  5
232
100
AcDbEntity
  8
0
  6
BYBLOCK
 62
0
100
AcDbBlockEnd
  0
BLOCK
  5
233
100
AcDbEntity
  8
0
100
AcDbBlockBegin
 62
2
  6
CONTINUOUS
  2
*D0
 70
65
 10
0.0
 20
0.0
  3
*D0
  1

  0
MTEXT
  5
234
100
AcDbEntity
  8
0
100
AcDbMText
 62
2
  6
CONTINUOUS
  7
STANDARD
 71
2
 72
1
 10
84.9257079853
 20
83.6563481915
 30
0.0
 11
1.0
 21
0.0
 31
0.0
 73
2
 44
0.9
  1
(121)
 40
3.5
 41
14.875
  0
LINE
  5
235
100
AcDbEntity
  8
0
100
AcDbLine
 62
2
  6
CONTINUOUS
 10
145.3125311489
 20
54.6813481915
 11
145.3125311489
 21
80.7813481915
  0
LINE
  5
236
100
AcDbEntity
  8
0
100
AcDbLine
 62
2
  6
CONTINUOUS
 10
24.5388848216
 20
51.6813481915
 11
24.5388848216
 21
80.7813481915
  0
LINE
  5
237
100
AcDbEntity
  8
0
100
AcDbLine
 62
2
  6
CONTINUOUS
 10
145.3125311489
 20
79.2813481915
 11
84.9257079853
 21
79.2813481915
  0
LINE
  5
238
100
AcDbEntity
  8
0
100
AcDbLine
 62
2
  6
CONTINUOUS
 10
24.5388848216
 20
79.2813481915
 11
84.9257079853
 21
79.2813481915
  0
INSERT
  5
239
100
AcDbEntity
  8
0
100
AcDbBlockReference
 62
2
  6
CONTINUOUS
  2
_FILLED
 10
145.3125311489
 20
79.2813481915
 41
3.5
 42
3.5
 43
3.5
  0
INSERT
  5
23A
100
AcDbEntity
  8
0
100
AcDbBlockReference
 62
2
  6
CONTINUOUS
  2
_FILLED
 10
24.5388848216
 20
79.2813481915
 41
3.5
 42
3.5
 43
3.5
 50
180.0
  0
ENDBLK
  5
23B
100
AcDbEntity
  8
0
  6
BYBLOCK
 62
0
100
AcDbBlockEnd
  0
BLOCK
  5
23C
100
AcDbEntity
  8
0
100
AcDbBlockBegin
 62
2
  6
CONTINUOUS
  2
*D1
 70
65
 10
0.0
 20
0.0
  3
*D1
  1

  0
MTEXT
  5
23D
100
AcDbEntity
  8
0
100
AcDbMText
 62
2
  6
CONTINUOUS
  7
STANDARD
 71
3
 72
1
 10
386.5896250575
 20
219.5627410885
 30
0.0
 11
0.0
 21
1.0
 31
0.0
 73
2
 44
0.9
  1
M12
 40
3.5
 41
8.925
  0
LINE
  5
23E
100
AcDbEntity
  8
0
100
AcDbLine
 62
2
  6
CONTINUOUS
 10
374.0646250575
 20
234.6671782763
 11
392.4646250575
 21
234.6671782763
  0
LINE
  5
23F
100
AcDbEntity
  8
0
100
AcDbLine
 62
2
  6
CONTINUOUS
 10
374.0646250575
 20
222.6671782763
 11
392.4646250575
 21
222.6671782763
  0
LINE
  5
240
100
AcDbEntity
  8
0
100
AcDbLine
 62
2
  6
CONTINUOUS
 10
390.9646250575
 20
234.6671782763
 11
390.9646250575
 21
228.6671782763
  0
LINE
  5
241
100
AcDbEntity
  8
0
100
AcDbLine
 62
2
  6
CONTINUOUS
 10
390.9646250575
 20
222.6671782763
 11
390.9646250575
 21
228.6671782763
  0
LINE
  5
242
100
AcDbEntity
  8
0
100
AcDbLine
 62
2
  6
CONTINUOUS
 10
390.9646250575
 20
228.6671782763
 11
390.9646250575
 21
210.6377410885
  0
INSERT
  5
243
100
AcDbEntity
  8
0
100
AcDbBlockReference
 62
2
  6
CONTINUOUS
  2
_FILLED
 10
390.9646250575
 20
234.6671782763
 41
3.5
 42
3.5
 43
3.5
 50
90.0
  0
INSERT
  5
244
100
AcDbEntity
  8
0
100
AcDbBlockReference
 62
2
  6
CONTINUOUS
  2
_FILLED
 10
390.9646250575
 20
222.6671782763
 41
3.5
 42
3.5
 43
3.5
 50
270.0
  0
ENDBLK
  5
245
100
AcDbEntity
  8
0
  6
BYBLOCK
 62
0
100
AcDbBlockEnd
  0
BLOCK
  5
246
100
AcDbEntity
  8
0
100
AcDbBlockBegin
 62
2
  6
CONTINUOUS
  2
*D2
 70
65
 10
0.0
 20
0.0
  3
*D2
  1

  0
MTEXT
  5
247
100
AcDbEntity
  8
0
100
AcDbMText
 62
2
  6
CONTINUOUS
  7
STANDARD
 71
3
 72
1
 10
281.3689226528
 20
133.3421782763
 30
0.0
 11
1.0
 21
0.0
 31
0.0
 73
2
 44
0.9
  1
M10
 40
3.5
 41
8.925
  0
LINE
  5
248
100
AcDbEntity
  8
0
100
AcDbLine
 62
2
  6
CONTINUOUS
 10
296.2646250575
 20
145.8671782763
 11
296.2646250575
 21
127.4671782763
  0
LINE
  5
249
100
AcDbEntity
  8
0
100
AcDbLine
 62
2
  6
CONTINUOUS
 10
286.2646250575
 20
145.8671782763
 11
286.2646250575
 21
127.4671782763
  0
LINE
  5
24A
100
AcDbEntity
  8
0
100
AcDbLine
 62
2
  6
CONTINUOUS
 10
296.2646250575
 20
128.9671782763
 11
301.2646250575
 21
128.9671782763
  0
LINE
  5
24B
100
AcDbEntity
  8
0
100
AcDbLine
 62
2
  6
CONTINUOUS
 10
301.2646250575
 20
128.9671782763
 11
291.2646250575
 21
128.9671782763
  0
LINE
  5
24C
100
AcDbEntity
  8
0
100
AcDbLine
 62
2
  6
CONTINUOUS
 10
286.2646250575
 20
128.9671782763
 11
272.4439226528
 21
128.9671782763
  0
LINE
  5
24D
100
AcDbEntity
  8
0
100
AcDbLine
 62
2
  6
CONTINUOUS
 10
272.4439226528
 20
128.9671782763
 11
291.2646250575
 21
128.9671782763
  0
INSERT
  5
24E
100
AcDbEntity
  8
0
100
AcDbBlockReference
 62
2
  6
CONTINUOUS
  2
_FILLED
 10
296.2646250575
 20
128.9671782763
 41
3.5
 42
3.5
 43
3.5
 50
180.0
  0
INSERT
  5
24F
100
AcDbEntity
  8
0
100
AcDbBlockReference
 62
2
  6
CONTINUOUS
  2
_FILLED
 10
286.2646250575
 20
128.9671782763
 41
3.5
 42
3.5
 43
3.5
  0
ENDBLK
  5
250
100
AcDbEntity
  8
0
  6
BYBLOCK
 62
0
100
AcDbBlockEnd
  0
BLOCK
  5
251
100
AcDbEntity
  8
0
100
AcDbBlockBegin
 62
2
  6
CONTINUOUS
  2
*D3
 70
65
 10
0.0
 20
0.0
  3
*D3
  1

  0
MTEXT
  5
252
100
AcDbEntity
  8
0
100
AcDbMText
 62
2
  6
CONTINUOUS
  7
STANDARD
 71
3
 72
1
 10
7.4638848216
 20
216.035061054
 30
0.0
 11
0.0
 21
1.0
 31
0.0
 73
2
 44
0.9
  1
3/8" UNF
 40
3.5
 41
23.8
  0
LINE
  5
253
100
AcDbEntity
  8
0
100
AcDbLine
 62
2
  6
CONTINUOUS
 10
23.5388848216
 20
233.3671782763
 11
10.9638848216
 21
233.3671782763
  0
LINE
  5
254
100
AcDbEntity
  8
0
100
AcDbLine
 62
2
  6
CONTINUOUS
 10
10.9638848216
 20
233.3671782763
 11
10.3388848216
 21
233.3671782763
  0
LINE
  5
255
100
AcDbEntity
  8
0
100
AcDbLine
 62
2
  6
CONTINUOUS
 10
23.5388848216
 20
223.9671782763
 11
10.9638848216
 21
223.9671782763
  0
LINE
  5
256
100
AcDbEntity
  8
0
100
AcDbLine
 62
2
  6
CONTINUOUS
 10
10.9638848216
 20
223.9671782763
 11
10.3388848216
 21
223.9671782763
  0
LINE
  5
257
100
AcDbEntity
  8
0
100
AcDbLine
 62
2
  6
CONTINUOUS
 10
11.8388848216
 20
233.3671782763
 11
11.8388848216
 21
238.3671782763
  0
LINE
  5
258
100
AcDbEntity
  8
0
100
AcDbLine
 62
2
  6
CONTINUOUS
 10
11.8388848216
 20
238.3671782763
 11
11.8388848216
 21
228.6671782763
  0
LINE
  5
259
100
AcDbEntity
  8
0
100
AcDbLine
 62
2
  6
CONTINUOUS
 10
11.8388848216
 20
223.9671782763
 11
11.8388848216
 21
192.235061054
  0
LINE
  5
25A
100
AcDbEntity
  8
0
100
AcDbLine
 62
2
  6
CONTINUOUS
 10
11.8388848216
 20
192.235061054
 11
11.8388848216
 21
228.6671782763
  0
INSERT
  5
25B
100
AcDbEntity
  8
0
100
AcDbBlockReference
 62
2
  6
CONTINUOUS
  2
_FILLED
 10
11.8388848216
 20
233.3671782763
 41
3.5
 42
3.5
 43
3.5
 50
270.0
  0
INSERT
  5
25C
100
AcDbEntity
  8
0
100
AcDbBlockReference
 62
2
  6
CONTINUOUS
  2
_FILLED
 10
11.8388848216
 20
223.9671782763
 41
3.5
 42
3.5
 43
3.5
 50
90.0
  0
ENDBLK
  5
25D
100
AcDbEntity
  8
0
  6
BYBLOCK
 62
0
100
AcDbBlockEnd
  0
BLOCK
  5
25E
100
AcDbEntity
  8
0
100
AcDbBlockBegin
 62
2
  6
CONTINUOUS
  2
*D4
 70
65
 10
0.0
 20
0.0
  3
*D4
  1

  0
MTEXT
  5
25F
100
AcDbEntity
  8
0
100
AcDbMText
 62
2
  6
CONTINUOUS
  7
STANDARD
 71
3
 72
1
 10
18.6388062842
 20
244.6448352358
 30
0.0
 11
1.0
 21
0.0
 31
0.0
 73
2
 44
0.9
  1
7
 40
3.5
 41
2.975
  0
LINE
  5
260
100
AcDbEntity
  8
0
100
AcDbLine
 62
2
  6
CONTINUOUS
 10
24.5388848216
 20
234.3671782763
 11
24.5388848216
 21
241.7698352358
  0
LINE
  5
261
100
AcDbEntity
  8
0
100
AcDbLine
 62
2
  6
CONTINUOUS
 10
31.5388848216
 20
234.3671782763
 11
31.5388848216
 21
241.7698352358
  0
LINE
  5
262
100
AcDbEntity
  8
0
100
AcDbLine
 62
2
  6
CONTINUOUS
 10
24.5388848216
 20
240.2698352358
 11
15.6638062842
 21
240.2698352358
  0
LINE
  5
263
100
AcDbEntity
  8
0
100
AcDbLine
 62
2
  6
CONTINUOUS
 10
15.6638062842
 20
240.2698352358
 11
28.0388848216
 21
240.2698352358
  0
LINE
  5
264
100
AcDbEntity
  8
0
100
AcDbLine
 62
2
  6
CONTINUOUS
 10
31.5388848216
 20
240.2698352358
 11
36.5388848216
 21
240.2698352358
  0
LINE
  5
265
100
AcDbEntity
  8
0
100
AcDbLine
 62
2
  6
CONTINUOUS
 10
36.5388848216
 20
240.2698352358
 11
28.0388848216
 21
240.2698352358
  0
INSERT
  5
266
100
AcDbEntity
  8
0
100
AcDbBlockReference
 62
2
  6
CONTINUOUS
  2
_FILLED
 10
24.5388848216
 20
240.2698352358
 41
3.5
 42
3.5
 43
3.5
  0
INSERT
  5
267
100
AcDbEntity
  8
0
100
AcDbBlockReference
 62
2
  6
CONTINUOUS
  2
_FILLED
 10
31.5388848216
 20
240.2698352358
 41
3.5
 42
3.5
 43
3.5
 50
180.0
  0
ENDBLK
  5
268
100
AcDbEntity
  8
0
  6
BYBLOCK
 62
0
100
AcDbBlockEnd
  0
BLOCK
  5
269
100
AcDbEntity
  8
0
100
AcDbBlockBegin
 62
2
  6
CONTINUOUS
  2
*D5
 70
65
 10
0.0
 20
0.0
  3
*D5
  1

  0
MTEXT
  5
26A
100
AcDbEntity
  8
0
100
AcDbMText
 62
2
  6
CONTINUOUS
  7
STANDARD
 71
1
 72
1
 10
377.438900824
 20
250.7235416832
 30
0.0
 11
1.0
 21
0.0
 31
0.0
 73
2
 44
0.9
  1
6,5
 40
3.5
 41
8.925
  0
LINE
  5
26B
100
AcDbEntity
  8
0
100
AcDbLine
 62
2
  6
CONTINUOUS
 10
366.7646250575
 20
236.3171782763
 11
366.7646250575
 21
247.8485416832
  0
LINE
  5
26C
100
AcDbEntity
  8
0
100
AcDbLine
 62
2
  6
CONTINUOUS
 10
373.2646250575
 20
235.4671782763
 11
373.2646250575
 21
247.8485416832
  0
LINE
  5
26D
100
AcDbEntity
  8
0
100
AcDbLine
 62
2
  6
CONTINUOUS
 10
366.7646250575
 20
246.3485416832
 11
361.7646250575
 21
246.3485416832
  0
LINE
  5
26E
100
AcDbEntity
  8
0
100
AcDbLine
 62
2
  6
CONTINUOUS
 10
361.7646250575
 20
246.3485416832
 11
370.0146250575
 21
246.3485416832
  0
LINE
  5
26F
100
AcDbEntity
  8
0
100
AcDbLine
 62
2
  6
CONTINUOUS
 10
373.2646250575
 20
246.3485416832
 11
386.363900824
 21
246.3485416832
  0
LINE
  5
270
100
AcDbEntity
  8
0
100
AcDbLine
 62
2
  6
CONTINUOUS
 10
386.363900824
 20
246.3485416832
 11
370.0146250575
 21
246.3485416832
  0
INSERT
  5
271
100
AcDbEntity
  8
0
100
AcDbBlockReference
 62
2
  6
CONTINUOUS
  2
_FILLED
 10
366.7646250575
 20
246.3485416832
 41
3.5
 42
3.5
 43
3.5
  0
INSERT
  5
272
100
AcDbEntity
  8
0
100
AcDbBlockReference
 62
2
  6
CONTINUOUS
  2
_FILLED
 10
373.2646250575
 20
246.3485416832
 41
3.5
 42
3.5
 43
3.5
 50
180.0
  0
ENDBLK
  5
273
100
AcDbEntity
  8
0
  6
BYBLOCK
 62
0
100
AcDbBlockEnd
  0
BLOCK
  5
274
100
AcDbEntity
  8
0
100
AcDbBlockBegin
 62
2
  6
CONTINUOUS
  2
*D6
 70
65
 10
0.0
 20
0.0
  3
*D6
  1

  0
MTEXT
  5
275
100
AcDbEntity
  8
0
100
AcDbMText
 62
2
  6
CONTINUOUS
  7
STANDARD
 71
3
 72
1
 10
306.5826258882
 20
142.8283503601
 30
0.0
 11
0.0
 21
1.0
 31
0.0
 73
2
 44
0.9
  1
7,5
 40
3.5
 41
8.925
  0
LINE
  5
276
100
AcDbEntity
  8
0
100
AcDbLine
 62
2
  6
CONTINUOUS
 10
297.0646250575
 20
146.6671782763
 11
312.4576258882
 21
146.6671782763
  0
LINE
  5
277
100
AcDbEntity
  8
0
100
AcDbLine
 62
2
  6
CONTINUOUS
 10
298.0646250575
 20
154.1671782763
 11
312.4576258882
 21
154.1671782763
  0
LINE
  5
278
100
AcDbEntity
  8
0
100
AcDbLine
 62
2
  6
CONTINUOUS
 10
310.9576258882
 20
146.6671782763
 11
310.9576258882
 21
133.9033503601
  0
LINE
  5
279
100
AcDbEntity
  8
0
100
AcDbLine
 62
2
  6
CONTINUOUS
 10
310.9576258882
 20
133.9033503601
 11
310.9576258882
 21
150.4171782763
  0
LINE
  5
27A
100
AcDbEntity
  8
0
100
AcDbLine
 62
2
  6
CONTINUOUS
 10
310.9576258882
 20
154.1671782763
 11
310.9576258882
 21
159.1671782763
  0
LINE
  5
27B
100
AcDbEntity
  8
0
100
AcDbLine
 62
2
  6
CONTINUOUS
 10
310.9576258882
 20
159.1671782763
 11
310.9576258882
 21
150.4171782763
  0
INSERT
  5
27C
100
AcDbEntity
  8
0
100
AcDbBlockReference
 62
2
  6
CONTINUOUS
  2
_FILLED
 10
310.9576258882
 20
146.6671782763
 41
3.5
 42
3.5
 43
3.5
 50
90.0
  0
INSERT
  5
27D
100
AcDbEntity
  8
0
100
AcDbBlockReference
 62
2
  6
CONTINUOUS
  2
_FILLED
 10
310.9576258882
 20
154.1671782763
 41
3.5
 42
3.5
 43
3.5
 50
270.0
  0
ENDBLK
  5
27E
100
AcDbEntity
  8
0
  6
BYBLOCK
 62
0
100
AcDbBlockEnd
  0
BLOCK
  5
27F
100
AcDbEntity
  8
0
100
AcDbBlockBegin
 62
2
  6
CONTINUOUS
  2
*D7
 70
65
 10
0.0
 20
0.0
  3
*D7
  1

  0
MTEXT
  5
280
100
AcDbEntity
  8
0
100
AcDbMText
 62
2
  6
CONTINUOUS
  7
STANDARD
 71
2
 72
1
 10
291.2646250575
 20
123.3421782763
 30
0.0
 11
1.0
 21
0.0
 31
0.0
 73
2
 44
0.9
  1
50
 40
3.5
 41
5.95
  0
LINE
  5
281
100
AcDbEntity
  8
0
100
AcDbLine
 62
2
  6
CONTINUOUS
 10
266.2646250575
 20
178.6671782763
 11
266.2646250575
 21
117.4671782763
  0
LINE
  5
282
100
AcDbEntity
  8
0
100
AcDbLine
 62
2
  6
CONTINUOUS
 10
316.2646250575
 20
178.6671782763
 11
316.2646250575
 21
117.4671782763
  0
LINE
  5
283
100
AcDbEntity
  8
0
100
AcDbLine
 62
2
  6
CONTINUOUS
 10
266.2646250575
 20
118.9671782763
 11
291.2646250575
 21
118.9671782763
  0
LINE
  5
284
100
AcDbEntity
  8
0
100
AcDbLine
 62
2
  6
CONTINUOUS
 10
316.2646250575
 20
118.9671782763
 11
291.2646250575
 21
118.9671782763
  0
INSERT
  5
285
100
AcDbEntity
  8
0
100
AcDbBlockReference
 62
2
  6
CONTINUOUS
  2
_FILLED
 10
266.2646250575
 20
118.9671782763
 41
3.5
 42
3.5
 43
3.5
 50
180.0
  0
INSERT
  5
286
100
AcDbEntity
  8
0
100
AcDbBlockReference
 62
2
  6
CONTINUOUS
  2
_FILLED
 10
316.2646250575
 20
118.9671782763
 41
3.5
 42
3.5
 43
3.5
  0
ENDBLK
  5
287
100
AcDbEntity
  8
0
  6
BYBLOCK
 62
0
100
AcDbBlockEnd
  0
BLOCK
  5
288
100
AcDbEntity
  8
0
100
AcDbBlockBegin
 62
2
  6
CONTINUOUS
  2
*D8
 70
65
 10
0.0
 20
0.0
  3
*D8
  1

  0
MTEXT
  5
289
100
AcDbEntity
  8
0
100
AcDbMText
 62
2
  6
CONTINUOUS
  7
STANDARD
 71
2
 72
1
 10
396.5896250575
 20
228.6671782763
 30
0.0
 11
0.0
 21
1.0
 31
0.0
 73
2
 44
0.9
  1
50
 40
3.5
 41
5.95
  0
LINE
  5
28A
100
AcDbEntity
  8
0
100
AcDbLine
 62
2
  6
CONTINUOUS
 10
348.7646250575
 20
203.6671782763
 11
402.4646250575
 21
203.6671782763
  0
LINE
  5
28B
100
AcDbEntity
  8
0
100
AcDbLine
 62
2
  6
CONTINUOUS
 10
348.7646250575
 20
253.6671782763
 11
402.4646250575
 21
253.6671782763
  0
LINE
  5
28C
100
AcDbEntity
  8
0
100
AcDbLine
 62
2
  6
CONTINUOUS
 10
400.9646250575
 20
203.6671782763
 11
400.9646250575
 21
228.6671782763
  0
LINE
  5
28D
100
AcDbEntity
  8
0
100
AcDbLine
 62
2
  6
CONTINUOUS
 10
400.9646250575
 20
253.6671782763
 11
400.9646250575
 21
228.6671782763
  0
INSERT
  5
28E
100
AcDbEntity
  8
0
100
AcDbBlockReference
 62
2
  6
CONTINUOUS
  2
_FILLED
 10
400.9646250575
 20
203.6671782763
 41
3.5
 42
3.5
 43
3.5
 50
270.0
  0
INSERT
  5
28F
100
AcDbEntity
  8
0
100
AcDbBlockReference
 62
2
  6
CONTINUOUS
  2
_FILLED
 10
400.9646250575
 20
253.6671782763
 41
3.5
 42
3.5
 43
3.5
 50
90.0
  0
ENDBLK
  5
290
100
AcDbEntity
  8
0
  6
BYBLOCK
 62
0
100
AcDbBlockEnd
  0
BLOCK
  5
291
100
AcDbEntity
  8
0
100
AcDbBlockBegin
 62
2
  6
CONTINUOUS
  2
*D9
 70
65
 10
0.0
 20
0.0
  3
*D9
  1

  0
MTEXT
  5
292
100
AcDbEntity
  8
0
100
AcDbMText
 62
2
  6
CONTINUOUS
  7
STANDARD
 71
2
 72
1
 10
347.7646250575
 20
277.7421782763
 30
0.0
 11
1.0
 21
0.0
 31
0.0
 73
2
 44
0.9
  1
15
 40
3.5
 41
5.95
  0
LINE
  5
293
100
AcDbEntity
  8
0
100
AcDbLine
 62
2
  6
CONTINUOUS
 10
355.2646250575
 20
261.6671782763
 11
355.2646250575
 21
274.8671782763
  0
LINE
  5
294
100
AcDbEntity
  8
0
100
AcDbLine
 62
2
  6
CONTINUOUS
 10
340.2646250575
 20
262.1671782763
 11
340.2646250575
 21
274.8671782763
  0
LINE
  5
295
100
AcDbEntity
  8
0
100
AcDbLine
 62
2
  6
CONTINUOUS
 10
355.2646250575
 20
273.3671782763
 11
360.2646250575
 21
273.3671782763
  0
LINE
  5
296
100
AcDbEntity
  8
0
100
AcDbLine
 62
2
  6
CONTINUOUS
 10
360.2646250575
 20
273.3671782763
 11
347.7646250575
 21
273.3671782763
  0
LINE
  5
297
100
AcDbEntity
  8
0
100
AcDbLine
 62
2
  6
CONTINUOUS
 10
340.2646250575
 20
273.3671782763
 11
335.2646250575
 21
273.3671782763
  0
LINE
  5
298
100
AcDbEntity
  8
0
100
AcDbLine
 62
2
  6
CONTINUOUS
 10
335.2646250575
 20
273.3671782763
 11
347.7646250575
 21
273.3671782763
  0
INSERT
  5
299
100
AcDbEntity
  8
0
100
AcDbBlockReference
 62
2
  6
CONTINUOUS
  2
_FILLED
 10
355.2646250575
 20
273.3671782763
 41
3.5
 42
3.5
 43
3.5
 50
180.0
  0
INSERT
  5
29A
100
AcDbEntity
  8
0
100
AcDbBlockReference
 62
2
  6
CONTINUOUS
  2
_FILLED
 10
340.2646250575
 20
273.3671782763
 41
3.5
 42
3.5
 43
3.5
  0
ENDBLK
  5
29B
100
AcDbEntity
  8
0
  6
BYBLOCK
 62
0
100
AcDbBlockEnd
  0
BLOCK
  5
29C
100
AcDbEntity
  8
0
100
AcDbBlockBegin
 62
2
  6
CONTINUOUS
  2
*D10
 70
65
 10
0.0
 20
0.0
  3
*D10
  1

  0
MTEXT
  5
29D
100
AcDbEntity
  8
0
100
AcDbMText
 62
2
  6
CONTINUOUS
  7
STANDARD
 71
2
 72
1
 10
340.2646250575
 20
287.7421782763
 30
0.0
 11
1.0
 21
0.0
 31
0.0
 73
2
 44
0.9
  1
30
 40
3.5
 41
5.95
  0
LINE
  5
29E
100
AcDbEntity
  8
0
100
AcDbLine
 62
2
  6
CONTINUOUS
 10
355.2646250575
 20
261.6671782763
 11
355.2646250575
 21
284.8671782763
  0
LINE
  5
29F
100
AcDbEntity
  8
0
100
AcDbLine
 62
2
  6
CONTINUOUS
 10
325.2646250575
 20
261.6671782763
 11
325.2646250575
 21
284.8671782763
  0
LINE
  5
2A0
100
AcDbEntity
  8
0
100
AcDbLine
 62
2
  6
CONTINUOUS
 10
355.2646250575
 20
283.3671782763
 11
340.2646250575
 21
283.3671782763
  0
LINE
  5
2A1
100
AcDbEntity
  8
0
100
AcDbLine
 62
2
  6
CONTINUOUS
 10
325.2646250575
 20
283.3671782763
 11
340.2646250575
 21
283.3671782763
  0
INSERT
  5
2A2
100
AcDbEntity
  8
0
100
AcDbBlockReference
 62
2
  6
CONTINUOUS
  2
_FILLED
 10
355.2646250575
 20
283.3671782763
 41
3.5
 42
3.5
 43
3.5
  0
INSERT
  5
2A3
100
AcDbEntity
  8
0
100
AcDbBlockReference
 62
2
  6
CONTINUOUS
  2
_FILLED
 10
325.2646250575
 20
283.3671782763
 41
3.5
 42
3.5
 43
3.5
 50
180.0
  0
ENDBLK
  5
2A4
100
AcDbEntity
  8
0
  6
BYBLOCK
 62
0
100
AcDbBlockEnd
  0
BLOCK
  5
2A5
100
AcDbEntity
  8
0
100
AcDbBlockBegin
 62
2
  6
CONTINUOUS
  2
*D11
 70
65
 10
0.0
 20
0.0
  3
*D11
  1

  0
MTEXT
  5
2A6
100
AcDbEntity
  8
0
100
AcDbMText
 62
2
  6
CONTINUOUS
  7
STANDARD
 71
2
 72
1
 10
101.8125311489
 20
133.3421782763
 30
0.0
 11
1.0
 21
0.0
 31
0.0
 73
2
 44
0.9
  1
87max
 40
3.5
 41
14.875
  0
LINE
  5
2A7
100
AcDbEntity
  8
0
100
AcDbLine
 62
2
  6
CONTINUOUS
 10
58.3125311489
 20
137.7552790264
 11
58.3125311489
 21
127.4671782763
  0
LINE
  5
2A8
100
AcDbEntity
  8
0
100
AcDbLine
 62
2
  6
CONTINUOUS
 10
145.3125311489
 20
224.6671782763
 11
145.3125311489
 21
127.4671782763
  0
LINE
  5
2A9
100
AcDbEntity
  8
0
100
AcDbLine
 62
2
  6
CONTINUOUS
 10
58.3125311489
 20
128.9671782763
 11
101.8125311489
 21
128.9671782763
  0
LINE
  5
2AA
100
AcDbEntity
  8
0
100
AcDbLine
 62
2
  6
CONTINUOUS
 10
145.3125311489
 20
128.9671782763
 11
101.8125311489
 21
128.9671782763
  0
INSERT
  5
2AB
100
AcDbEntity
  8
0
100
AcDbBlockReference
 62
2
  6
CONTINUOUS
  2
_FILLED
 10
58.3125311489
 20
128.9671782763
 41
3.5
 42
3.5
 43
3.5
 50
180.0
  0
INSERT
  5
2AC
100
AcDbEntity
  8
0
100
AcDbBlockReference
 62
2
  6
CONTINUOUS
  2
_FILLED
 10
145.3125311489
 20
128.9671782763
 41
3.5
 42
3.5
 43
3.5
  0
ENDBLK
  5
2AD
100
AcDbEntity
  8
0
  6
BYBLOCK
 62
0
100
AcDbBlockEnd
  0
BLOCK
  5
2AE
100
AcDbEntity
  8
0
100
AcDbBlockBegin
 62
2
  6
CONTINUOUS
  2
*D12
 70
65
 10
0.0
 20
0.0
  3
*D12
  1

  0
MTEXT
  5
2AF
100
AcDbEntity
  8
0
100
AcDbMText
 62
2
  6
CONTINUOUS
  7
STANDARD
 71
2
 72
1
 10
153.6375311489
 20
185.1671782763
 30
0.0
 11
0.0
 21
1.0
 31
0.0
 73
2
 44
0.9
  1
87max
 40
3.5
 41
14.875
  0
LINE
  5
2B0
100
AcDbEntity
  8
0
100
AcDbLine
 62
2
  6
CONTINUOUS
 10
147.6131947989
 20
228.6671782763
 11
159.5125311489
 21
228.6671782763
  0
LINE
  5
2B1
100
AcDbEntity
  8
0
100
AcDbLine
 62
2
  6
CONTINUOUS
 10
61.3125311489
 20
141.6671782763
 11
159.5125311489
 21
141.6671782763
  0
LINE
  5
2B2
100
AcDbEntity
  8
0
100
AcDbLine
 62
2
  6
CONTINUOUS
 10
158.0125311489
 20
228.6671782763
 11
158.0125311489
 21
185.1671782763
  0
LINE
  5
2B3
100
AcDbEntity
  8
0
100
AcDbLine
 62
2
  6
CONTINUOUS
 10
158.0125311489
 20
141.6671782763
 11
158.0125311489
 21
185.1671782763
  0
INSERT
  5
2B4
100
AcDbEntity
  8
0
100
AcDbBlockReference
 62
2
  6
CONTINUOUS
  2
_FILLED
 10
158.0125311489
 20
228.6671782763
 41
3.5
 42
3.5
 43
3.5
 50
90.0
  0
INSERT
  5
2B5
100
AcDbEntity
  8
0
100
AcDbBlockReference
 62
2
  6
CONTINUOUS
  2
_FILLED
 10
158.0125311489
 20
141.6671782763
 41
3.5
 42
3.5
 43
3.5
 50
270.0
  0
ENDBLK
  5
2B6
100
AcDbEntity
  8
0
  6
BYBLOCK
 62
0
100
AcDbBlockEnd
  0
BLOCK
  5
2B7
100
AcDbEntity
  8
0
100
AcDbBlockBegin
 62
2
  6
CONTINUOUS
  2
*D13
 70
65
 10
0.0
 20
0.0
  3
*D13
  1

  0
MTEXT
  5
2B8
100
AcDbEntity
  8
0
100
AcDbMText
 62
2
  6
CONTINUOUS
  7
STANDARD
 71
2
 72
1
 10
153.6375311489
 20
58.6313481915
 30
0.0
 11
0.0
 21
1.0
 31
0.0
 73
2
 44
0.9
  1
15,9
 40
3.5
 41
11.9
  0
LINE
  5
2B9
100
AcDbEntity
  8
0
100
AcDbLine
 62
2
  6
CONTINUOUS
 10
123.3125311489
 20
66.5813481915
 11
159.5125311489
 21
66.5813481915
  0
LINE
  5
2BA
100
AcDbEntity
  8
0
100
AcDbLine
 62
2
  6
CONTINUOUS
 10
146.6999146593
 20
50.6813481915
 11
159.5125311489
 21
50.6813481915
  0
LINE
  5
2BB
100
AcDbEntity
  8
0
100
AcDbLine
 62
2
  6
CONTINUOUS
 10
158.0125311489
 20
66.5813481915
 11
158.0125311489
 21
71.5813481915
  0
LINE
  5
2BC
100
AcDbEntity
  8
0
100
AcDbLine
 62
2
  6
CONTINUOUS
 10
158.0125311489
 20
71.5813481915
 11
158.0125311489
 21
58.6313481915
  0
LINE
  5
2BD
100
AcDbEntity
  8
0
100
AcDbLine
 62
2
  6
CONTINUOUS
 10
158.0125311489
 20
50.6813481915
 11
158.0125311489
 21
45.6813481915
  0
LINE
  5
2BE
100
AcDbEntity
  8
0
100
AcDbLine
 62
2
  6
CONTINUOUS
 10
158.0125311489
 20
45.6813481915
 11
158.0125311489
 21
58.6313481915
  0
INSERT
  5
2BF
100
AcDbEntity
  8
0
100
AcDbBlockReference
 62
2
  6
CONTINUOUS
  2
_FILLED
 10
158.0125311489
 20
66.5813481915
 41
3.5
 42
3.5
 43
3.5
 50
270.0
  0
INSERT
  5
2C0
100
AcDbEntity
  8
0
100
AcDbBlockReference
 62
2
  6
CONTINUOUS
  2
_FILLED
 10
158.0125311489
 20
50.6813481915
 41
3.5
 42
3.5
 43
3.5
 50
90.0
  0
ENDBLK
  5
2C1
100
AcDbEntity
  8
0
  6
BYBLOCK
 62
0
100
AcDbBlockEnd
  0
BLOCK
  5
2C2
100
AcDbEntity
  8
0
100
AcDbBlockBegin
 62
2
  6
CONTINUOUS
  2
*D14
 70
65
 10
0.0
 20
0.0
  3
*D14
  1

  0
MTEXT
  5
2C3
100
AcDbEntity
  8
0
100
AcDbMText
 62
2
  6
CONTINUOUS
  7
STANDARD
 71
2
 72
1
 10
386.0035814008
 20
172.1671782763
 30
0.0
 11
0.0
 21
1.0
 31
0.0
 73
2
 44
0.9
  1
15
 40
3.5
 41
5.95
  0
LINE
  5
2C4
100
AcDbEntity
  8
0
100
AcDbLine
 62
2
  6
CONTINUOUS
 10
324.2646250575
 20
164.6671782763
 11
391.8785814008
 21
164.6671782763
  0
LINE
  5
2C5
100
AcDbEntity
  8
0
100
AcDbLine
 62
2
  6
CONTINUOUS
 10
324.7646250575
 20
179.6671782763
 11
391.8785814008
 21
179.6671782763
  0
LINE
  5
2C6
100
AcDbEntity
  8
0
100
AcDbLine
 62
2
  6
CONTINUOUS
 10
390.3785814008
 20
164.6671782763
 11
390.3785814008
 21
159.6671782763
  0
LINE
  5
2C7
100
AcDbEntity
  8
0
100
AcDbLine
 62
2
  6
CONTINUOUS
 10
390.3785814008
 20
159.6671782763
 11
390.3785814008
 21
172.1671782763
  0
LINE
  5
2C8
100
AcDbEntity
  8
0
100
AcDbLine
 62
2
  6
CONTINUOUS
 10
390.3785814008
 20
179.6671782763
 11
390.3785814008
 21
184.6671782763
  0
LINE
  5
2C9
100
AcDbEntity
  8
0
100
AcDbLine
 62
2
  6
CONTINUOUS
 10
390.3785814008
 20
184.6671782763
 11
390.3785814008
 21
172.1671782763
  0
INSERT
  5
2CA
100
AcDbEntity
  8
0
100
AcDbBlockReference
 62
2
  6
CONTINUOUS
  2
_FILLED
 10
390.3785814008
 20
164.6671782763
 41
3.5
 42
3.5
 43
3.5
 50
90.0
  0
INSERT
  5
2CB
100
AcDbEntity
  8
0
100
AcDbBlockReference
 62
2
  6
CONTINUOUS
  2
_FILLED
 10
390.3785814008
 20
179.6671782763
 41
3.5
 42
3.5
 43
3.5
 50
270.0
  0
ENDBLK
  5
2CC
100
AcDbEntity
  8
0
  6
BYBLOCK
 62
0
100
AcDbBlockEnd
  0
BLOCK
  5
2CD
100
AcDbEntity
  8
0
100
AcDbBlockBegin
 62
2
  6
CONTINUOUS
  2
*D15
 70
65
 10
0.0
 20
0.0
  3
*D15
  1

  0
MTEXT
  5
2CE
100
AcDbEntity
  8
0
100
AcDbMText
 62
2
  6
CONTINUOUS
  7
STANDARD
 71
2
 72
1
 10
395.9872425683
 20
179.6671782763
 30
0.0
 11
0.0
 21
1.0
 31
0.0
 73
2
 44
0.9
  1
30
 40
3.5
 41
5.95
  0
LINE
  5
2CF
100
AcDbEntity
  8
0
100
AcDbLine
 62
2
  6
CONTINUOUS
 10
324.2646250575
 20
164.6671782763
 11
401.8622425683
 21
164.6671782763
  0
LINE
  5
2D0
100
AcDbEntity
  8
0
100
AcDbLine
 62
2
  6
CONTINUOUS
 10
324.2646250575
 20
194.6671782763
 11
401.8622425683
 21
194.6671782763
  0
LINE
  5
2D1
100
AcDbEntity
  8
0
100
AcDbLine
 62
2
  6
CONTINUOUS
 10
400.3622425683
 20
164.6671782763
 11
400.3622425683
 21
179.6671782763
  0
LINE
  5
2D2
100
AcDbEntity
  8
0
100
AcDbLine
 62
2
  6
CONTINUOUS
 10
400.3622425683
 20
194.6671782763
 11
400.3622425683
 21
179.6671782763
  0
INSERT
  5
2D3
100
AcDbEntity
  8
0
100
AcDbBlockReference
 62
2
  6
CONTINUOUS
  2
_FILLED
 10
400.3622425683
 20
164.6671782763
 41
3.5
 42
3.5
 43
3.5
 50
270.0
  0
INSERT
  5
2D4
100
AcDbEntity
  8
0
100
AcDbBlockReference
 62
2
  6
CONTINUOUS
  2
_FILLED
 10
400.3622425683
 20
194.6671782763
 41
3.5
 42
3.5
 43
3.5
 50
90.0
  0
ENDBLK
  5
2D5
100
AcDbEntity
  8
0
  6
BYBLOCK
 62
0
100
AcDbBlockEnd
  0
BLOCK
  5
2D6
100
AcDbEntity
  8
0
100
AcDbBlockBegin
 62
2
  6
CONTINUOUS
  2
*D16
 70
65
 10
0.0
 20
0.0
  3
*D16
  1

  0
MTEXT
  5
2D7
100
AcDbEntity
  8
0
100
AcDbMText
 62
2
  6
CONTINUOUS
  7
STANDARD
 71
2
 72
1
 10
406.5896250575
 20
228.6671782763
 30
0.0
 11
0.0
 21
1.0
 31
0.0
 73
2
 44
0.9
  1
64
 40
3.5
 41
5.95
  0
LINE
  5
2D8
100
AcDbEntity
  8
0
100
AcDbLine
 62
2
  6
CONTINUOUS
 10
356.2646250575
 20
260.6671782763
 11
412.4646250575
 21
260.6671782763
  0
LINE
  5
2D9
100
AcDbEntity
  8
0
100
AcDbLine
 62
2
  6
CONTINUOUS
 10
356.2646250575
 20
196.6671782763
 11
412.4646250575
 21
196.6671782763
  0
LINE
  5
2DA
100
AcDbEntity
  8
0
100
AcDbLine
 62
2
  6
CONTINUOUS
 10
410.9646250575
 20
260.6671782763
 11
410.9646250575
 21
228.6671782763
  0
LINE
  5
2DB
100
AcDbEntity
  8
0
100
AcDbLine
 62
2
  6
CONTINUOUS
 10
410.9646250575
 20
196.6671782763
 11
410.9646250575
 21
228.6671782763
  0
INSERT
  5
2DC
100
AcDbEntity
  8
0
100
AcDbBlockReference
 62
2
  6
CONTINUOUS
  2
_FILLED
 10
410.9646250575
 20
260.6671782763
 41
3.5
 42
3.5
 43
3.5
 50
90.0
  0
INSERT
  5
2DD
100
AcDbEntity
  8
0
100
AcDbBlockReference
 62
2
  6
CONTINUOUS
  2
_FILLED
 10
410.9646250575
 20
196.6671782763
 41
3.5
 42
3.5
 43
3.5
 50
270.0
  0
ENDBLK
  5
2DE
100
AcDbEntity
  8
0
  6
BYBLOCK
 62
0
100
AcDbBlockEnd
  0
BLOCK
  5
2DF
100
AcDbEntity
  8
0
100
AcDbBlockBegin
 62
2
  6
CONTINUOUS
  2
*D17
 70
65
 10
0.0
 20
0.0
  3
*D17
  1

  0
MTEXT
  5
2E0
100
AcDbEntity
  8
0
100
AcDbMText
 62
2
  6
CONTINUOUS
  7
STANDARD
 71
2
 72
1
 10
291.2646250575
 20
113.3421782763
 30
0.0
 11
1.0
 21
0.0
 31
0.0
 73
2
 44
0.9
  1
64
 40
3.5
 41
5.95
  0
LINE
  5
2E1
100
AcDbEntity
  8
0
100
AcDbLine
 62
2
  6
CONTINUOUS
 10
323.2646250575
 20
163.6671782763
 11
323.2646250575
 21
107.4671782763
  0
LINE
  5
2E2
100
AcDbEntity
  8
0
100
AcDbLine
 62
2
  6
CONTINUOUS
 10
259.2646250575
 20
163.6671782763
 11
259.2646250575
 21
107.4671782763
  0
LINE
  5
2E3
100
AcDbEntity
  8
0
100
AcDbLine
 62
2
  6
CONTINUOUS
 10
323.2646250575
 20
108.9671782763
 11
291.2646250575
 21
108.9671782763
  0
LINE
  5
2E4
100
AcDbEntity
  8
0
100
AcDbLine
 62
2
  6
CONTINUOUS
 10
259.2646250575
 20
108.9671782763
 11
291.2646250575
 21
108.9671782763
  0
INSERT
  5
2E5
100
AcDbEntity
  8
0
100
AcDbBlockReference
 62
2
  6
CONTINUOUS
  2
_FILLED
 10
323.2646250575
 20
108.9671782763
 41
3.5
 42
3.5
 43
3.5
  0
INSERT
  5
2E6
100
AcDbEntity
  8
0
100
AcDbBlockReference
 62
2
  6
CONTINUOUS
  2
_FILLED
 10
259.2646250575
 20
108.9671782763
 41
3.5
 42
3.5
 43
3.5
 50
180.0
  0
ENDBLK
  5
2E7
100
AcDbEntity
  8
0
  6
BYBLOCK
 62
0
100
AcDbBlockEnd
  0
BLOCK
  5
2E8
100
AcDbEntity
  8
0
100
AcDbBlockBegin
 62
2
  6
CONTINUOUS
  2
*D18
 70
65
 10
0.0
 20
0.0
  3
*D18
  1

  0
MTEXT
  5
2E9
100
AcDbEntity
  8
0
100
AcDbMText
 62
2
  6
CONTINUOUS
  7
STANDARD
 71
3
 72
1
 10
246.2906961475
 20
203.5714995463
 30
0.0
 11
1.0
 21
0.0
 31
0.0
 73
2
 44
0.9
  1
4x \fgdt;{\fgdt;n}\ftxt;7
 40
3.5
 41
16.5666666667
  0
LINE
  5
2EA
100
AcDbEntity
  8
0
100
AcDbLine
 62
2
  6
CONTINUOUS
 10
264.2279359167
 20
182.5135614813
 11
266.2646250575
 21
179.6671782763
  0
LINE
  5
2EB
100
AcDbEntity
  8
0
100
AcDbLine
 62
2
  6
CONTINUOUS
 10
266.2646250575
 20
179.6671782763
 11
252.2906961475
 21
199.1964995463
  0
LINE
  5
2EC
100
AcDbEntity
  8
0
100
AcDbLine
 62
2
  6
CONTINUOUS
 10
252.2906961475
 20
199.1964995463
 11
225.5240294809
 21
199.1964995463
  0
LINE
  5
2ED
100
AcDbEntity
  8
0
100
AcDbLine
 62
2
  6
CONTINUOUS
 10
225.5240294809
 20
199.1964995463
 11
250.4906961475
 21
199.1964995463
  0
LINE
  5
2EE
100
AcDbEntity
  8
0
100
AcDbLine
 62
2
  6
CONTINUOUS
 10
268.3013141983
 20
176.8207950713
 11
266.2646250575
 21
179.6671782763
  0
LINE
  5
2EF
100
AcDbEntity
  8
0
100
AcDbLine
 62
2
  6
CONTINUOUS
 10
266.2646250575
 20
179.6671782763
 11
271.2108701125
 21
172.7545333515
  0
INSERT
  5
2F0
100
AcDbEntity
  8
0
100
AcDbBlockReference
 62
2
  6
CONTINUOUS
  2
_FILLED
 10
264.2279359172
 20
182.5135614806
 41
3.5
 42
3.5
 43
3.5
 50
305.5852298863
  0
INSERT
  5
2F1
100
AcDbEntity
  8
0
100
AcDbBlockReference
 62
2
  6
CONTINUOUS
  2
_FILLED
 10
268.3013141978
 20
176.820795072
 41
3.5
 42
3.5
 43
3.5
 50
125.5841017817
  0
ENDBLK
  5
2F2
100
AcDbEntity
  8
0
  6
BYBLOCK
 62
0
100
AcDbBlockEnd
  0
ENDSEC
  0
SECTION
  2
ENTITIES
  0
DIMENSION
  5
2F3
100
AcDbEntity
  8
0
100
AcDbDimension
 62
2
  6
CONTINUOUS
  2
*D0
 10
24.5388848216
 20
79.2813481915
 11
84.9257079853
 21
79.2813481915
 70
160
 71
2
 72
2
 41
0.9
 42
120.7736463273
  1
(<>)
  3
DIMSTYLE_1
100
AcDbAlignedDimension
 13
145.3125311489
 23
53.6813481915
 14
24.5388848216
 24
50.6813481915
 50
180.0
100
AcDbRotatedDimension
  0
DIMENSION
  5
2F4
100
AcDbEntity
  8
0
100
AcDbDimension
 62
2
  6
CONTINUOUS
  2
*D1
 10
390.9646250575
 20
222.6671782763
 11
390.9646250575
 21
215.1002410885
 70
160
 71
3
 72
2
 41
0.9
 42
12.0
  1
M<>
  3
DIMSTYLE_1
100
AcDbAlignedDimension
 13
373.0646250575
 23
234.6671782763
 14
373.0646250575
 24
222.6671782763
 50
270.0
100
AcDbRotatedDimension
  0
DIMENSION
  5
2F5
100
AcDbEntity
  8
0
100
AcDbDimension
 62
2
  6
CONTINUOUS
  2
*D2
 10
286.2646250575
 20
128.9671782763
 11
276.9064226528
 21
128.9671782763
 70
160
 71
3
 72
2
 41
0.9
 42
10.0
  1
M<>
  3
DIMSTYLE_1
100
AcDbAlignedDimension
 13
296.2646250575
 23
146.8671782763
 14
286.2646250575
 24
146.8671782763
 50
180.0
100
AcDbRotatedDimension
  0
DIMENSION
  5
2F6
100
AcDbEntity
  8
0
100
AcDbDimension
 62
2
  6
CONTINUOUS
  2
*D3
 10
11.8388848216
 20
223.9671782763
 11
11.8388848216
 21
204.1350608149
 70
160
 71
3
 72
2
 41
0.9
 42
9.4
  1
3/8" UNF
  3
DIMSTYLE_1
100
AcDbAlignedDimension
 13
24.5388848216
 23
233.3671782763
 14
24.5388848216
 24
223.9671782763
 50
270.0
100
AcDbRotatedDimension
  0
DIMENSION
  5
2F7
100
AcDbEntity
  8
0
100
AcDbDimension
 62
2
  6
CONTINUOUS
  2
*D4
 10
31.5388848216
 20
240.2698352358
 11
17.1513060379
 21
240.2698352358
 70
160
 71
3
 72
2
 41
0.9
 42
7.0
  3
DIMSTYLE_1
100
AcDbAlignedDimension
 13
24.5388848216
 23
233.3671782763
 14
31.5388848216
 24
233.3671782763
 50
360.0
100
AcDbRotatedDimension
  0
DIMENSION
  5
2F8
100
AcDbEntity
  8
0
100
AcDbDimension
 62
2
  6
CONTINUOUS
  2
*D5
 10
373.2646250575
 20
246.3485416832
 11
381.9943707275
 21
246.3485416832
 70
160
 71
1
 72
2
 41
0.9
 42
6.5
  3
DIMSTYLE_1
100
AcDbAlignedDimension
 13
366.7646250575
 23
235.3171782763
 14
373.2646250575
 24
234.4671782763
100
AcDbRotatedDimension
  0
DIMENSION
  5
2F9
100
AcDbEntity
  8
0
100
AcDbDimension
 62
2
  6
CONTINUOUS
  2
*D6
 10
310.9576258882
 20
154.1671782763
 11
310.9576258882
 21
138.4588256683
 70
160
 71
3
 72
2
 41
0.9
 42
7.5
  3
DIMSTYLE_1
100
AcDbAlignedDimension
 13
296.0646250575
 23
146.6671782763
 14
297.0646250575
 24
154.1671782763
 50
90.0
100
AcDbRotatedDimension
  0
DIMENSION
  5
2FA
100
AcDbEntity
  8
0
100
AcDbDimension
 62
2
  6
CONTINUOUS
  2
*D7
 10
316.2646250575
 20
118.9671782763
 11
291.2646166992
 21
118.9671782763
 70
160
 71
2
 72
2
 41
0.9
 42
50.0
  3
DIMSTYLE_1
100
AcDbAlignedDimension
 13
266.2646250575
 23
179.6671782763
 14
316.2646250575
 24
179.6671782763
100
AcDbRotatedDimension
  0
DIMENSION
  5
2FB
100
AcDbEntity
  8
0
100
AcDbDimension
 62
2
  6
CONTINUOUS
  2
*D8
 10
400.9646250575
 20
253.6671782763
 11
400.9646250575
 21
228.6671760215
 70
160
 71
2
 72
2
 41
0.9
 42
50.0
  3
DIMSTYLE_1
100
AcDbAlignedDimension
 13
347.7646250575
 23
203.6671782763
 14
347.7646250575
 24
253.6671782763
 50
90.0
100
AcDbRotatedDimension
  0
DIMENSION
  5
2FC
100
AcDbEntity
  8
0
100
AcDbDimension
 62
2
  6
CONTINUOUS
  2
*D9
 10
340.2646250575
 20
273.3671782763
 11
348.2294750977
 21
273.3671782763
 70
160
 71
2
 72
2
 41
0.9
 42
15.0
  3
DIMSTYLE_1
100
AcDbAlignedDimension
 13
355.2646250575
 23
260.6671782763
 14
340.2646250575
 24
261.1671782763
 50
180.0
100
AcDbRotatedDimension
  0
DIMENSION
  5
2FD
100
AcDbEntity
  8
0
100
AcDbDimension
 62
2
  6
CONTINUOUS
  2
*D10
 10
325.2646250575
 20
283.3671782763
 11
340.2646252441
 21
283.3671782763
 70
160
 71
2
 72
2
 41
0.9
 42
30.0
  3
DIMSTYLE_1
100
AcDbAlignedDimension
 13
355.2646250575
 23
260.6671782763
 14
325.2646250575
 24
260.6671782763
 50
180.0
100
AcDbRotatedDimension
  0
DIMENSION
  5
2FE
100
AcDbEntity
  8
0
100
AcDbDimension
 62
2
  6
CONTINUOUS
  2
*D11
 10
145.3125311489
 20
128.9671782763
 11
101.8125311489
 21
128.9671782763
 70
160
 71
2
 72
2
 41
0.9
 42
87.0
  1
<>max
  3
DIMSTYLE_1
100
AcDbAlignedDimension
 13
58.3125311489
 23
138.7552790264
 14
145.3125311489
 24
225.6671782763
100
AcDbRotatedDimension
  0
DIMENSION
  5
2FF
100
AcDbEntity
  8
0
100
AcDbDimension
 62
2
  6
CONTINUOUS
  2
*D12
 10
158.0125311489
 20
141.6671782763
 11
158.0125311489
 21
185.1671782763
 70
160
 71
2
 72
2
 41
0.9
 42
87.0
  1
<>max
  3
DIMSTYLE_1
100
AcDbAlignedDimension
 13
146.6131947989
 23
228.6671782763
 14
60.3125311489
 24
141.6671782763
 50
270.0
100
AcDbRotatedDimension
  0
DIMENSION
  5
300
100
AcDbEntity
  8
0
100
AcDbDimension
 62
2
  6
CONTINUOUS
  2
*D13
 10
158.0125311489
 20
50.6813481915
 11
158.0125311489
 21
59.0032271379
 70
160
 71
2
 72
2
 41
0.9
 42
15.9
  3
DIMSTYLE_1
100
AcDbAlignedDimension
 13
122.3125311489
 23
66.5813481915
 14
145.6999146593
 24
50.6813481915
 50
270.0
100
AcDbRotatedDimension
  0
DIMENSION
  5
301
100
AcDbEntity
  8
0
100
AcDbDimension
 62
2
  6
CONTINUOUS
  2
*D14
 10
390.3785814008
 20
179.6671782763
 11
390.3785814008
 21
172.6320246099
 70
160
 71
2
 72
2
 41
0.9
 42
15.0
  3
DIMSTYLE_1
100
AcDbAlignedDimension
 13
323.2646250575
 23
164.6671782763
 14
323.7646250575
 24
179.6671782763
 50
90.0
100
AcDbRotatedDimension
  0
DIMENSION
  5
302
100
AcDbEntity
  8
0
100
AcDbDimension
 62
2
  6
CONTINUOUS
  2
*D15
 10
400.3622425683
 20
194.6671782763
 11
400.3622425683
 21
179.6671671533
 70
160
 71
2
 72
2
 41
0.9
 42
30.0
  3
DIMSTYLE_1
100
AcDbAlignedDimension
 13
323.2646250575
 23
164.6671782763
 14
323.2646250575
 24
194.6671782763
 50
90.0
100
AcDbRotatedDimension
  0
DIMENSION
  5
303
100
AcDbEntity
  8
0
100
AcDbDimension
 62
2
  6
CONTINUOUS
  2
*D16
 10
410.9646250575
 20
196.6671782763
 11
410.9646250575
 21
228.7601472129
 70
160
 71
2
 72
2
 41
0.9
 42
64.0
  3
DIMSTYLE_1
100
AcDbAlignedDimension
 13
355.2646250575
 23
260.6671782763
 14
355.2646250575
 24
196.6671782763
 50
270.0
100
AcDbRotatedDimension
  0
DIMENSION
  5
304
100
AcDbEntity
  8
0
100
AcDbDimension
 62
2
  6
CONTINUOUS
  2
*D17
 10
259.2646250575
 20
108.9671782763
 11
291.3575939941
 21
108.9671782763
 70
160
 71
2
 72
2
 41
0.9
 42
64.0
  3
DIMSTYLE_1
100
AcDbAlignedDimension
 13
323.2646250575
 23
164.6671782763
 14
259.2646250575
 24
164.6671782763
 50
180.0
100
AcDbRotatedDimension
  0
DIMENSION
  5
305
100
AcDbEntity
  8
0
100
AcDbDimension
 62
2
  6
CONTINUOUS
  2
*D18
 10
264.2279359172
 20
182.5135614806
 11
238.0073628142
 21
201.8214995463
 70
163
 71
3
 72
2
 41
0.9
 42
7.0
  1
4x %%c<>
  3
DIMSTYLE_2
100
AcDbDiametricDimension
 15
268.3013141978
 25
176.820795072
1001
ACAD
1000
DSTYLE
1002
{
1070
73
1070
1
1070
74
1070
1
1002
}
  0
MTEXT
  5
306
100
AcDbEntity
  8
0
100
AcDbMText
 62
2
  6
CONTINUOUS
  7
STANDARD
 71
1
 72
1
 10
315.777780195
 20
43.4511604839
 30
0.0
 11
1.0
 21
0.0
 31
0.0
 73
2
 44
0.9
  1
Sensoradapter Ø10 / 90°\PAnschlussstücke CK4 oder CK6\PWerkstoff: 1.4435\P \PBlattmaßstab: 1:1\P \PIndex: A vom 24.11.2017
 40
3.5
 41
83.3
  0
MTEXT
  5
307
100
AcDbEntity
  8
0
100
AcDbMText
 62
2
  6
CONTINUOUS
  7
STANDARD
 71
3
 72
1
 10
279.0354045042
 20
81.5668557159
 30
0.0
 11
1.0
 21
0.0
 31
0.0
 73
2
 44
0.9
  1
MASSSTAB 0,500
 40
3.5
 41
41.65
  0
LEADER
  5
308
100
AcDbEntity
  8
0
100
AcDbLeader
 62
2
  6
CONTINUOUS
  3
STANDARD
 71
1
 72
0
 73
0
 75
0
 40
3.5
 41
38.675
 76
3
 10
64.3125311489
 20
159.1400448376
 30
0.0
 10
76.5165391851
 20
150.0558775407
 30
0.0
 10
82.5165391851
 20
150.0558775407
 30
0.0
340
309
1001
ACAD
1000
DSTYLE
1002
{
1070
77
1070
0
1002
}
  0
MTEXT
  5
309
102
{ACAD_REACTORS
330
308
102
}
100
AcDbEntity
  8
0
100
AcDbMText
 62
2
  6
CONTINUOUS
  7
STANDARD
 71
1
 72
1
 10
82.5165391851
 20
151.8058775407
 30
0.0
 11
1.0
 21
0.0
 31
0.0
 73
2
 44
0.9
  1
Anschluss CK4
 40
3.5
 41
38.675
  0
LEADER
  5
30A
100
AcDbEntity
  8
0
100
AcDbLeader
 62
2
  6
CONTINUOUS
  3
STANDARD
 71
1
 72
0
 73
0
 75
0
 40
3.5
 41
38.675
 76
3
 10
128.6850505428
 20
235.5171782763
 30
0.0
 10
131.4848141639
 20
254.5955442369
 30
0.0
 10
137.4848141639
 20
254.5955442369
 30
0.0
340
30B
1001
ACAD
1000
DSTYLE
1002
{
1070
77
1070
0
1002
}
  0
MTEXT
  5
30B
102
{ACAD_REACTORS
330
30A
102
}
100
AcDbEntity
  8
0
100
AcDbMText
 62
2
  6
CONTINUOUS
  7
STANDARD
 71
1
 72
1
 10
137.4848141639
 20
256.3455442369
 30
0.0
 11
1.0
 21
0.0
 31
0.0
 73
2
 44
0.9
  1
Anschluss CK6
 40
3.5
 41
38.675
  0
LINE
  5
30C
100
AcDbEntity
  8
0
100
AcDbLine
 62
7
  6
CONTINUOUS
 10
0.0
 20
-0.0
 11
0.0
 21
297.0
  0
LINE
  5
30D
100
AcDbEntity
  8
0
100
AcDbLine
 62
7
  6
CONTINUOUS
 10
0.0
 20
-0.0
 11
420.0
 21
-0.0
  0
LINE
  5
30E
100
AcDbEntity
  8
0
100
AcDbLine
 62
7
  6
CONTINUOUS
 10
0.0
 20
297.0
 11
420.0
 21
297.0
  0
LINE
  5
30F
100
AcDbEntity
  8
0
100
AcDbLine
 62
7
  6
CONTINUOUS
 10
420.0
 20
-0.0
 11
420.0
 21
297.0
  0
LINE
  5
310
100
AcDbEntity
  8
02___PRT_ALL_AXES
100
AcDbLine
 62
7
  6
CONTINUOUS
 10
256.870747532
 20
18.6254579151
 11
255.8151090963
 21
18.9371605058
  0
LINE
  5
311
100
AcDbEntity
  8
02___PRT_ALL_AXES
100
AcDbLine
 62
7
  6
CONTINUOUS
 10
274.9394975025
 20
73.8754648195
 11
285.5170196747
 21
78.6842825864
  0
LINE
  5
312
100
AcDbEntity
  8
0
100
AcDbLine
 62
7
  6
CONTINUOUS
 10
270.8858378488
 20
18.3474474667
 11
266.9447876889
 21
19.5111371386
  0
LINE
  5
313
100
AcDbEntity
  8
0
100
AcDbLine
 62
7
  6
CONTINUOUS
 10
262.2296026763
 20
20.9034087102
 11
266.1706528361
 21
19.7397190384
  0
LINE
  5
314
100
AcDbEntity
  8
0
100
AcDbLine
 62
7
  6
CONTINUOUS
 10
270.648373903
 20
18.5285142691
 11
266.7073237432
 21
19.6922039409
  0
LINE
  5
315
100
AcDbEntity
  8
0
100
AcDbLine
 62
7
  6
CONTINUOUS
 10
261.9921387305
 20
21.0844755125
 11
265.9331888903
 21
19.9207858407
  0
LINE
  5
316
100
AcDbEntity
  8
0
100
AcDbLine
 62
7
  6
CONTINUOUS
 10
262.2296026763
 20
20.9034087102
 11
262.0053068598
 21
21.0251123704
  0
LINE
  5
317
100
AcDbEntity
  8
0
100
AcDbLine
 62
7
  6
CONTINUOUS
 10
266.1574847068
 20
19.7990821805
 11
265.9331888903
 21
19.9207858407
  0
LINE
  5
318
100
AcDbEntity
  8
0
100
AcDbLine
 62
7
  6
CONTINUOUS
 10
266.9447876889
 20
19.5111371386
 11
266.7204918725
 21
19.6328407988
  0
LINE
  5
319
100
AcDbEntity
  8
0
100
AcDbLine
 62
7
  6
CONTINUOUS
 10
271.3143185177
 20
13.5360748676
 11
271.2158569471
 21
13.6051070536
  0
LINE
  5
31A
100
AcDbEntity
  8
0
100
AcDbLine
 62
7
  6
CONTINUOUS
 10
270.5412810563
 20
16.8847033393
 11
270.4428194858
 21
16.9537355253
  0
LINE
  5
31B
100
AcDbEntity
  8
02___PRT_ALL_AXES
100
AcDbLine
 62
7
  6
CONTINUOUS
 10
255.8151090963
 20
18.9371605058
 11
254.5194339798
 21
32.7993183891
  0
LINE
  5
31C
100
AcDbEntity
  8
02___PRT_ALL_AXES
100
AcDbLine
 62
7
  6
CONTINUOUS
 10
275.9951359381
 20
73.5637622289
 11
286.5726581104
 21
78.3725799958
  0
LINE
  5
31D
100
AcDbEntity
  8
0
100
AcDbLine
 62
7
  6
CONTINUOUS
 10
270.8726697195
 20
18.4068106088
 11
270.648373903
 21
18.5285142691
  0
LINE
  5
31E
100
AcDbEntity
  8
02___PRT_ALL_AXES
100
AcDbLine
 62
7
  6
CONTINUOUS
 10
256.870747532
 20
18.6254579151
 11
255.5750724154
 21
32.4876157984
  0
LINE
  5
31F
100
AcDbEntity
  8
0
100
AcDbLine
 62
7
  6
CONTINUOUS
 10
277.0224624564
 20
67.1285910539
 11
287.1768837418
 21
71.7450561101
  0
LINE
  5
320
100
AcDbEntity
  8
0
100
AcDbLine
 62
7
  6
CONTINUOUS
 10
261.9921387305
 20
21.0844755125
 11
262.0053068598
 21
21.0251123704
  0
LINE
  5
321
100
AcDbEntity
  8
0
100
AcDbLine
 62
7
  6
CONTINUOUS
 10
261.9921387305
 20
21.0844755125
 11
260.7482906186
 21
34.3921470805
  0
LINE
  5
322
100
AcDbEntity
  8
0
100
AcDbLine
 62
7
  6
CONTINUOUS
 10
260.7355452456
 20
34.6100270961
 11
260.7482906186
 21
34.3921470805
  0
LINE
  5
323
100
AcDbEntity
  8
0
100
AcDbLine
 62
7
  6
CONTINUOUS
 10
277.0224624564
 20
67.1285910539
 11
276.8240801423
 21
66.9730515564
  0
LINE
  5
324
100
AcDbEntity
  8
0
100
AcDbLine
 62
7
  6
CONTINUOUS
 10
291.1179339017
 20
70.5813664382
 11
280.9635126163
 21
65.964901382
  0
LINE
  5
325
100
AcDbEntity
  8
0
100
AcDbLine
 62
7
  6
CONTINUOUS
 10
291.3549750911
 20
70.2417827624
 11
281.2005538057
 21
65.6253177062
  0
LINE
  5
326
100
AcDbEntity
  8
0
100
AcDbLine
 62
7
  6
CONTINUOUS
 10
281.7376474691
 20
65.7363194822
 11
291.8920687545
 21
70.3527845384
  0
LINE
  5
327
100
AcDbEntity
  8
02___PRT_ALL_AXES
100
AcDbLine
 62
7
  6
CONTINUOUS
 10
255.5750724154
 20
32.4876157984
 11
254.5194339798
 21
32.7993183891
  0
LINE
  5
328
100
AcDbEntity
  8
0
100
AcDbLine
 62
7
  6
CONTINUOUS
 10
264.8877230926
 20
33.3839969061
 11
265.1120189091
 21
33.2622932459
  0
LINE
  5
329
100
AcDbEntity
  8
02___PRT_ALL_AXES
100
AcDbLine
 62
7
  6
CONTINUOUS
 10
272.6988600348
 20
11.6571520666
 11
272.3656881912
 21
12.5488619381
  0
LINE
  5
32A
100
AcDbEntity
  8
0
100
AcDbLine
 62
7
  6
CONTINUOUS
 10
266.1706528361
 20
19.7397190384
 11
266.1574847068
 21
19.7990821805
  0
LINE
  5
32B
100
AcDbEntity
  8
0
100
AcDbLine
 62
7
  6
CONTINUOUS
 10
266.7073237432
 20
19.6922039409
 11
266.7204918725
 21
19.6328407988
  0
LINE
  5
32C
100
AcDbEntity
  8
0
100
AcDbLine
 62
7
  6
CONTINUOUS
 10
264.6893407785
 20
33.2284574087
 11
265.9331888903
 21
19.9207858407
  0
LINE
  5
32D
100
AcDbEntity
  8
0
100
AcDbLine
 62
7
  6
CONTINUOUS
 10
265.1120189091
 20
33.2622932459
 11
266.3558670209
 21
19.9546216779
  0
LINE
  5
32E
100
AcDbEntity
  8
0
100
AcDbLine
 62
7
  6
CONTINUOUS
 10
266.7073237432
 20
19.6922039409
 11
265.4634756313
 21
32.9998755089
  0
LINE
  5
32F
100
AcDbEntity
  8
0
100
AcDbLine
 62
7
  6
CONTINUOUS
 10
264.8749777196
 20
33.6018769217
 11
264.8877230926
 21
33.3839969061
  0
LINE
  5
330
100
AcDbEntity
  8
0
100
AcDbLine
 62
7
  6
CONTINUOUS
 10
280.7778756752
 20
65.591481869
 11
280.9762579893
 21
65.7470213665
  0
LINE
  5
331
100
AcDbEntity
  8
0
100
AcDbLine
 62
7
  6
CONTINUOUS
 10
281.7376474691
 20
65.7363194822
 11
281.539265155
 21
65.5807799848
  0
LINE
  5
332
100
AcDbEntity
  8
0
100
AcDbLine
 62
7
  6
CONTINUOUS
 10
295.8331189143
 20
69.1890948666
 11
285.678697629
 21
64.5726298104
  0
LINE
  5
333
100
AcDbEntity
  8
0
100
AcDbLine
 62
7
  6
CONTINUOUS
 10
296.0701601038
 20
68.8495111908
 11
285.9157388184
 21
64.2330461346
  0
LINE
  5
334
100
AcDbEntity
  8
0
100
AcDbLine
 62
7
  6
CONTINUOUS
 10
269.4045257912
 20
31.836185837
 11
265.4634756313
 21
32.9998755089
  0
LINE
  5
335
100
AcDbEntity
  8
0
100
AcDbLine
 62
7
  6
CONTINUOUS
 10
260.7482906186
 20
34.3921470805
 11
264.6893407785
 21
33.2284574087
  0
LINE
  5
336
100
AcDbEntity
  8
0
100
AcDbLine
 62
7
  6
CONTINUOUS
 10
269.5901627323
 20
32.20960535
 11
265.6491125724
 21
33.3732950219
  0
LINE
  5
337
100
AcDbEntity
  8
0
100
AcDbLine
 62
7
  6
CONTINUOUS
 10
260.9339275598
 20
34.7655665935
 11
264.8749777196
 21
33.6018769217
  0
LINE
  5
338
100
AcDbEntity
  8
0
100
AcDbLine
 62
7
  6
CONTINUOUS
 10
269.8272039218
 20
31.8700216742
 11
269.6029081053
 21
31.9917253345
  0
LINE
  5
339
100
AcDbEntity
  8
0
100
AcDbLine
 62
7
  6
CONTINUOUS
 10
265.4634756313
 20
32.9998755089
 11
265.4507302583
 21
33.2177555244
  0
LINE
  5
33A
100
AcDbEntity
  8
02___PRT_ALL_AXES
100
AcDbLine
 62
7
  6
CONTINUOUS
 10
297.5283619447
 20
67.8302054352
 11
296.2356055584
 21
67.2424846271
  0
LINE
  5
33B
100
AcDbEntity
  8
0
100
AcDbLine
 62
7
  6
CONTINUOUS
 10
275.9455981674
 20
57.4688714277
 11
281.0933264507
 21
59.8091631165
  0
LINE
  5
33C
100
AcDbEntity
  8
02___PRT_ALL_AXES
100
AcDbLine
 62
7
  6
CONTINUOUS
 10
259.5160350332
 20
49.8347892227
 11
257.0479465264
 21
48.7127317438
  0
LINE
  5
33D
100
AcDbEntity
  8
0
100
AcDbLine
 62
7
  6
CONTINUOUS
 10
282.0507848938
 20
60.026617039
 11
281.7371819627
 21
59.8840449581
  0
LINE
  5
33E
100
AcDbEntity
  8
02___PRT_ALL_AXES
100
AcDbLine
 62
7
  6
CONTINUOUS
 10
273.8390019651
 20
55.9536730469
 11
260.3717387517
 21
49.8311035493
  0
LINE
  5
33F
100
AcDbEntity
  8
0
100
AcDbLine
 62
7
  6
CONTINUOUS
 10
269.0739361444
 20
35.5108330597
 11
268.8817685495
 21
35.6221301935
  0
LINE
  5
340
100
AcDbEntity
  8
0
100
AcDbLine
 62
7
  6
CONTINUOUS
 10
270.8858378488
 20
18.3474474667
 11
270.8726697195
 21
18.4068106088
  0
LINE
  5
341
100
AcDbEntity
  8
02___PRT_ALL_AXES
100
AcDbLine
 62
7
  6
CONTINUOUS
 10
270.150550876
 20
17.3760129115
 11
270.0363062765
 21
18.598292058
  0
LINE
  5
342
100
AcDbEntity
  8
02___PRT_ALL_AXES
100
AcDbLine
 62
7
  6
CONTINUOUS
 10
270.9722997723
 20
13.9570048754
 11
270.707320868
 21
16.7919589161
  0
LINE
  5
343
100
AcDbEntity
  8
0
100
AcDbLine
 62
7
  6
CONTINUOUS
 10
268.9337709438
 20
35.7667997159
 11
268.3032090323
 21
42.513050115
  0
LINE
  5
344
100
AcDbEntity
  8
0
100
AcDbLine
 62
7
  6
CONTINUOUS
 10
269.4045257912
 20
31.836185837
 11
270.648373903
 21
18.5285142691
  0
LINE
  5
345
100
AcDbEntity
  8
0
100
AcDbLine
 62
7
  6
CONTINUOUS
 10
269.504838445
 20
35.1262086795
 11
269.4928981561
 21
35.2539553398
  0
LINE
  5
346
100
AcDbEntity
  8
0
100
AcDbLine
 62
7
  6
CONTINUOUS
 10
269.8272039218
 20
31.8700216742
 11
271.0710520336
 21
18.5623501063
  0
LINE
  5
347
100
AcDbEntity
  8
02___PRT_ALL_AXES
100
AcDbLine
 62
7
  6
CONTINUOUS
 10
272.4546464345
 20
12.604009575
 11
272.3979856743
 21
13.2102112321
  0
LINE
  5
348
100
AcDbEntity
  8
0
100
AcDbLine
 62
7
  6
CONTINUOUS
 10
269.6029081053
 20
31.9917253345
 11
269.5901627323
 21
32.20960535
  0
LINE
  5
349
100
AcDbEntity
  8
0
100
AcDbLine
 62
7
  6
CONTINUOUS
 10
285.4930606878
 20
64.1992102974
 11
285.691443002
 21
64.3547497948
  0
LINE
  5
34A
100
AcDbEntity
  8
02___PRT_ALL_AXES
100
AcDbLine
 62
7
  6
CONTINUOUS
 10
274.7446649735
 20
12.8180541749
 11
274.6877697411
 21
13.426764402
  0
LINE
  5
34B
100
AcDbEntity
  8
02___PRT_ALL_AXES
100
AcDbLine
 62
7
  6
CONTINUOUS
 10
271.5530297265
 20
50.5369193478
 11
262.0191518871
 21
46.202569545
  0
LINE
  5
34C
100
AcDbEntity
  8
02___PRT_ALL_AXES
100
AcDbLine
 62
7
  6
CONTINUOUS
 10
261.4611948706
 20
45.5561967898
 11
258.9931063638
 21
44.4341393108
  0
LINE
  5
34D
100
AcDbEntity
  8
0
100
AcDbLine
 62
7
  6
CONTINUOUS
 10
278.0149171434
 20
52.9171773501
 11
283.1626437745
 21
55.2574682878
  0
LINE
  5
34E
100
AcDbEntity
  8
02___PRT_ALL_AXES
100
AcDbLine
 62
7
  6
CONTINUOUS
 10
300.0115447159
 20
62.3681725422
 11
298.6612145786
 21
61.7542772036
  0
LINE
  5
34F
100
AcDbEntity
  8
02___PRT_ALL_AXES
100
AcDbLine
 62
7
  6
CONTINUOUS
 10
297.8956403582
 20
60.9393680294
 11
296.8683992032
 21
60.4723573783
  0
LINE
  5
350
100
AcDbEntity
  8
0
100
AcDbLine
 62
7
  6
CONTINUOUS
 10
281.8600884521
 20
37.7878339596
 11
277.9190382923
 21
38.9515236315
  0
LINE
  5
351
100
AcDbEntity
  8
0
100
AcDbLine
 62
7
  6
CONTINUOUS
 10
273.5369525909
 20
40.2454396348
 11
277.1449034394
 21
39.1801055313
  0
LINE
  5
352
100
AcDbEntity
  8
0
100
AcDbLine
 62
7
  6
CONTINUOUS
 10
277.1449034394
 20
39.1801055313
 11
277.3691992559
 21
39.058401871
  0
LINE
  5
353
100
AcDbEntity
  8
02___PRT_ALL_AXES
100
AcDbLine
 62
7
  6
CONTINUOUS
 10
275.9506009442
 20
14.4223192229
 11
275.6859261271
 21
17.2540198978
  0
LINE
  5
354
100
AcDbEntity
  8
0
100
AcDbLine
 62
7
  6
CONTINUOUS
 10
273.9120720728
 20
36.2321145221
 11
273.2815102042
 21
42.9783644626
  0
LINE
  5
355
100
AcDbEntity
  8
02___PRT_ALL_AXES
100
AcDbLine
 62
7
  6
CONTINUOUS
 10
276.1245122822
 20
17.9343901285
 11
275.8739437456
 21
20.6151706508
  0
LINE
  5
356
100
AcDbEntity
  8
0
100
AcDbLine
 62
7
  6
CONTINUOUS
 10
260.9339275598
 20
34.7655665935
 11
260.7355452456
 21
34.6100270961
  0
LINE
  5
357
100
AcDbEntity
  8
0
100
AcDbLine
 62
7
  6
CONTINUOUS
 10
281.8600884521
 20
37.7878339596
 11
282.0843842686
 21
37.6661302994
  0
LINE
  5
358
100
AcDbEntity
  8
0
100
AcDbLine
 62
7
  6
CONTINUOUS
 10
277.3938849177
 20
38.7127751952
 11
277.3819446289
 21
38.8405218555
  0
LINE
  5
359
100
AcDbEntity
  8
0
100
AcDbLine
 62
7
  6
CONTINUOUS
 10
277.4085028457
 20
38.719420887
 11
277.3823673852
 21
38.9990387289
  0
LINE
  5
35A
100
AcDbEntity
  8
02___PRT_ALL_AXES
100
AcDbLine
 62
7
  6
CONTINUOUS
 10
277.7036044177
 20
44.3028613351
 11
276.9610350014
 21
52.2474566709
  0
LINE
  5
35B
100
AcDbEntity
  8
02___PRT_ALL_AXES
100
AcDbLine
 62
7
  6
CONTINUOUS
 10
276.4514998016
 20
57.6988675201
 11
274.9394975025
 21
73.8754648195
  0
LINE
  5
35C
100
AcDbEntity
  8
02___PRT_ALL_AXES
100
AcDbLine
 62
7
  6
CONTINUOUS
 10
278.1404530496
 20
42.7464270345
 11
278.5115084585
 21
38.7765825915
  0
LINE
  5
35D
100
AcDbEntity
  8
0
100
AcDbLine
 62
7
  6
CONTINUOUS
 10
277.3691992559
 20
39.058401871
 11
277.3819446289
 21
38.8405218555
  0
LINE
  5
35E
100
AcDbEntity
  8
0
100
AcDbLine
 62
7
  6
CONTINUOUS
 10
276.8240801423
 20
66.9730515564
 11
276.8368255153
 21
66.7551715409
  0
LINE
  5
35F
100
AcDbEntity
  8
0
100
AcDbLine
 62
7
  6
CONTINUOUS
 10
282.5051546268
 20
49.3896750642
 11
282.7035369409
 21
49.5452145616
  0
LINE
  5
360
100
AcDbEntity
  8
0
100
AcDbLine
 62
7
  6
CONTINUOUS
 10
282.7035369409
 20
49.5452145616
 11
283.017139872
 21
49.6877866425
  0
LINE
  5
361
100
AcDbEntity
  8
0
100
AcDbLine
 62
7
  6
CONTINUOUS
 10
282.5183227561
 20
49.3303119221
 11
283.0288582026
 21
49.5624146665
  0
LINE
  5
362
100
AcDbEntity
  8
02___PRT_ALL_AXES
100
AcDbLine
 62
7
  6
CONTINUOUS
 10
278.1404530496
 20
42.7464270345
 11
277.084814614
 21
43.0581296251
  0
LINE
  5
363
100
AcDbEntity
  8
02___PRT_ALL_AXES
100
AcDbLine
 62
7
  6
CONTINUOUS
 10
278.7592428533
 20
43.9911587445
 11
277.7036044177
 21
44.3028613351
  0
LINE
  5
364
100
AcDbEntity
  8
0
100
AcDbLine
 62
7
  6
CONTINUOUS
 10
277.3823673852
 20
38.9990387289
 11
277.3691992559
 21
39.058401871
  0
LINE
  5
365
100
AcDbEntity
  8
02___PRT_ALL_AXES
100
AcDbLine
 62
7
  6
CONTINUOUS
 10
278.7592428533
 20
43.9911587445
 11
277.9294791756
 21
52.868627301
  0
LINE
  5
366
100
AcDbEntity
  8
02___PRT_ALL_AXES
100
AcDbLine
 62
7
  6
CONTINUOUS
 10
277.4361623789
 20
58.146520838
 11
275.9951359381
 21
73.5637622289
  0
LINE
  5
367
100
AcDbEntity
  8
0
100
AcDbLine
 62
7
  6
CONTINUOUS
 10
278.3398086504
 20
50.6750683962
 11
278.1255413105
 21
52.967469985
  0
LINE
  5
368
100
AcDbEntity
  8
0
100
AcDbLine
 62
7
  6
CONTINUOUS
 10
277.6330948943
 20
58.2360515016
 11
276.8368255153
 21
66.7551715409
  0
LINE
  5
369
100
AcDbEntity
  8
02___PRT_ALL_AXES
100
AcDbLine
 62
7
  6
CONTINUOUS
 10
274.6801512303
 20
11.8423403845
 11
274.8423021855
 21
12.7803473355
  0
LINE
  5
36A
100
AcDbEntity
  8
02___PRT_ALL_AXES
100
AcDbLine
 62
7
  6
CONTINUOUS
 10
301.3873811056
 20
64.676089302
 11
300.8966451254
 21
64.2233453767
  0
LINE
  5
36B
100
AcDbEntity
  8
0
100
AcDbLine
 62
7
  6
CONTINUOUS
 10
264.6893407785
 20
33.2284574087
 11
264.8877230926
 21
33.3839969061
  0
LINE
  5
36C
100
AcDbEntity
  8
0
100
AcDbLine
 62
7
  6
CONTINUOUS
 10
265.6491125724
 20
33.3732950219
 11
265.4507302583
 21
33.2177555244
  0
LINE
  5
36D
100
AcDbEntity
  8
0
100
AcDbLine
 62
7
  6
CONTINUOUS
 10
287.4187219536
 20
48.1529429899
 11
297.5731432389
 21
52.7694080461
  0
LINE
  5
36E
100
AcDbEntity
  8
0
100
AcDbLine
 62
7
  6
CONTINUOUS
 10
287.2335077688
 20
47.9380403504
 11
297.3879290541
 21
52.5545054066
  0
LINE
  5
36F
100
AcDbEntity
  8
02___PRT_ALL_AXES
100
AcDbLine
 62
7
  6
CONTINUOUS
 10
289.3367650256
 20
48.7999765114
 11
278.7592428533
 21
43.9911587445
  0
LINE
  5
370
100
AcDbEntity
  8
02___PRT_ALL_AXES
100
AcDbLine
 62
7
  6
CONTINUOUS
 10
254.5194339798
 20
32.7993183891
 11
268.6122862866
 21
39.2062970232
  0
LINE
  5
371
100
AcDbEntity
  8
02___PRT_ALL_AXES
100
AcDbLine
 62
7
  6
CONTINUOUS
 10
273.429385626
 20
41.3962761611
 11
277.084814614
 21
43.0581296251
  0
LINE
  5
372
100
AcDbEntity
  8
02___PRT_ALL_AXES
100
AcDbLine
 62
7
  6
CONTINUOUS
 10
255.5750724154
 20
32.4876157984
 11
268.683262145
 21
38.4469411146
  0
LINE
  5
373
100
AcDbEntity
  8
02___PRT_ALL_AXES
100
AcDbLine
 62
7
  6
CONTINUOUS
 10
273.5003614844
 20
40.6369202525
 11
278.1404530496
 21
42.7464270345
  0
LINE
  5
374
100
AcDbEntity
  8
0
100
AcDbLine
 62
7
  6
CONTINUOUS
 10
260.9339275598
 20
34.7655665935
 11
268.6974573167
 21
38.2950699329
  0
LINE
  5
375
100
AcDbEntity
  8
0
100
AcDbLine
 62
7
  6
CONTINUOUS
 10
283.3541458828
 20
24.0812155737
 11
283.3409777534
 21
24.1405787158
  0
LINE
  5
376
100
AcDbEntity
  8
0
100
AcDbLine
 62
7
  6
CONTINUOUS
 10
278.3398086504
 20
50.6750683962
 11
278.3529767798
 21
50.6157052541
  0
LINE
  5
377
100
AcDbEntity
  8
0
100
AcDbLine
 62
7
  6
CONTINUOUS
 10
282.0843842686
 20
37.6661302994
 11
282.0975523979
 21
37.6067671573
  0
LINE
  5
378
100
AcDbEntity
  8
0
100
AcDbLine
 62
7
  6
CONTINUOUS
 10
283.3409777534
 20
24.1405787158
 11
282.0971296416
 21
37.4482502838
  0
LINE
  5
379
100
AcDbEntity
  8
0
100
AcDbLine
 62
7
  6
CONTINUOUS
 10
283.3414005098
 20
24.2990955893
 11
282.0975523979
 21
37.6067671573
  0
LINE
  5
37A
100
AcDbEntity
  8
0
100
AcDbLine
 62
7
  6
CONTINUOUS
 10
280.7778756752
 20
65.591481869
 11
281.2922197586
 21
60.0886217774
  0
LINE
  5
37B
100
AcDbEntity
  8
0
100
AcDbLine
 62
7
  6
CONTINUOUS
 10
281.8016149322
 20
54.6387090386
 11
282.2808588103
 21
49.5113787244
  0
LINE
  5
37C
100
AcDbEntity
  8
0
100
AcDbLine
 62
7
  6
CONTINUOUS
 10
281.2005538057
 20
65.6253177062
 11
281.7371819627
 21
59.8840449581
  0
LINE
  5
37D
100
AcDbEntity
  8
0
100
AcDbLine
 62
7
  6
CONTINUOUS
 10
282.2100978911
 20
54.8244160575
 11
282.7035369409
 21
49.5452145616
  0
LINE
  5
37E
100
AcDbEntity
  8
0
100
AcDbLine
 62
7
  6
CONTINUOUS
 10
283.0549936631
 20
49.2827968246
 11
282.5406495797
 21
54.7856569162
  0
LINE
  5
37F
100
AcDbEntity
  8
0
100
AcDbLine
 62
7
  6
CONTINUOUS
 10
282.0663546114
 20
59.8600398776
 11
281.552010528
 21
65.3628999692
  0
LINE
  5
380
100
AcDbEntity
  8
0
100
AcDbLine
 62
7
  6
CONTINUOUS
 10
282.0971296416
 20
37.4482502838
 11
282.0843842686
 21
37.6661302994
  0
LINE
  5
381
100
AcDbEntity
  8
0
100
AcDbLine
 62
7
  6
CONTINUOUS
 10
283.3414005098
 20
24.2990955893
 11
283.3541458828
 21
24.0812155737
  0
LINE
  5
382
100
AcDbEntity
  8
0
100
AcDbLine
 62
7
  6
CONTINUOUS
 10
280.9635126163
 20
65.964901382
 11
280.9762579893
 21
65.7470213665
  0
LINE
  5
383
100
AcDbEntity
  8
0
100
AcDbLine
 62
7
  6
CONTINUOUS
 10
281.552010528
 20
65.3628999692
 11
281.539265155
 21
65.5807799848
  0
LINE
  5
384
100
AcDbEntity
  8
0
100
AcDbLine
 62
7
  6
CONTINUOUS
 10
287.2203396394
 20
47.9974034925
 11
287.4187219536
 21
48.1529429899
  0
LINE
  5
385
100
AcDbEntity
  8
0
100
AcDbLine
 62
7
  6
CONTINUOUS
 10
269.4045257912
 20
31.836185837
 11
269.6029081053
 21
31.9917253345
  0
LINE
  5
386
100
AcDbEntity
  8
0
100
AcDbLine
 62
7
  6
CONTINUOUS
 10
277.1449034394
 20
39.1801055313
 11
273.7795331942
 21
37.6501203453
  0
LINE
  5
387
100
AcDbEntity
  8
0
100
AcDbLine
 62
7
  6
CONTINUOUS
 10
269.0739361444
 20
35.5108330597
 11
264.8749777196
 21
33.6018769217
  0
LINE
  5
388
100
AcDbEntity
  8
0
100
AcDbLine
 62
7
  6
CONTINUOUS
 10
277.3819446289
 20
38.8405218555
 11
273.8196418682
 21
37.221006006
  0
LINE
  5
389
100
AcDbEntity
  8
0
100
AcDbLine
 62
7
  6
CONTINUOUS
 10
269.4928981561
 20
35.2539553398
 11
265.1120189091
 21
33.2622932459
  0
LINE
  5
38A
100
AcDbEntity
  8
0
100
AcDbLine
 62
7
  6
CONTINUOUS
 10
265.6491125724
 20
33.3732950219
 11
269.8480709973
 21
35.2822511599
  0
LINE
  5
38B
100
AcDbEntity
  8
0
100
AcDbLine
 62
7
  6
CONTINUOUS
 10
273.8315821571
 20
37.0932593457
 11
277.9190382923
 21
38.9515236315
  0
LINE
  5
38C
100
AcDbEntity
  8
0
100
AcDbLine
 62
7
  6
CONTINUOUS
 10
287.2335077688
 20
47.9380403504
 11
283.2924576089
 21
49.1017300222
  0
LINE
  5
38D
100
AcDbEntity
  8
0
100
AcDbLine
 62
7
  6
CONTINUOUS
 10
278.5772725962
 20
50.4940015939
 11
282.5183227561
 21
49.3303119221
  0
LINE
  5
38E
100
AcDbEntity
  8
0
100
AcDbLine
 62
7
  6
CONTINUOUS
 10
286.996043823
 20
48.1191071527
 11
283.0549936631
 21
49.2827968246
  0
LINE
  5
38F
100
AcDbEntity
  8
0
100
AcDbLine
 62
7
  6
CONTINUOUS
 10
278.3398086504
 20
50.6750683962
 11
282.2808588103
 21
49.5113787244
  0
LINE
  5
390
100
AcDbEntity
  8
0
100
AcDbLine
 62
7
  6
CONTINUOUS
 10
278.3529767798
 20
50.6157052541
 11
278.5772725962
 21
50.4940015939
  0
LINE
  5
391
100
AcDbEntity
  8
0
100
AcDbLine
 62
7
  6
CONTINUOUS
 10
282.5183227561
 20
49.3303119221
 11
282.5051546268
 21
49.3896750642
  0
LINE
  5
392
100
AcDbEntity
  8
0
100
AcDbLine
 62
7
  6
CONTINUOUS
 10
283.0549936631
 20
49.2827968246
 11
283.0681617925
 21
49.2234336825
  0
LINE
  5
393
100
AcDbEntity
  8
0
100
AcDbLine
 62
7
  6
CONTINUOUS
 10
297.5863113683
 20
52.710044904
 11
297.3879290541
 21
52.5545054066
  0
LINE
  5
394
100
AcDbEntity
  8
0
100
AcDbLine
 62
7
  6
CONTINUOUS
 10
281.8600884521
 20
37.7878339596
 11
269.5901627323
 21
32.20960535
  0
LINE
  5
395
100
AcDbEntity
  8
0
100
AcDbLine
 62
7
  6
CONTINUOUS
 10
282.0971296416
 20
37.4482502838
 11
269.8272039218
 21
31.8700216742
  0
LINE
  5
396
100
AcDbEntity
  8
0
100
AcDbLine
 62
7
  6
CONTINUOUS
 10
282.2808588103
 20
49.5113787244
 11
282.5051546268
 21
49.3896750642
  0
LINE
  5
397
100
AcDbEntity
  8
0
100
AcDbLine
 62
7
  6
CONTINUOUS
 10
283.0681617925
 20
49.2234336825
 11
283.2924576089
 21
49.1017300222
  0
LINE
  5
398
100
AcDbEntity
  8
0
100
AcDbLine
 62
7
  6
CONTINUOUS
 10
286.996043823
 20
48.1191071527
 11
287.2203396394
 21
47.9974034925
  0
LINE
  5
399
100
AcDbEntity
  8
0
100
AcDbLine
 62
7
  6
CONTINUOUS
 10
285.4930606878
 20
64.1992102974
 11
286.996043823
 21
48.1191071527
  0
LINE
  5
39A
100
AcDbEntity
  8
0
100
AcDbLine
 62
7
  6
CONTINUOUS
 10
285.9157388184
 20
64.2330461346
 11
287.4187219536
 21
48.1529429899
  0
LINE
  5
39B
100
AcDbEntity
  8
0
100
AcDbLine
 62
7
  6
CONTINUOUS
 10
285.691443002
 20
64.3547497948
 11
285.678697629
 21
64.5726298104
  0
LINE
  5
39C
100
AcDbEntity
  8
0
100
AcDbLine
 62
7
  6
CONTINUOUS
 10
287.2335077688
 20
47.9380403504
 11
287.2203396394
 21
47.9974034925
  0
LINE
  5
39D
100
AcDbEntity
  8
02___PRT_ALL_AXES
100
AcDbLine
 62
7
  6
CONTINUOUS
 10
286.5726581104
 20
78.3725799958
 11
287.1925553505
 21
71.7404286914
  0
LINE
  5
39E
100
AcDbEntity
  8
02___PRT_ALL_AXES
100
AcDbLine
 62
7
  6
CONTINUOUS
 10
289.3283138487
 20
48.8903938913
 11
289.3367650256
 21
48.7999765114
  0
LINE
  5
39F
100
AcDbEntity
  8
0
100
AcDbLine
 62
7
  6
CONTINUOUS
 10
266.3558670209
 20
19.9546216779
 11
266.1574847068
 21
19.7990821805
  0
LINE
  5
3A0
100
AcDbEntity
  8
0
100
AcDbLine
 62
7
  6
CONTINUOUS
 10
291.3669153799
 20
70.1140361022
 11
291.3549750911
 21
70.2417827624
  0
LINE
  5
3A1
100
AcDbEntity
  8
0
100
AcDbLine
 62
7
  6
CONTINUOUS
 10
291.3815333079
 20
70.1206817939
 11
291.3553978474
 21
70.4002996359
  0
LINE
  5
3A2
100
AcDbEntity
  8
0
100
AcDbLine
 62
7
  6
CONTINUOUS
 10
291.3422297181
 20
70.459662778
 11
291.3549750911
 21
70.2417827624
  0
LINE
  5
3A3
100
AcDbEntity
  8
0
100
AcDbLine
 62
7
  6
CONTINUOUS
 10
271.0710520336
 20
18.5623501063
 11
270.8726697195
 21
18.4068106088
  0
LINE
  5
3A4
100
AcDbEntity
  8
02___PRT_ALL_AXES
100
AcDbLine
 62
7
  6
CONTINUOUS
 10
262.0708381346
 20
20.9895548815
 11
256.870747532
 21
18.6254579151
  0
LINE
  5
3A5
100
AcDbEntity
  8
0
100
AcDbLine
 62
7
  6
CONTINUOUS
 10
296.0701601038
 20
68.8495111908
 11
296.0574147308
 21
69.0673912063
  0
LINE
  5
3A6
100
AcDbEntity
  8
0
100
AcDbLine
 62
7
  6
CONTINUOUS
 10
275.8315985996
 20
17.3791813893
 11
275.9155617719
 21
17.4652645426
  0
LINE
  5
3A7
100
AcDbEntity
  8
0
100
AcDbLine
 62
7
  6
CONTINUOUS
 10
266.3558670209
 20
19.9546216779
 11
266.669469952
 21
20.0971937588
  0
LINE
  5
3A8
100
AcDbEntity
  8
0
100
AcDbLine
 62
7
  6
CONTINUOUS
 10
266.1706528361
 20
19.7397190384
 11
266.6811882827
 21
19.9718217829
  0
LINE
  5
3A9
100
AcDbEntity
  8
0
100
AcDbLine
 62
7
  6
CONTINUOUS
 10
291.3553978474
 20
70.4002996359
 11
291.3422297181
 21
70.459662778
  0
LINE
  5
3AA
100
AcDbEntity
  8
0
100
AcDbLine
 62
7
  6
CONTINUOUS
 10
297.5731432389
 20
52.7694080461
 11
296.0701601038
 21
68.8495111908
  0
LINE
  5
3AB
100
AcDbEntity
  8
0
100
AcDbLine
 62
7
  6
CONTINUOUS
 10
297.5735659953
 20
52.9279249196
 11
296.0705828601
 21
69.0080280642
  0
LINE
  5
3AC
100
AcDbEntity
  8
0
100
AcDbLine
 62
7
  6
CONTINUOUS
 10
297.5735659953
 20
52.9279249196
 11
297.5863113683
 21
52.710044904
  0
LINE
  5
3AD
100
AcDbEntity
  8
0
100
AcDbLine
 62
7
  6
CONTINUOUS
 10
275.6925123466
 20
13.9452980814
 11
275.7764755189
 21
14.0313812347
  0
LINE
  5
3AE
100
AcDbEntity
  8
0
100
AcDbLine
 62
7
  6
CONTINUOUS
 10
283.1557635686
 20
23.9256760763
 11
283.3541458828
 21
24.0812155737
  0
LINE
  5
3AF
100
AcDbEntity
  8
0
100
AcDbLine
 62
7
  6
CONTINUOUS
 10
271.0710520336
 20
18.5623501063
 11
283.3409777534
 21
24.1405787158
  0
LINE
  5
3B0
100
AcDbEntity
  8
0
100
AcDbLine
 62
7
  6
CONTINUOUS
 10
270.8858378488
 20
18.3474474667
 11
283.1557635686
 21
23.9256760763
  0
LINE
  5
3B1
100
AcDbEntity
  8
02___PRT_ALL_AXES
100
AcDbLine
 62
7
  6
CONTINUOUS
 10
300.1719271553
 20
67.3496135926
 11
299.5081526418
 21
67.2774869024
  0
LINE
  5
3B2
100
AcDbEntity
  8
0
100
AcDbLine
 62
7
  6
CONTINUOUS
 10
285.4930606878
 20
64.1992102974
 11
281.552010528
 21
65.3628999692
  0
LINE
  5
3B3
100
AcDbEntity
  8
0
100
AcDbLine
 62
7
  6
CONTINUOUS
 10
276.8368255153
 20
66.7551715409
 11
280.7778756752
 21
65.591481869
  0
LINE
  5
3B4
100
AcDbEntity
  8
0
100
AcDbLine
 62
7
  6
CONTINUOUS
 10
285.678697629
 20
64.5726298104
 11
281.7376474691
 21
65.7363194822
  0
LINE
  5
3B5
100
AcDbEntity
  8
0
100
AcDbLine
 62
7
  6
CONTINUOUS
 10
277.0224624564
 20
67.1285910539
 11
280.9635126163
 21
65.964901382
  0
LINE
  5
3B6
100
AcDbEntity
  8
0
100
AcDbLine
 62
7
  6
CONTINUOUS
 10
280.9762579893
 20
65.7470213665
 11
281.2005538057
 21
65.6253177062
  0
LINE
  5
3B7
100
AcDbEntity
  8
0
100
AcDbLine
 62
7
  6
CONTINUOUS
 10
285.9157388184
 20
64.2330461346
 11
285.691443002
 21
64.3547497948
  0
LINE
  5
3B8
100
AcDbEntity
  8
0
100
AcDbLine
 62
7
  6
CONTINUOUS
 10
297.5731432389
 20
52.7694080461
 11
297.5863113683
 21
52.710044904
  0
LINE
  5
3B9
100
AcDbEntity
  8
0
100
AcDbLine
 62
7
  6
CONTINUOUS
 10
296.0574147308
 20
69.0673912063
 11
296.0705828601
 21
69.0080280642
  0
LINE
  5
3BA
100
AcDbEntity
  8
02___PRT_ALL_AXES
100
AcDbLine
 62
7
  6
CONTINUOUS
 10
275.9951359381
 20
73.5637622289
 11
274.9394975025
 21
73.8754648195
  0
LINE
  5
3BB
100
AcDbEntity
  8
0
100
AcDbLine
 62
7
  6
CONTINUOUS
 10
295.8331189143
 20
69.1890948666
 11
291.8920687545
 21
70.3527845384
  0
LINE
  5
3BC
100
AcDbEntity
  8
0
100
AcDbLine
 62
7
  6
CONTINUOUS
 10
287.1768837418
 20
71.7450561101
 11
291.1179339017
 21
70.5813664382
  0
LINE
  5
3BD
100
AcDbEntity
  8
0
100
AcDbLine
 62
7
  6
CONTINUOUS
 10
291.1179339017
 20
70.5813664382
 11
291.3422297181
 21
70.459662778
  0
LINE
  5
3BE
100
AcDbEntity
  8
0
100
AcDbLine
 62
7
  6
CONTINUOUS
 10
295.8331189143
 20
69.1890948666
 11
296.0574147308
 21
69.0673912063
  0
LINE
  5
3BF
100
AcDbEntity
  8
02___PRT_ALL_AXES
100
AcDbLine
 62
7
  6
CONTINUOUS
 10
286.5726581104
 20
78.3725799958
 11
285.5170196747
 21
78.6842825864
  0
LINE
  5
3C0
100
AcDbEntity
  8
02___PRT_ALL_AXES
100
AcDbLine
 62
7
  6
CONTINUOUS
 10
24.5388848216
 20
233.3671782763
 11
24.5388848216
 21
223.9671782763
  0
LINE
  5
3C1
100
AcDbEntity
  8
02___PRT_ALL_AXES
100
AcDbLine
 62
7
  6
CONTINUOUS
 10
26.3125311489
 20
164.6671782763
 11
26.3125311489
 21
194.6671782763
  0
LINE
  5
3C2
100
AcDbEntity
  8
02___PRT_ALL_AXES
100
AcDbLine
 62
7
  6
CONTINUOUS
 10
60.3125311489
 20
141.6671782763
 11
56.3125311489
 21
141.6671782763
  0
LINE
  5
3C3
100
AcDbEntity
  8
02___PRT_ALL_AXES
100
AcDbLine
 62
7
  6
CONTINUOUS
 10
60.8125311489
 20
143.6671782763
 11
55.8125311489
 21
143.6671782763
  0
LINE
  5
3C4
100
AcDbEntity
  8
0
100
AcDbLine
 62
7
  6
CONTINUOUS
 10
53.512531149
 20
146.6671782761
 11
53.312531149
 21
146.8671782761
  0
LINE
  5
3C5
100
AcDbEntity
  8
0
100
AcDbLine
 62
7
  6
CONTINUOUS
 10
40.9125311489
 20
164.6671782763
 11
40.3125311489
 21
165.2671782763
  0
LINE
  5
3C6
100
AcDbEntity
  8
0
100
AcDbLine
 62
7
  6
CONTINUOUS
 10
52.512531149
 20
154.1671782762
 11
52.312531149
 21
154.3671782762
  0
LINE
  5
3C7
100
AcDbEntity
  8
02___PRT_ALL_AXES
100
AcDbLine
 62
7
  6
CONTINUOUS
 10
31.5388848216
 20
233.3671782763
 11
31.5388848216
 21
223.9671782763
  0
LINE
  5
3C8
100
AcDbEntity
  8
02___PRT_ALL_AXES
100
AcDbLine
 62
7
  6
CENTER
 10
33.3125311489
 20
179.6671782763
 11
33.3125311489
 21
172.1671782763
  0
LINE
  5
3C9
100
AcDbEntity
  8
02___PRT_ALL_AXES
100
AcDbLine
 62
7
  6
CENTER
 10
33.3125311489
 20
179.6671782763
 11
33.3125311489
 21
187.1671782763
  0
LINE
  5
3CA
100
AcDbEntity
  8
0
100
AcDbLine
 62
7
  6
CONTINUOUS
 10
53.5125311489
 20
146.6671782763
 11
63.1125311489
 21
146.6671782763
  0
LINE
  5
3CB
100
AcDbEntity
  8
0
100
AcDbLine
 62
7
  6
CONTINUOUS
 10
53.3125311489
 20
146.8671782763
 11
63.3125311489
 21
146.8671782763
  0
LINE
  5
3CC
100
AcDbEntity
  8
0
100
AcDbLine
 62
7
  6
CONTINUOUS
 10
40.3125311489
 20
194.0671782763
 11
40.3125311489
 21
165.2671782763
  0
LINE
  5
3CD
100
AcDbEntity
  8
0
100
AcDbLine
 62
7
  6
CONTINUOUS
 10
52.5125311489
 20
154.1671782763
 11
64.1125311489
 21
154.1671782763
  0
LINE
  5
3CE
100
AcDbEntity
  8
0
100
AcDbLine
 62
7
  6
CONTINUOUS
 10
52.3125311489
 20
154.3671782763
 11
64.3125311489
 21
154.3671782763
  0
LINE
  5
3CF
100
AcDbEntity
  8
0
100
AcDbLine
 62
7
  6
CONTINUOUS
 10
40.9125311489
 20
194.0671782763
 11
40.9125311489
 21
165.2671782763
  0
LINE
  5
3D0
100
AcDbEntity
  8
0
100
AcDbLine
 62
7
  6
CONTINUOUS
 10
64.1125311487
 20
163.6671782764
 11
64.3125311487
 21
163.4671782764
  0
LINE
  5
3D1
100
AcDbEntity
  8
02___PRT_ALL_AXES
100
AcDbLine
 62
7
  6
CONTINUOUS
 10
56.3125311489
 20
141.6671782763
 11
55.8125311489
 21
143.6671782763
  0
LINE
  5
3D2
100
AcDbEntity
  8
0
100
AcDbLine
 62
7
  6
CONTINUOUS
 10
58.4495971197
 20
223.8482142011
 11
73.375243612
 21
233.1747932516
  0
LINE
  5
3D3
100
AcDbEntity
  8
0
100
AcDbLine
 62
7
  6
CONTINUOUS
 10
52.3125311489
 20
163.4671782763
 11
64.3125311489
 21
163.4671782763
  0
LINE
  5
3D4
100
AcDbEntity
  8
0
100
AcDbLine
 62
7
  6
CONTINUOUS
 10
52.5125311489
 20
163.6671782763
 11
64.1125311489
 21
163.6671782763
  0
LINE
  5
3D5
100
AcDbEntity
  8
02___PRT_ALL_AXES
100
AcDbLine
 62
7
  6
CONTINUOUS
 10
90.3125311489
 20
164.6671782763
 11
75.7125311489
 21
164.6671782763
  0
LINE
  5
3D6
100
AcDbEntity
  8
02___PRT_ALL_AXES
100
AcDbLine
 62
7
  6
CONTINUOUS
 10
40.9125311489
 20
164.6671782763
 11
26.3125311489
 21
164.6671782763
  0
LINE
  5
3D7
100
AcDbEntity
  8
0
100
AcDbLine
 62
7
  6
CONTINUOUS
 10
40.9125311489
 20
164.6671782763
 11
75.7125311489
 21
164.6671782763
  0
LINE
  5
3D8
100
AcDbEntity
  8
0
100
AcDbLine
 62
7
  6
CONTINUOUS
 10
40.9125311489
 20
165.2671782763
 11
75.7125311489
 21
165.2671782763
  0
LINE
  5
3D9
100
AcDbEntity
  8
0
100
AcDbLine
 62
7
  6
CONTINUOUS
 10
40.9125311489
 20
194.0671782763
 11
40.6125311489
 21
194.3671782763
  0
LINE
  5
3DA
100
AcDbEntity
  8
02___PRT_ALL_AXES
100
AcDbLine
 62
7
  6
CONTINUOUS
 10
52.3125311489
 20
154.3671782763
 11
52.3125311489
 21
163.4671782763
  0
LINE
  5
3DB
100
AcDbEntity
  8
0
100
AcDbLine
 62
7
  6
CONTINUOUS
 10
52.3125311489
 20
154.3671782763
 11
52.3125311489
 21
163.4671782763
  0
LINE
  5
3DC
100
AcDbEntity
  8
02___PRT_ALL_AXES
100
AcDbLine
 62
7
  6
CONTINUOUS
 10
53.3125311489
 20
146.8671782763
 11
53.3125311489
 21
154.1671782763
  0
LINE
  5
3DD
100
AcDbEntity
  8
0
100
AcDbLine
 62
7
  6
CONTINUOUS
 10
53.3125311489
 20
146.8671782763
 11
53.3125311489
 21
154.1671782763
  0
LINE
  5
3DE
100
AcDbEntity
  8
0
100
AcDbLine
 62
7
  6
CONTINUOUS
 10
53.3125311489
 20
163.6671782763
 11
53.3125311489
 21
164.6671782763
  0
LINE
  5
3DF
100
AcDbEntity
  8
0
100
AcDbLine
 62
7
  6
CONTINUOUS
 10
53.3125311489
 20
194.6671782763
 11
53.3125311489
 21
208.6671782763
  0
LINE
  5
3E0
100
AcDbEntity
  8
02___PRT_ALL_AXES
100
AcDbLine
 62
7
  6
CONTINUOUS
 10
56.0125311489
 20
143.6671782763
 11
56.0125311489
 21
146.6671782763
  0
LINE
  5
3E1
100
AcDbEntity
  8
0
100
AcDbLine
 62
7
  6
CONTINUOUS
 10
76.0125311489
 20
164.9671782763
 11
75.7125311489
 21
165.2671782763
  0
LINE
  5
3E2
100
AcDbEntity
  8
02___PRT_ALL_AXES
100
AcDbLine
 62
7
  6
CENTER
 10
58.3125311489
 20
213.6671782763
 11
58.3125311489
 21
138.7552790264
  0
LINE
  5
3E3
100
AcDbEntity
  8
02___PRT_ALL_AXES
100
AcDbLine
 62
7
  6
CONTINUOUS
 10
60.6125311489
 20
143.6671782763
 11
60.6125311489
 21
146.6671782763
  0
LINE
  5
3E4
100
AcDbEntity
  8
0
100
AcDbLine
 62
7
  6
CONTINUOUS
 10
40.3125311489
 20
194.0671782763
 11
40.9125311489
 21
194.6671782763
  0
LINE
  5
3E5
100
AcDbEntity
  8
0
100
AcDbLine
 62
7
  6
CONTINUOUS
 10
92.3125311489
 20
246.0671782763
 11
92.9125311489
 21
246.6671782763
  0
LINE
  5
3E6
100
AcDbEntity
  8
02___PRT_ALL_AXES
100
AcDbLine
 62
7
  6
CONTINUOUS
 10
63.3125311489
 20
146.8671782763
 11
63.3125311489
 21
154.1671782763
  0
LINE
  5
3E7
100
AcDbEntity
  8
0
100
AcDbLine
 62
7
  6
CONTINUOUS
 10
63.3125311489
 20
146.8671782763
 11
63.3125311489
 21
154.1671782763
  0
LINE
  5
3E8
100
AcDbEntity
  8
0
100
AcDbLine
 62
7
  6
CONTINUOUS
 10
63.3125311489
 20
163.6671782763
 11
63.3125311489
 21
164.6671782763
  0
LINE
  5
3E9
100
AcDbEntity
  8
0
100
AcDbLine
 62
7
  6
CONTINUOUS
 10
63.3125311489
 20
194.6671782763
 11
63.3125311489
 21
208.6671782763
  0
LINE
  5
3EA
100
AcDbEntity
  8
02___PRT_ALL_AXES
100
AcDbLine
 62
7
  6
CONTINUOUS
 10
64.3125311489
 20
154.3671782763
 11
64.3125311489
 21
163.4671782763
  0
LINE
  5
3EB
100
AcDbEntity
  8
0
100
AcDbLine
 62
7
  6
CONTINUOUS
 10
64.3125311489
 20
154.3671782763
 11
64.3125311489
 21
163.4671782763
  0
LINE
  5
3EC
100
AcDbEntity
  8
02___PRT_ALL_AXES
100
AcDbLine
 62
7
  6
CENTER
 10
83.3125311489
 20
179.6671782763
 11
75.8125311489
 21
179.6671782763
  0
LINE
  5
3ED
100
AcDbEntity
  8
02___PRT_ALL_AXES
100
AcDbLine
 62
7
  6
CENTER
 10
33.3125311489
 20
179.6671782763
 11
25.8125311489
 21
179.6671782763
  0
LINE
  5
3EE
100
AcDbEntity
  8
02___PRT_ALL_AXES
100
AcDbLine
 62
7
  6
CENTER
 10
33.3125311489
 20
179.6671782763
 11
40.8125311489
 21
179.6671782763
  0
LINE
  5
3EF
100
AcDbEntity
  8
02___PRT_ALL_AXES
100
AcDbLine
 62
7
  6
CENTER
 10
83.3125311489
 20
179.6671782763
 11
90.8125311489
 21
179.6671782763
  0
LINE
  5
3F0
100
AcDbEntity
  8
0
100
AcDbLine
 62
7
  6
CONTINUOUS
 10
75.7125311489
 20
194.6671782763
 11
76.3125311489
 21
194.0671782763
  0
LINE
  5
3F1
100
AcDbEntity
  8
0
100
AcDbLine
 62
7
  6
CONTINUOUS
 10
75.7125311489
 20
165.2671782763
 11
75.7125311489
 21
194.0671782763
  0
LINE
  5
3F2
100
AcDbEntity
  8
0
100
AcDbLine
 62
7
  6
CONTINUOUS
 10
76.3125311489
 20
165.2671782763
 11
76.3125311489
 21
194.0671782763
  0
LINE
  5
3F3
100
AcDbEntity
  8
0
100
AcDbLine
 62
7
  6
CONTINUOUS
 10
78.3125311489
 20
233.6671782763
 11
78.3125311489
 21
223.6671782763
  0
LINE
  5
3F4
100
AcDbEntity
  8
02___PRT_ALL_AXES
100
AcDbLine
 62
7
  6
CONTINUOUS
 10
60.3125311489
 20
141.6671782763
 11
60.8125311489
 21
143.6671782763
  0
LINE
  5
3F5
100
AcDbEntity
  8
0
100
AcDbLine
 62
7
  6
CONTINUOUS
 10
40.9125311489
 20
165.2671782763
 11
40.6125311489
 21
164.9671782763
  0
LINE
  5
3F6
100
AcDbEntity
  8
0
100
AcDbLine
 62
7
  6
CONTINUOUS
 10
121.7125311489
 20
246.0671782763
 11
122.0125311489
 21
246.3671782763
  0
LINE
  5
3F7
100
AcDbEntity
  8
0
100
AcDbLine
 62
7
  6
CONTINUOUS
 10
75.7125311489
 20
194.0671782763
 11
40.9125311489
 21
194.0671782763
  0
LINE
  5
3F8
100
AcDbEntity
  8
0
100
AcDbLine
 62
7
  6
CONTINUOUS
 10
75.7125311489
 20
194.6671782763
 11
40.9125311489
 21
194.6671782763
  0
LINE
  5
3F9
100
AcDbEntity
  8
02___PRT_ALL_AXES
100
AcDbLine
 62
7
  6
CONTINUOUS
 10
26.3125311489
 20
194.6671782763
 11
40.9125311489
 21
194.6671782763
  0
LINE
  5
3FA
100
AcDbEntity
  8
02___PRT_ALL_AXES
100
AcDbLine
 62
7
  6
CONTINUOUS
 10
75.7125311489
 20
194.6671782763
 11
90.3125311489
 21
194.6671782763
  0
LINE
  5
3FB
100
AcDbEntity
  8
02___PRT_ALL_AXES
100
AcDbLine
 62
7
  6
CENTER
 10
83.3125311489
 20
179.6671782763
 11
83.3125311489
 21
172.1671782763
  0
LINE
  5
3FC
100
AcDbEntity
  8
02___PRT_ALL_AXES
100
AcDbLine
 62
7
  6
CENTER
 10
83.3125311489
 20
179.6671782763
 11
83.3125311489
 21
187.1671782763
  0
LINE
  5
3FD
100
AcDbEntity
  8
0
100
AcDbLine
 62
7
  6
CONTINUOUS
 10
75.7125311489
 20
194.0671782763
 11
76.0125311489
 21
194.3671782763
  0
LINE
  5
3FE
100
AcDbEntity
  8
0
100
AcDbLine
 62
7
  6
CONTINUOUS
 10
92.6125311489
 20
210.9671782763
 11
92.9125311489
 21
211.2671782763
  0
LINE
  5
3FF
100
AcDbEntity
  8
02___PRT_ALL_AXES
100
AcDbLine
 62
7
  6
CONTINUOUS
 10
122.3125311489
 20
196.6671782763
 11
92.3125311489
 21
196.6671782763
  0
LINE
  5
400
100
AcDbEntity
  8
02___PRT_ALL_AXES
100
AcDbLine
 62
7
  6
CONTINUOUS
 10
90.3125311489
 20
194.6671782763
 11
90.3125311489
 21
164.6671782763
  0
LINE
  5
401
100
AcDbEntity
  8
0
100
AcDbLine
 62
7
  6
CONTINUOUS
 10
123.3125311487
 20
235.3171782761
 11
123.5125311487
 21
235.5171782761
  0
LINE
  5
402
100
AcDbEntity
  8
0
100
AcDbLine
 62
7
  6
CONTINUOUS
 10
52.512531149
 20
163.6671782764
 11
52.312531149
 21
163.4671782764
  0
LINE
  5
403
100
AcDbEntity
  8
02___PRT_ALL_AXES
100
AcDbLine
 62
7
  6
CENTER
 10
107.3125311489
 20
203.6671782763
 11
99.8125311489
 21
203.6671782763
  0
LINE
  5
404
100
AcDbEntity
  8
02___PRT_ALL_AXES
100
AcDbLine
 62
7
  6
CENTER
 10
107.3125311489
 20
203.6671782763
 11
114.8125311489
 21
203.6671782763
  0
LINE
  5
405
100
AcDbEntity
  8
0
100
AcDbLine
 62
7
  6
CONTINUOUS
 10
92.3125311489
 20
246.0671782763
 11
92.3125311489
 21
211.2671782763
  0
LINE
  5
406
100
AcDbEntity
  8
02___PRT_ALL_AXES
100
AcDbLine
 62
7
  6
CONTINUOUS
 10
92.3125311489
 20
196.6671782763
 11
92.3125311489
 21
211.2671782763
  0
LINE
  5
407
100
AcDbEntity
  8
02___PRT_ALL_AXES
100
AcDbLine
 62
7
  6
CONTINUOUS
 10
92.3125311489
 20
246.0671782763
 11
92.3125311489
 21
260.6671782763
  0
LINE
  5
408
100
AcDbEntity
  8
0
100
AcDbLine
 62
7
  6
CONTINUOUS
 10
92.9125311489
 20
246.0671782763
 11
92.9125311489
 21
211.2671782763
  0
LINE
  5
409
100
AcDbEntity
  8
02___PRT_ALL_AXES
100
AcDbLine
 62
7
  6
CONTINUOUS
 10
145.3125311489
 20
225.6671782763
 11
143.3125311489
 21
225.1671782763
  0
LINE
  5
40A
100
AcDbEntity
  8
0
100
AcDbLine
 62
7
  6
CONTINUOUS
 10
53.3125311489
 20
208.6671782763
 11
63.3125311489
 21
208.6671782763
  0
LINE
  5
40B
100
AcDbEntity
  8
0
100
AcDbLine
 62
7
  6
CONTINUOUS
 10
92.9125311489
 20
210.6671782763
 11
121.7125311489
 21
210.6671782763
  0
LINE
  5
40C
100
AcDbEntity
  8
0
100
AcDbLine
 62
7
  6
CONTINUOUS
 10
92.9125311489
 20
211.2671782763
 11
121.7125311489
 21
211.2671782763
  0
LINE
  5
40D
100
AcDbEntity
  8
0
100
AcDbLine
 62
7
  6
CONTINUOUS
 10
92.9125311489
 20
210.6671782763
 11
92.3125311489
 21
211.2671782763
  0
LINE
  5
40E
100
AcDbEntity
  8
02___PRT_ALL_AXES
100
AcDbLine
 62
7
  6
CENTER
 10
107.3125311489
 20
253.6671782763
 11
107.3125311489
 21
246.1671782763
  0
LINE
  5
40F
100
AcDbEntity
  8
02___PRT_ALL_AXES
100
AcDbLine
 62
7
  6
CENTER
 10
107.3125311489
 20
203.6671782763
 11
107.3125311489
 21
196.1671782763
  0
LINE
  5
410
100
AcDbEntity
  8
02___PRT_ALL_AXES
100
AcDbLine
 62
7
  6
CENTER
 10
107.3125311489
 20
203.6671782763
 11
107.3125311489
 21
211.1671782763
  0
LINE
  5
411
100
AcDbEntity
  8
02___PRT_ALL_AXES
100
AcDbLine
 62
7
  6
CENTER
 10
107.3125311489
 20
253.6671782763
 11
107.3125311489
 21
261.1671782763
  0
LINE
  5
412
100
AcDbEntity
  8
0
100
AcDbLine
 62
7
  6
CONTINUOUS
 10
64.1125311488
 20
154.1671782762
 11
64.3125311488
 21
154.3671782762
  0
LINE
  5
413
100
AcDbEntity
  8
0
100
AcDbLine
 62
7
  6
CONTINUOUS
 10
122.3125311489
 20
211.2671782763
 11
121.7125311489
 21
210.6671782763
  0
LINE
  5
414
100
AcDbEntity
  8
0
100
AcDbLine
 62
7
  6
CONTINUOUS
 10
75.7125311489
 20
164.6671782763
 11
76.3125311489
 21
165.2671782763
  0
LINE
  5
415
100
AcDbEntity
  8
0
100
AcDbLine
 62
7
  6
CONTINUOUS
 10
133.812531149
 20
222.0171782764
 11
133.612531149
 21
221.8171782764
  0
LINE
  5
416
100
AcDbEntity
  8
0
100
AcDbLine
 62
7
  6
CONTINUOUS
 10
63.1125311488
 20
146.6671782762
 11
63.3125311488
 21
146.8671782762
  0
LINE
  5
417
100
AcDbEntity
  8
02___PRT_ALL_AXES
100
AcDbLine
 62
7
  6
CONTINUOUS
 10
133.6125311489
 20
221.8171782763
 11
123.5125311489
 21
221.8171782763
  0
LINE
  5
418
100
AcDbEntity
  8
0
100
AcDbLine
 62
7
  6
CONTINUOUS
 10
133.6125311489
 20
221.8171782763
 11
123.5125311489
 21
221.8171782763
  0
LINE
  5
419
100
AcDbEntity
  8
02___PRT_ALL_AXES
100
AcDbLine
 62
7
  6
CONTINUOUS
 10
140.1125311489
 20
222.6671782763
 11
133.8125311489
 21
222.6671782763
  0
LINE
  5
41A
100
AcDbEntity
  8
0
100
AcDbLine
 62
7
  6
CONTINUOUS
 10
140.1125311489
 20
222.6671782763
 11
133.8125311489
 21
222.6671782763
  0
LINE
  5
41B
100
AcDbEntity
  8
0
100
AcDbLine
 62
7
  6
CONTINUOUS
 10
78.3125311489
 20
223.6671782763
 11
92.3125311489
 21
223.6671782763
  0
LINE
  5
41C
100
AcDbEntity
  8
0
100
AcDbLine
 62
7
  6
CONTINUOUS
 10
122.3125311489
 20
223.6671782763
 11
123.3125311489
 21
223.6671782763
  0
LINE
  5
41D
100
AcDbEntity
  8
02___PRT_ALL_AXES
100
AcDbLine
 62
7
  6
CONTINUOUS
 10
31.5388848216
 20
223.9671782763
 11
24.5388848216
 21
223.9671782763
  0
LINE
  5
41E
100
AcDbEntity
  8
0
100
AcDbLine
 62
7
  6
CONTINUOUS
 10
140.312531149
 20
222.8671782764
 11
140.112531149
 21
222.6671782764
  0
LINE
  5
41F
100
AcDbEntity
  8
02___PRT_ALL_AXES
100
AcDbLine
 62
7
  6
CONTINUOUS
 10
59.7842186252
 20
224.6821782763
 11
31.5388848216
 21
224.6821782763
  0
LINE
  5
420
100
AcDbEntity
  8
0
100
AcDbLine
 62
7
  6
CONTINUOUS
 10
59.7842186252
 20
224.6821782763
 11
31.5388848216
 21
224.6821782763
  0
LINE
  5
421
100
AcDbEntity
  8
02___PRT_ALL_AXES
100
AcDbLine
 62
7
  6
CONTINUOUS
 10
143.3125311489
 20
225.4171782763
 11
140.3125311489
 21
225.4171782763
  0
LINE
  5
422
100
AcDbEntity
  8
02___PRT_ALL_AXES
100
AcDbLine
 62
7
  6
CENTER
 10
146.6131947989
 20
228.6671782763
 11
16.8781589485
 21
228.6671782763
  0
LINE
  5
423
100
AcDbEntity
  8
02___PRT_ALL_AXES
100
AcDbLine
 62
7
  6
CONTINUOUS
 10
143.3125311489
 20
231.9171782763
 11
140.3125311489
 21
231.9171782763
  0
LINE
  5
424
100
AcDbEntity
  8
02___PRT_ALL_AXES
100
AcDbLine
 62
7
  6
CONTINUOUS
 10
72.5388848216
 20
232.6521782763
 11
31.5388848216
 21
232.6521782763
  0
LINE
  5
425
100
AcDbEntity
  8
0
100
AcDbLine
 62
7
  6
CONTINUOUS
 10
72.5388848216
 20
232.6521782763
 11
31.5388848216
 21
232.6521782763
  0
LINE
  5
426
100
AcDbEntity
  8
02___PRT_ALL_AXES
100
AcDbLine
 62
7
  6
CONTINUOUS
 10
31.5388848216
 20
233.3671782763
 11
24.5388848216
 21
233.3671782763
  0
LINE
  5
427
100
AcDbEntity
  8
0
100
AcDbLine
 62
7
  6
CONTINUOUS
 10
78.3125311489
 20
233.6671782763
 11
92.3125311489
 21
233.6671782763
  0
LINE
  5
428
100
AcDbEntity
  8
0
100
AcDbLine
 62
7
  6
CONTINUOUS
 10
122.3125311489
 20
233.6671782763
 11
123.3125311489
 21
233.6671782763
  0
LINE
  5
429
100
AcDbEntity
  8
02___PRT_ALL_AXES
100
AcDbLine
 62
7
  6
CONTINUOUS
 10
140.1125311489
 20
234.6671782763
 11
133.8125311489
 21
234.6671782763
  0
LINE
  5
42A
100
AcDbEntity
  8
0
100
AcDbLine
 62
7
  6
CONTINUOUS
 10
140.1125311489
 20
234.6671782763
 11
133.8125311489
 21
234.6671782763
  0
LINE
  5
42B
100
AcDbEntity
  8
02___PRT_ALL_AXES
100
AcDbLine
 62
7
  6
CONTINUOUS
 10
133.6125311489
 20
235.5171782763
 11
123.5125311489
 21
235.5171782763
  0
LINE
  5
42C
100
AcDbEntity
  8
0
100
AcDbLine
 62
7
  6
CONTINUOUS
 10
133.6125311489
 20
235.5171782763
 11
123.5125311489
 21
235.5171782763
  0
LINE
  5
42D
100
AcDbEntity
  8
0
100
AcDbLine
 62
7
  6
CONTINUOUS
 10
121.7125311489
 20
211.2671782763
 11
122.0125311489
 21
210.9671782763
  0
LINE
  5
42E
100
AcDbEntity
  8
0
100
AcDbLine
 62
7
  6
CONTINUOUS
 10
121.7125311489
 20
211.2671782763
 11
121.7125311489
 21
246.0671782763
  0
LINE
  5
42F
100
AcDbEntity
  8
02___PRT_ALL_AXES
100
AcDbLine
 62
7
  6
CONTINUOUS
 10
122.3125311489
 20
260.6671782763
 11
122.3125311489
 21
246.0671782763
  0
LINE
  5
430
100
AcDbEntity
  8
02___PRT_ALL_AXES
100
AcDbLine
 62
7
  6
CONTINUOUS
 10
122.3125311489
 20
211.2671782763
 11
122.3125311489
 21
196.6671782763
  0
LINE
  5
431
100
AcDbEntity
  8
0
100
AcDbLine
 62
7
  6
CONTINUOUS
 10
122.3125311489
 20
211.2671782763
 11
122.3125311489
 21
246.0671782763
  0
LINE
  5
432
100
AcDbEntity
  8
0
100
AcDbLine
 62
7
  6
CONTINUOUS
 10
123.3125311489
 20
222.0171782763
 11
123.3125311489
 21
235.3171782763
  0
LINE
  5
433
100
AcDbEntity
  8
0
100
AcDbLine
 62
7
  6
CONTINUOUS
 10
123.5125311489
 20
221.8171782763
 11
123.5125311489
 21
235.5171782763
  0
LINE
  5
434
100
AcDbEntity
  8
0
100
AcDbLine
 62
7
  6
CONTINUOUS
 10
92.9125311489
 20
246.0671782763
 11
92.6125311489
 21
246.3671782763
  0
LINE
  5
435
100
AcDbEntity
  8
0
100
AcDbLine
 62
7
  6
CONTINUOUS
 10
121.7125311489
 20
246.0671782763
 11
92.9125311489
 21
246.0671782763
  0
LINE
  5
436
100
AcDbEntity
  8
0
100
AcDbLine
 62
7
  6
CONTINUOUS
 10
121.7125311489
 20
246.6671782763
 11
92.9125311489
 21
246.6671782763
  0
LINE
  5
437
100
AcDbEntity
  8
02___PRT_ALL_AXES
100
AcDbLine
 62
7
  6
CONTINUOUS
 10
145.3125311489
 20
231.6671782763
 11
143.3125311489
 21
232.1671782763
  0
LINE
  5
438
100
AcDbEntity
  8
0
100
AcDbLine
 62
7
  6
CONTINUOUS
 10
123.3125311488
 20
222.0171782764
 11
123.5125311488
 21
221.8171782764
  0
LINE
  5
439
100
AcDbEntity
  8
0
100
AcDbLine
 62
7
  6
CONTINUOUS
 10
133.6125311489
 20
221.8171782763
 11
133.6125311489
 21
235.5171782763
  0
LINE
  5
43A
100
AcDbEntity
  8
0
100
AcDbLine
 62
7
  6
CONTINUOUS
 10
133.8125311489
 20
222.0171782763
 11
133.8125311489
 21
235.3171782763
  0
LINE
  5
43B
100
AcDbEntity
  8
0
100
AcDbLine
 62
7
  6
CONTINUOUS
 10
140.1125311489
 20
222.6671782763
 11
140.1125311489
 21
234.6671782763
  0
LINE
  5
43C
100
AcDbEntity
  8
0
100
AcDbLine
 62
7
  6
CONTINUOUS
 10
140.3125311489
 20
222.8671782763
 11
140.3125311489
 21
234.4671782763
  0
LINE
  5
43D
100
AcDbEntity
  8
02___PRT_ALL_AXES
100
AcDbLine
 62
7
  6
CENTER
 10
107.3125311489
 20
253.6671782763
 11
99.8125311489
 21
253.6671782763
  0
LINE
  5
43E
100
AcDbEntity
  8
02___PRT_ALL_AXES
100
AcDbLine
 62
7
  6
CENTER
 10
107.3125311489
 20
253.6671782763
 11
114.8125311489
 21
253.6671782763
  0
LINE
  5
43F
100
AcDbEntity
  8
02___PRT_ALL_AXES
100
AcDbLine
 62
7
  6
CONTINUOUS
 10
143.3125311489
 20
232.1671782763
 11
143.3125311489
 21
225.1671782763
  0
LINE
  5
440
100
AcDbEntity
  8
02___PRT_ALL_AXES
100
AcDbLine
 62
7
  6
CONTINUOUS
 10
145.3125311489
 20
231.6671782763
 11
145.3125311489
 21
225.6671782763
  0
LINE
  5
441
100
AcDbEntity
  8
02___PRT_ALL_AXES
100
AcDbLine
 62
7
  6
CONTINUOUS
 10
92.3125311489
 20
260.6671782763
 11
122.3125311489
 21
260.6671782763
  0
LINE
  5
442
100
AcDbEntity
  8
0
100
AcDbLine
 62
7
  6
CONTINUOUS
 10
121.7125311489
 20
246.6671782763
 11
122.3125311489
 21
246.0671782763
  0
LINE
  5
443
100
AcDbEntity
  8
0
100
AcDbLine
 62
7
  6
CONTINUOUS
 10
133.812531149
 20
235.3171782762
 11
133.612531149
 21
235.5171782762
  0
LINE
  5
444
100
AcDbEntity
  8
0
100
AcDbLine
 62
7
  6
CONTINUOUS
 10
140.312531149
 20
234.4671782762
 11
140.112531149
 21
234.6671782762
  0
LINE
  5
445
100
AcDbEntity
  8
02___PRT_ALL_AXES
100
AcDbLine
 62
7
  6
CONTINUOUS
 10
195.055556733
 20
141.6671782763
 11
199.055377004
 21
141.6671782763
  0
LINE
  5
446
100
AcDbEntity
  8
02___PRT_ALL_AXES
100
AcDbLine
 62
7
  6
CONTINUOUS
 10
194.5554668685
 20
143.6671782763
 11
199.5554668685
 21
143.6671782763
  0
LINE
  5
447
100
AcDbEntity
  8
0
100
AcDbLine
 62
7
  6
CONTINUOUS
 10
192.2554668685
 20
146.6671782763
 11
201.8554668685
 21
146.6671782763
  0
LINE
  5
448
100
AcDbEntity
  8
0
100
AcDbLine
 62
7
  6
CONTINUOUS
 10
192.0554668685
 20
146.8671782763
 11
202.0554668685
 21
146.8671782763
  0
LINE
  5
449
100
AcDbEntity
  8
0
100
AcDbLine
 62
7
  6
CONTINUOUS
 10
191.2554668685
 20
154.1671782763
 11
202.8554668685
 21
154.1671782763
  0
LINE
  5
44A
100
AcDbEntity
  8
0
100
AcDbLine
 62
7
  6
CONTINUOUS
 10
191.0554668685
 20
154.3671782763
 11
203.0554668685
 21
154.3671782763
  0
LINE
  5
44B
100
AcDbEntity
  8
0
100
AcDbLine
 62
7
  6
CONTINUOUS
 10
192.2554668685
 20
146.6671782763
 11
192.0554668685
 21
146.8671782763
  0
LINE
  5
44C
100
AcDbEntity
  8
0
100
AcDbLine
 62
7
  6
CONTINUOUS
 10
184.1554668685
 20
246.0671782763
 11
184.7554668685
 21
246.6671782763
  0
LINE
  5
44D
100
AcDbEntity
  8
0
100
AcDbLine
 62
7
  6
CONTINUOUS
 10
191.0554668685
 20
163.4671782763
 11
203.0554668685
 21
163.4671782763
  0
LINE
  5
44E
100
AcDbEntity
  8
0
100
AcDbLine
 62
7
  6
CONTINUOUS
 10
191.2554668685
 20
163.6671782763
 11
202.8554668685
 21
163.6671782763
  0
LINE
  5
44F
100
AcDbEntity
  8
0
100
AcDbLine
 62
7
  6
CONTINUOUS
 10
209.3554668685
 20
164.6671782763
 11
198.1554668685
 21
164.6671782763
  0
LINE
  5
450
100
AcDbEntity
  8
02___PRT_ALL_AXES
100
AcDbLine
 62
7
  6
CONTINUOUS
 10
184.1554668685
 20
164.6671782763
 11
181.1554668685
 21
164.6671782763
  0
LINE
  5
451
100
AcDbEntity
  8
0
100
AcDbLine
 62
7
  6
CONTINUOUS
 10
184.7554668685
 20
164.6671782763
 11
195.9554668685
 21
164.6671782763
  0
LINE
  5
452
100
AcDbEntity
  8
0
100
AcDbLine
 62
7
  6
CONTINUOUS
 10
191.2554668685
 20
154.1671782763
 11
191.0554668685
 21
154.3671782763
  0
LINE
  5
453
100
AcDbEntity
  8
0
100
AcDbLine
 62
7
  6
CONTINUOUS
 10
209.3554668685
 20
165.2671782763
 11
198.1554668685
 21
165.2671782763
  0
LINE
  5
454
100
AcDbEntity
  8
0
100
AcDbLine
 62
7
  6
CONTINUOUS
 10
184.7554668685
 20
165.2671782763
 11
195.9554668685
 21
165.2671782763
  0
LINE
  5
455
100
AcDbEntity
  8
0
100
AcDbLine
 62
7
  6
CONTINUOUS
 10
184.7554668685
 20
164.6671782763
 11
184.1554668685
 21
165.2671782763
  0
LINE
  5
456
100
AcDbEntity
  8
0
100
AcDbLine
 62
7
  6
CONTINUOUS
 10
195.9554668685
 20
246.0671782763
 11
196.2554668685
 21
246.3671782763
  0
LINE
  5
457
100
AcDbEntity
  8
0
100
AcDbLine
 62
7
  6
CONTINUOUS
 10
198.1554668685
 20
246.6671782763
 11
197.5554668685
 21
246.0671782763
  0
LINE
  5
458
100
AcDbEntity
  8
0
100
AcDbLine
 62
7
  6
CONTINUOUS
 10
196.2554668685
 20
164.9671782763
 11
195.9554668685
 21
165.2671782763
  0
LINE
  5
459
100
AcDbEntity
  8
0
100
AcDbLine
 62
7
  6
CONTINUOUS
 10
198.1554668685
 20
164.6671782763
 11
197.5554668685
 21
165.2671782763
  0
LINE
  5
45A
100
AcDbEntity
  8
0
100
AcDbLine
 62
7
  6
CONTINUOUS
 10
209.3554668685
 20
246.0671782763
 11
209.6554668685
 21
246.3671782763
  0
LINE
  5
45B
100
AcDbEntity
  8
02___PRT_ALL_AXES
100
AcDbLine
 62
7
  6
CENTER
 10
176.1554668685
 20
179.6671782763
 11
189.1554668685
 21
179.6671782763
  0
LINE
  5
45C
100
AcDbEntity
  8
0
100
AcDbLine
 62
7
  6
CONTINUOUS
 10
202.8554668685
 20
163.6671782763
 11
203.0554668685
 21
163.4671782763
  0
LINE
  5
45D
100
AcDbEntity
  8
02___PRT_ALL_AXES
100
AcDbLine
 62
7
  6
CONTINUOUS
 10
181.1554668685
 20
164.6671782763
 11
181.1554668685
 21
194.6671782763
  0
LINE
  5
45E
100
AcDbEntity
  8
02___PRT_ALL_AXES
100
AcDbLine
 62
7
  6
CONTINUOUS
 10
181.1554668685
 20
196.6671782763
 11
181.1554668685
 21
260.6671782763
  0
LINE
  5
45F
100
AcDbEntity
  8
0
100
AcDbLine
 62
7
  6
CONTINUOUS
 10
184.7554668685
 20
211.2671782763
 11
184.4554668685
 21
210.9671782763
  0
LINE
  5
460
100
AcDbEntity
  8
0
100
AcDbLine
 62
7
  6
CONTINUOUS
 10
209.6554668685
 20
164.9671782763
 11
209.3554668685
 21
165.2671782763
  0
LINE
  5
461
100
AcDbEntity
  8
0
100
AcDbLine
 62
7
  6
CONTINUOUS
 10
184.4554668685
 20
194.3671782763
 11
184.7554668685
 21
194.0671782763
  0
LINE
  5
462
100
AcDbEntity
  8
02___PRT_ALL_AXES
100
AcDbLine
 62
7
  6
CONTINUOUS
 10
195.0554668685
 20
141.6671782763
 11
194.5554668685
 21
143.6671782763
  0
LINE
  5
463
100
AcDbEntity
  8
02___PRT_ALL_AXES
100
AcDbLine
 62
7
  6
CONTINUOUS
 10
184.1554668685
 20
164.6671782763
 11
184.1554668685
 21
194.6671782763
  0
LINE
  5
464
100
AcDbEntity
  8
02___PRT_ALL_AXES
100
AcDbLine
 62
7
  6
CONTINUOUS
 10
184.1554668685
 20
196.6671782763
 11
184.1554668685
 21
260.6671782763
  0
LINE
  5
465
100
AcDbEntity
  8
0
100
AcDbLine
 62
7
  6
CONTINUOUS
 10
184.7554668685
 20
165.2671782763
 11
184.7554668685
 21
194.0671782763
  0
LINE
  5
466
100
AcDbEntity
  8
0
100
AcDbLine
 62
7
  6
CONTINUOUS
 10
184.7554668685
 20
211.2671782763
 11
184.7554668685
 21
246.0671782763
  0
LINE
  5
467
100
AcDbEntity
  8
02___PRT_ALL_AXES
100
AcDbLine
 62
7
  6
CONTINUOUS
 10
191.0554668685
 20
154.3671782763
 11
191.0554668685
 21
163.4671782763
  0
LINE
  5
468
100
AcDbEntity
  8
0
100
AcDbLine
 62
7
  6
CONTINUOUS
 10
209.3554668685
 20
194.0671782763
 11
198.1554668685
 21
194.0671782763
  0
LINE
  5
469
100
AcDbEntity
  8
0
100
AcDbLine
 62
7
  6
CONTINUOUS
 10
184.7554668685
 20
194.0671782763
 11
195.9554668685
 21
194.0671782763
  0
LINE
  5
46A
100
AcDbEntity
  8
0
100
AcDbLine
 62
7
  6
CONTINUOUS
 10
209.3554668685
 20
194.6671782763
 11
198.1554668685
 21
194.6671782763
  0
LINE
  5
46B
100
AcDbEntity
  8
02___PRT_ALL_AXES
100
AcDbLine
 62
7
  6
CONTINUOUS
 10
184.1554668685
 20
194.6671782763
 11
181.1554668685
 21
194.6671782763
  0
LINE
  5
46C
100
AcDbEntity
  8
0
100
AcDbLine
 62
7
  6
CONTINUOUS
 10
184.7554668685
 20
194.6671782763
 11
195.9554668685
 21
194.6671782763
  0
LINE
  5
46D
100
AcDbEntity
  8
02___PRT_ALL_AXES
100
AcDbLine
 62
7
  6
CONTINUOUS
 10
184.1554668685
 20
196.6671782763
 11
181.1554668685
 21
196.6671782763
  0
LINE
  5
46E
100
AcDbEntity
  8
0
100
AcDbLine
 62
7
  6
CONTINUOUS
 10
195.9554668685
 20
194.6671782763
 11
196.5554668685
 21
194.0671782763
  0
LINE
  5
46F
100
AcDbEntity
  8
02___PRT_ALL_AXES
100
AcDbLine
 62
7
  6
CONTINUOUS
 10
192.0554668685
 20
146.8671782763
 11
192.0554668685
 21
154.1671782763
  0
LINE
  5
470
100
AcDbEntity
  8
0
100
AcDbLine
 62
7
  6
CONTINUOUS
 10
192.0554668685
 20
163.6671782763
 11
192.0554668685
 21
164.6671782763
  0
LINE
  5
471
100
AcDbEntity
  8
0
100
AcDbLine
 62
7
  6
CONTINUOUS
 10
192.0554668685
 20
194.6671782763
 11
192.0554668685
 21
228.6671782763
  0
LINE
  5
472
100
AcDbEntity
  8
02___PRT_ALL_AXES
100
AcDbLine
 62
7
  6
CONTINUOUS
 10
194.7554668685
 20
143.6671782763
 11
194.7554668685
 21
146.6671782763
  0
LINE
  5
473
100
AcDbEntity
  8
0
100
AcDbLine
 62
7
  6
CONTINUOUS
 10
195.9554668685
 20
246.0671782763
 11
195.9554668685
 21
234.1580798416
  0
LINE
  5
474
100
AcDbEntity
  8
0
100
AcDbLine
 62
7
  6
CONTINUOUS
 10
195.9554668685
 20
194.0671782763
 11
195.9554668685
 21
165.2671782763
  0
LINE
  5
475
100
AcDbEntity
  8
0
100
AcDbLine
 62
7
  6
CONTINUOUS
 10
184.1554668685
 20
194.0671782763
 11
184.7554668685
 21
194.6671782763
  0
LINE
  5
476
100
AcDbEntity
  8
0
100
AcDbLine
 62
7
  6
CONTINUOUS
 10
198.1554668685
 20
194.0671782763
 11
197.8554668685
 21
194.3671782763
  0
LINE
  5
477
100
AcDbEntity
  8
0
100
AcDbLine
 62
7
  6
CONTINUOUS
 10
184.1554668685
 20
211.2671782763
 11
184.7554668685
 21
210.6671782763
  0
LINE
  5
478
100
AcDbEntity
  8
0
100
AcDbLine
 62
7
  6
CONTINUOUS
 10
196.5554668685
 20
246.0671782763
 11
196.5554668685
 21
233.6421154618
  0
LINE
  5
479
100
AcDbEntity
  8
0
100
AcDbLine
 62
7
  6
CONTINUOUS
 10
196.5554668685
 20
194.0671782763
 11
196.5554668685
 21
165.2671782763
  0
LINE
  5
47A
100
AcDbEntity
  8
03___PRT_ALL_CURVES
100
AcDbLine
 62
4
  6
CONTINUOUS
 10
197.0554668685
 20
228.6671782763
 11
197.0554668685
 21
226.2941513558
  0
LINE
  5
47B
100
AcDbEntity
  8
02___PRT_ALL_AXES
100
AcDbLine
 62
7
  6
CENTER
 10
197.0554668685
 20
228.6671782763
 11
197.0554668685
 21
221.0480972192
  0
LINE
  5
47C
100
AcDbEntity
  8
02___PRT_ALL_AXES
100
AcDbLine
 62
7
  6
CENTER
 10
197.0554668685
 20
213.6671782763
 11
197.0554668685
 21
137.6040099908
  0
LINE
  5
47D
100
AcDbEntity
  8
02___PRT_ALL_AXES
100
AcDbLine
 62
7
  6
CENTER
 10
197.0554668685
 20
228.6671782763
 11
197.0554668685
 21
236.0436987624
  0
LINE
  5
47E
100
AcDbEntity
  8
0
100
AcDbLine
 62
7
  6
CONTINUOUS
 10
197.5554668685
 20
165.2671782763
 11
197.5554668685
 21
194.0671782763
  0
LINE
  5
47F
100
AcDbEntity
  8
0
100
AcDbLine
 62
7
  6
CONTINUOUS
 10
197.5554668685
 20
233.6421154618
 11
197.5554668685
 21
246.0671782763
  0
LINE
  5
480
100
AcDbEntity
  8
0
100
AcDbLine
 62
7
  6
CONTINUOUS
 10
198.1554668685
 20
165.2671782763
 11
198.1554668685
 21
194.0671782763
  0
LINE
  5
481
100
AcDbEntity
  8
0
100
AcDbLine
 62
7
  6
CONTINUOUS
 10
198.1554668685
 20
234.1580798416
 11
198.1554668685
 21
246.0671782763
  0
LINE
  5
482
100
AcDbEntity
  8
02___PRT_ALL_AXES
100
AcDbLine
 62
7
  6
CONTINUOUS
 10
199.3554668685
 20
143.6671782763
 11
199.3554668685
 21
146.6671782763
  0
LINE
  5
483
100
AcDbEntity
  8
0
100
AcDbLine
 62
7
  6
CONTINUOUS
 10
209.3554668685
 20
210.6671782763
 11
209.9554668685
 21
211.2671782763
  0
LINE
  5
484
100
AcDbEntity
  8
02___PRT_ALL_AXES
100
AcDbLine
 62
7
  6
CENTER
 10
176.1554668685
 20
203.6671782763
 11
189.1554668685
 21
203.6671782763
  0
LINE
  5
485
100
AcDbEntity
  8
02___PRT_ALL_AXES
100
AcDbLine
 62
7
  6
CONTINUOUS
 10
202.0554668685
 20
146.8671782763
 11
202.0554668685
 21
154.1671782763
  0
LINE
  5
486
100
AcDbEntity
  8
0
100
AcDbLine
 62
7
  6
CONTINUOUS
 10
202.0554668685
 20
163.6671782763
 11
202.0554668685
 21
164.6671782763
  0
LINE
  5
487
100
AcDbEntity
  8
0
100
AcDbLine
 62
7
  6
CONTINUOUS
 10
202.0554668685
 20
194.6671782763
 11
202.0554668685
 21
228.6671782763
  0
LINE
  5
488
100
AcDbEntity
  8
02___PRT_ALL_AXES
100
AcDbLine
 62
7
  6
CONTINUOUS
 10
203.0554668685
 20
154.3671782763
 11
203.0554668685
 21
163.4671782763
  0
LINE
  5
489
100
AcDbEntity
  8
0
100
AcDbLine
 62
7
  6
CONTINUOUS
 10
195.9554668685
 20
194.0671782763
 11
196.2554668685
 21
194.3671782763
  0
LINE
  5
48A
100
AcDbEntity
  8
0
100
AcDbLine
 62
7
  6
CONTINUOUS
 10
198.1554668685
 20
194.6671782763
 11
197.5554668685
 21
194.0671782763
  0
LINE
  5
48B
100
AcDbEntity
  8
0
100
AcDbLine
 62
7
  6
CONTINUOUS
 10
192.0554668685
 20
208.6671782763
 11
202.0554668685
 21
208.6671782763
  0
LINE
  5
48C
100
AcDbEntity
  8
0
100
AcDbLine
 62
7
  6
CONTINUOUS
 10
209.9554668685
 20
194.0671782763
 11
209.3554668685
 21
194.6671782763
  0
LINE
  5
48D
100
AcDbEntity
  8
0
100
AcDbLine
 62
7
  6
CONTINUOUS
 10
209.3554668685
 20
210.6671782763
 11
202.0554668685
 21
210.6671782763
  0
LINE
  5
48E
100
AcDbEntity
  8
0
100
AcDbLine
 62
7
  6
CONTINUOUS
 10
184.7554668685
 20
210.6671782763
 11
192.0554668685
 21
210.6671782763
  0
LINE
  5
48F
100
AcDbEntity
  8
0
100
AcDbLine
 62
7
  6
CONTINUOUS
 10
209.3554668685
 20
211.2671782763
 11
202.0554668685
 21
211.2671782763
  0
LINE
  5
490
100
AcDbEntity
  8
0
100
AcDbLine
 62
7
  6
CONTINUOUS
 10
184.7554668685
 20
211.2671782763
 11
192.0554668685
 21
211.2671782763
  0
LINE
  5
491
100
AcDbEntity
  8
0
100
AcDbLine
 62
7
  6
CONTINUOUS
 10
209.3554668685
 20
246.0671782763
 11
209.3554668685
 21
211.2671782763
  0
LINE
  5
492
100
AcDbEntity
  8
0
100
AcDbLine
 62
7
  6
CONTINUOUS
 10
209.3554668685
 20
194.0671782763
 11
209.3554668685
 21
165.2671782763
  0
LINE
  5
493
100
AcDbEntity
  8
0
100
AcDbLine
 62
7
  6
CONTINUOUS
 10
209.9554668685
 20
246.0671782763
 11
209.9554668685
 21
211.2671782763
  0
LINE
  5
494
100
AcDbEntity
  8
0
100
AcDbLine
 62
7
  6
CONTINUOUS
 10
209.9554668685
 20
194.0671782763
 11
209.9554668685
 21
165.2671782763
  0
LINE
  5
495
100
AcDbEntity
  8
0
100
AcDbLine
 62
7
  6
CONTINUOUS
 10
209.3554668685
 20
194.0671782763
 11
209.6554668685
 21
194.3671782763
  0
LINE
  5
496
100
AcDbEntity
  8
02___PRT_ALL_AXES
100
AcDbLine
 62
7
  6
CONTINUOUS
 10
199.0554668685
 20
141.6671782763
 11
199.5554668685
 21
143.6671782763
  0
LINE
  5
497
100
AcDbEntity
  8
0
100
AcDbLine
 62
7
  6
CONTINUOUS
 10
184.7554668685
 20
165.2671782763
 11
184.4554668685
 21
164.9671782763
  0
LINE
  5
498
100
AcDbEntity
  8
0
100
AcDbLine
 62
7
  6
CONTINUOUS
 10
209.3554668685
 20
211.2671782763
 11
209.6554668685
 21
210.9671782763
  0
LINE
  5
499
100
AcDbEntity
  8
0
100
AcDbLine
 62
7
  6
CONTINUOUS
 10
191.2554668685
 20
163.6671782763
 11
191.0554668685
 21
163.4671782763
  0
LINE
  5
49A
100
AcDbEntity
  8
0
100
AcDbLine
 62
7
  6
CONTINUOUS
 10
184.4554668685
 20
246.3671782763
 11
184.7554668685
 21
246.0671782763
  0
LINE
  5
49B
100
AcDbEntity
  8
0
100
AcDbLine
 62
7
  6
CONTINUOUS
 10
195.9554668685
 20
164.6671782763
 11
196.5554668685
 21
165.2671782763
  0
LINE
  5
49C
100
AcDbEntity
  8
0
100
AcDbLine
 62
7
  6
CONTINUOUS
 10
198.1554668685
 20
165.2671782763
 11
197.8554668685
 21
164.9671782763
  0
LINE
  5
49D
100
AcDbEntity
  8
02___PRT_ALL_AXES
100
AcDbLine
 62
7
  6
CENTER
 10
197.0554668685
 20
228.6671782763
 11
189.4630920183
 21
228.6671782763
  0
LINE
  5
49E
100
AcDbEntity
  8
02___PRT_ALL_AXES
100
AcDbLine
 62
7
  6
CENTER
 10
197.0554668685
 20
228.6671782763
 11
204.835941399
 21
228.6671782763
  0
LINE
  5
49F
100
AcDbEntity
  8
0
100
AcDbLine
 62
7
  6
CONTINUOUS
 10
195.9554668685
 20
246.6671782763
 11
196.5554668685
 21
246.0671782763
  0
LINE
  5
4A0
100
AcDbEntity
  8
0
100
AcDbLine
 62
7
  6
CONTINUOUS
 10
209.3554668685
 20
164.6671782763
 11
209.9554668685
 21
165.2671782763
  0
LINE
  5
4A1
100
AcDbEntity
  8
0
100
AcDbLine
 62
7
  6
CONTINUOUS
 10
198.1554668685
 20
246.0671782763
 11
197.8554668685
 21
246.3671782763
  0
LINE
  5
4A2
100
AcDbEntity
  8
0
100
AcDbLine
 62
7
  6
CONTINUOUS
 10
202.8554668685
 20
154.1671782763
 11
203.0554668685
 21
154.3671782763
  0
LINE
  5
4A3
100
AcDbEntity
  8
0
100
AcDbLine
 62
7
  6
CONTINUOUS
 10
201.8554668685
 20
146.6671782763
 11
202.0554668685
 21
146.8671782763
  0
LINE
  5
4A4
100
AcDbEntity
  8
0
100
AcDbLine
 62
7
  6
CONTINUOUS
 10
209.3554668685
 20
246.0671782763
 11
198.1554668685
 21
246.0671782763
  0
LINE
  5
4A5
100
AcDbEntity
  8
0
100
AcDbLine
 62
7
  6
CONTINUOUS
 10
184.7554668685
 20
246.0671782763
 11
195.9554668685
 21
246.0671782763
  0
LINE
  5
4A6
100
AcDbEntity
  8
0
100
AcDbLine
 62
7
  6
CONTINUOUS
 10
209.9554668685
 20
246.0671782763
 11
209.3554668685
 21
246.6671782763
  0
LINE
  5
4A7
100
AcDbEntity
  8
0
100
AcDbLine
 62
7
  6
CONTINUOUS
 10
209.3554668685
 20
246.6671782763
 11
198.1554668685
 21
246.6671782763
  0
LINE
  5
4A8
100
AcDbEntity
  8
0
100
AcDbLine
 62
7
  6
CONTINUOUS
 10
184.7554668685
 20
246.6671782763
 11
195.9554668685
 21
246.6671782763
  0
LINE
  5
4A9
100
AcDbEntity
  8
02___PRT_ALL_AXES
100
AcDbLine
 62
7
  6
CENTER
 10
176.1554668685
 20
253.6671782763
 11
189.1554668685
 21
253.6671782763
  0
LINE
  5
4AA
100
AcDbEntity
  8
02___PRT_ALL_AXES
100
AcDbLine
 62
7
  6
CONTINUOUS
 10
184.1554668685
 20
260.6671782763
 11
181.1554668685
 21
260.6671782763
  0
LINE
  5
4AB
100
AcDbEntity
  8
02___PRT_ALL_AXES
100
AcDbLine
 62
7
  6
CONTINUOUS
 10
24.5388848216
 20
45.9813481915
 11
24.5388848216
 21
55.3813481915
  0
LINE
  5
4AC
100
AcDbEntity
  8
02___PRT_ALL_AXES
100
AcDbLine
 62
7
  6
CONTINUOUS
 10
26.3125311489
 20
63.5813481915
 11
26.3125311489
 21
66.5813481915
  0
LINE
  5
4AD
100
AcDbEntity
  8
02___PRT_ALL_AXES
100
AcDbLine
 62
7
  6
CONTINUOUS
 10
31.5388848216
 20
45.9813481915
 11
31.5388848216
 21
55.3813481915
  0
LINE
  5
4AE
100
AcDbEntity
  8
02___PRT_ALL_AXES
100
AcDbLine
 62
7
  6
CENTER
 10
33.3125311489
 20
71.5813481915
 11
33.3125311489
 21
58.5813481915
  0
LINE
  5
4AF
100
AcDbEntity
  8
0
100
AcDbLine
 62
7
  6
CONTINUOUS
 10
40.3125311489
 20
62.9813481915
 11
40.3125311489
 21
54.6663481915
  0
LINE
  5
4B0
100
AcDbEntity
  8
0
100
AcDbLine
 62
7
  6
CONTINUOUS
 10
40.3125311489
 20
38.3813481915
 11
40.3125311489
 21
46.6963481915
  0
LINE
  5
4B1
100
AcDbEntity
  8
0
100
AcDbLine
 62
7
  6
CONTINUOUS
 10
40.9125311489
 20
62.9813481915
 11
40.9125311489
 21
54.6663481915
  0
LINE
  5
4B2
100
AcDbEntity
  8
0
100
AcDbLine
 62
7
  6
CONTINUOUS
 10
40.9125311489
 20
38.3813481915
 11
40.9125311489
 21
46.6963481915
  0
LINE
  5
4B3
100
AcDbEntity
  8
0
100
AcDbLine
 62
7
  6
CONTINUOUS
 10
40.9125311489
 20
37.7813481915
 11
40.3125311489
 21
38.3813481915
  0
LINE
  5
4B4
100
AcDbEntity
  8
0
100
AcDbLine
 62
7
  6
CONTINUOUS
 10
40.9125311489
 20
63.5813481915
 11
40.3125311489
 21
62.9813481915
  0
LINE
  5
4B5
100
AcDbEntity
  8
02___PRT_ALL_AXES
100
AcDbLine
 62
7
  6
CENTER
 10
58.3125311489
 20
50.6813481915
 11
58.3125311489
 21
42.6777605083
  0
LINE
  5
4B6
100
AcDbEntity
  8
02___PRT_ALL_AXES
100
AcDbLine
 62
7
  6
CENTER
 10
58.3125311489
 20
50.6813481915
 11
58.3125311489
 21
57.5318941123
  0
LINE
  5
4B7
100
AcDbEntity
  8
0
100
AcDbLine
 62
7
  6
CONTINUOUS
 10
40.6125311489
 20
38.0813481915
 11
40.9125311489
 21
38.3813481915
  0
LINE
  5
4B8
100
AcDbEntity
  8
0
100
AcDbLine
 62
7
  6
CONTINUOUS
 10
40.9125311489
 20
62.9813481915
 11
40.6125311489
 21
63.2813481915
  0
LINE
  5
4B9
100
AcDbEntity
  8
02___PRT_ALL_AXES
100
AcDbLine
 62
7
  6
CONTINUOUS
 10
145.3125311489
 20
47.6813481915
 11
143.3125311489
 21
47.1813481915
  0
LINE
  5
4BA
100
AcDbEntity
  8
0
100
AcDbLine
 62
7
  6
CONTINUOUS
 10
75.7125311489
 20
38.3813481915
 11
76.0125311489
 21
38.0813481915
  0
LINE
  5
4BB
100
AcDbEntity
  8
0
100
AcDbLine
 62
7
  6
CONTINUOUS
 10
76.0125311489
 20
63.2813481915
 11
75.7125311489
 21
62.9813481915
  0
LINE
  5
4BC
100
AcDbEntity
  8
0
100
AcDbLine
 62
7
  6
CONTINUOUS
 10
121.7125311489
 20
37.7813481915
 11
92.9125311489
 21
37.7813481915
  0
LINE
  5
4BD
100
AcDbEntity
  8
0
100
AcDbLine
 62
7
  6
CONTINUOUS
 10
75.7125311489
 20
37.7813481915
 11
40.9125311489
 21
37.7813481915
  0
LINE
  5
4BE
100
AcDbEntity
  8
0
100
AcDbLine
 62
7
  6
CONTINUOUS
 10
121.7125311489
 20
38.3813481915
 11
92.9125311489
 21
38.3813481915
  0
LINE
  5
4BF
100
AcDbEntity
  8
0
100
AcDbLine
 62
7
  6
CONTINUOUS
 10
75.7125311489
 20
38.3813481915
 11
40.9125311489
 21
38.3813481915
  0
LINE
  5
4C0
100
AcDbEntity
  8
0
100
AcDbLine
 62
7
  6
CONTINUOUS
 10
75.7125311489
 20
62.9813481915
 11
75.7125311489
 21
55.6813481915
  0
LINE
  5
4C1
100
AcDbEntity
  8
0
100
AcDbLine
 62
7
  6
CONTINUOUS
 10
75.7125311489
 20
38.3813481915
 11
75.7125311489
 21
45.6813481915
  0
LINE
  5
4C2
100
AcDbEntity
  8
0
100
AcDbLine
 62
7
  6
CONTINUOUS
 10
76.3125311489
 20
62.9813481915
 11
76.3125311489
 21
55.6813481915
  0
LINE
  5
4C3
100
AcDbEntity
  8
0
100
AcDbLine
 62
7
  6
CONTINUOUS
 10
76.3125311489
 20
38.3813481915
 11
76.3125311489
 21
45.6813481915
  0
LINE
  5
4C4
100
AcDbEntity
  8
02___PRT_ALL_AXES
100
AcDbLine
 62
7
  6
CONTINUOUS
 10
133.6125311489
 20
43.8313481915
 11
123.5125311489
 21
43.8313481915
  0
LINE
  5
4C5
100
AcDbEntity
  8
0
100
AcDbLine
 62
7
  6
CONTINUOUS
 10
78.3125311489
 20
55.6813481915
 11
78.3125311489
 21
45.6813481915
  0
LINE
  5
4C6
100
AcDbEntity
  8
02___PRT_ALL_AXES
100
AcDbLine
 62
7
  6
CONTINUOUS
 10
140.1125311489
 20
44.6813481915
 11
133.8125311489
 21
44.6813481915
  0
LINE
  5
4C7
100
AcDbEntity
  8
0
100
AcDbLine
 62
7
  6
CONTINUOUS
 10
58.3125311489
 20
45.6813481915
 11
92.3125311489
 21
45.6813481915
  0
LINE
  5
4C8
100
AcDbEntity
  8
0
100
AcDbLine
 62
7
  6
CONTINUOUS
 10
122.3125311489
 20
45.6813481915
 11
123.3125311489
 21
45.6813481915
  0
LINE
  5
4C9
100
AcDbEntity
  8
02___PRT_ALL_AXES
100
AcDbLine
 62
7
  6
CONTINUOUS
 10
31.5388848216
 20
45.9813481915
 11
24.5388848216
 21
45.9813481915
  0
LINE
  5
4CA
100
AcDbEntity
  8
02___PRT_ALL_AXES
100
AcDbLine
 62
7
  6
CONTINUOUS
 10
66.1615496821
 20
46.6963481915
 11
31.5388848216
 21
46.6963481915
  0
LINE
  5
4CB
100
AcDbEntity
  8
02___PRT_ALL_AXES
100
AcDbLine
 62
7
  6
CONTINUOUS
 10
143.3125311489
 20
47.4313481915
 11
140.3125311489
 21
47.4313481915
  0
LINE
  5
4CC
100
AcDbEntity
  8
0
100
AcDbLine
 62
7
  6
CONTINUOUS
 10
92.3125311489
 20
38.3813481915
 11
92.9125311489
 21
37.7813481915
  0
LINE
  5
4CD
100
AcDbEntity
  8
02___PRT_ALL_AXES
100
AcDbLine
 62
7
  6
CENTER
 10
83.3125311489
 20
71.5813481915
 11
83.3125311489
 21
58.5813481915
  0
LINE
  5
4CE
100
AcDbEntity
  8
0
100
AcDbLine
 62
7
  6
CONTINUOUS
 10
92.9125311489
 20
63.5813481915
 11
92.3125311489
 21
62.9813481915
  0
LINE
  5
4CF
100
AcDbEntity
  8
0
100
AcDbLine
 62
7
  6
CONTINUOUS
 10
92.9125311489
 20
49.5813481915
 11
121.7125311489
 21
49.5813481915
  0
LINE
  5
4D0
100
AcDbEntity
  8
0
100
AcDbLine
 62
7
  6
CONTINUOUS
 10
92.9125311489
 20
50.1813481915
 11
121.7125311489
 21
50.1813481915
  0
LINE
  5
4D1
100
AcDbEntity
  8
02___PRT_ALL_AXES
100
AcDbLine
 62
7
  6
CENTER
 10
145.6999146593
 20
50.6813481915
 11
73.3125311489
 21
50.6813481915
  0
LINE
  5
4D2
100
AcDbEntity
  8
02___PRT_ALL_AXES
100
AcDbLine
 62
7
  6
CENTER
 10
58.3125311489
 20
50.6813481915
 11
50.8554487278
 21
50.6813481915
  0
LINE
  5
4D3
100
AcDbEntity
  8
02___PRT_ALL_AXES
100
AcDbLine
 62
7
  6
CENTER
 10
58.3125311489
 20
50.6813481915
 11
66.4169220273
 21
50.6813481915
  0
LINE
  5
4D4
100
AcDbEntity
  8
0
100
AcDbLine
 62
7
  6
CONTINUOUS
 10
121.7125311489
 20
51.1813481915
 11
92.9125311489
 21
51.1813481915
  0
LINE
  5
4D5
100
AcDbEntity
  8
0
100
AcDbLine
 62
7
  6
CONTINUOUS
 10
121.7125311489
 20
51.7813481915
 11
92.9125311489
 21
51.7813481915
  0
LINE
  5
4D6
100
AcDbEntity
  8
0
100
AcDbLine
 62
7
  6
CONTINUOUS
 10
75.7125311489
 20
37.7813481915
 11
76.3125311489
 21
38.3813481915
  0
LINE
  5
4D7
100
AcDbEntity
  8
02___PRT_ALL_AXES
100
AcDbLine
 62
7
  6
CONTINUOUS
 10
143.3125311489
 20
53.9313481915
 11
140.3125311489
 21
53.9313481915
  0
LINE
  5
4D8
100
AcDbEntity
  8
02___PRT_ALL_AXES
100
AcDbLine
 62
7
  6
CONTINUOUS
 10
66.1615537647
 20
54.6663481915
 11
31.5388848216
 21
54.6663481915
  0
LINE
  5
4D9
100
AcDbEntity
  8
02___PRT_ALL_AXES
100
AcDbLine
 62
7
  6
CONTINUOUS
 10
31.5388848216
 20
55.3813481915
 11
24.5388848216
 21
55.3813481915
  0
LINE
  5
4DA
100
AcDbEntity
  8
0
100
AcDbLine
 62
7
  6
CONTINUOUS
 10
58.3125311489
 20
55.6813481915
 11
92.3125311489
 21
55.6813481915
  0
LINE
  5
4DB
100
AcDbEntity
  8
0
100
AcDbLine
 62
7
  6
CONTINUOUS
 10
122.3125311489
 20
55.6813481915
 11
123.3125311489
 21
55.6813481915
  0
LINE
  5
4DC
100
AcDbEntity
  8
02___PRT_ALL_AXES
100
AcDbLine
 62
7
  6
CONTINUOUS
 10
140.1125311489
 20
56.6813481915
 11
133.8125311489
 21
56.6813481915
  0
LINE
  5
4DD
100
AcDbEntity
  8
0
100
AcDbLine
 62
7
  6
CONTINUOUS
 10
76.3125311489
 20
62.9813481915
 11
75.7125311489
 21
63.5813481915
  0
LINE
  5
4DE
100
AcDbEntity
  8
0
100
AcDbLine
 62
7
  6
CONTINUOUS
 10
92.9125311489
 20
49.5813481915
 11
92.6125311489
 21
49.8813481915
  0
LINE
  5
4DF
100
AcDbEntity
  8
02___PRT_ALL_AXES
100
AcDbLine
 62
7
  6
CONTINUOUS
 10
90.3125311489
 20
63.5813481915
 11
90.3125311489
 21
66.5813481915
  0
LINE
  5
4E0
100
AcDbEntity
  8
0
100
AcDbLine
 62
7
  6
CONTINUOUS
 10
92.3125311489
 20
62.9813481915
 11
92.3125311489
 21
51.7813481915
  0
LINE
  5
4E1
100
AcDbEntity
  8
0
100
AcDbLine
 62
7
  6
CONTINUOUS
 10
92.3125311489
 20
38.3813481915
 11
92.3125311489
 21
49.5813481915
  0
LINE
  5
4E2
100
AcDbEntity
  8
02___PRT_ALL_AXES
100
AcDbLine
 62
7
  6
CONTINUOUS
 10
92.3125311489
 20
63.5813481915
 11
92.3125311489
 21
66.5813481915
  0
LINE
  5
4E3
100
AcDbEntity
  8
0
100
AcDbLine
 62
7
  6
CONTINUOUS
 10
92.9125311489
 20
62.9813481915
 11
92.9125311489
 21
51.7813481915
  0
LINE
  5
4E4
100
AcDbEntity
  8
0
100
AcDbLine
 62
7
  6
CONTINUOUS
 10
92.9125311489
 20
38.3813481915
 11
92.9125311489
 21
49.5813481915
  0
LINE
  5
4E5
100
AcDbEntity
  8
0
100
AcDbLine
 62
7
  6
CONTINUOUS
 10
92.9125311489
 20
51.7813481915
 11
92.6125311489
 21
51.4813481915
  0
LINE
  5
4E6
100
AcDbEntity
  8
0
100
AcDbLine
 62
7
  6
CONTINUOUS
 10
92.3125311489
 20
49.5813481915
 11
92.9125311489
 21
50.1813481915
  0
LINE
  5
4E7
100
AcDbEntity
  8
02___PRT_ALL_AXES
100
AcDbLine
 62
7
  6
CONTINUOUS
 10
133.6125311489
 20
57.5313481915
 11
123.5125311489
 21
57.5313481915
  0
LINE
  5
4E8
100
AcDbEntity
  8
0
100
AcDbLine
 62
7
  6
CONTINUOUS
 10
92.3125311489
 20
51.7813481915
 11
92.9125311489
 21
51.1813481915
  0
LINE
  5
4E9
100
AcDbEntity
  8
0
100
AcDbLine
 62
7
  6
CONTINUOUS
 10
40.9125311489
 20
62.9813481915
 11
75.7125311489
 21
62.9813481915
  0
LINE
  5
4EA
100
AcDbEntity
  8
0
100
AcDbLine
 62
7
  6
CONTINUOUS
 10
92.9125311489
 20
62.9813481915
 11
121.7125311489
 21
62.9813481915
  0
LINE
  5
4EB
100
AcDbEntity
  8
02___PRT_ALL_AXES
100
AcDbLine
 62
7
  6
CONTINUOUS
 10
26.3125311489
 20
63.5813481915
 11
90.3125311489
 21
63.5813481915
  0
LINE
  5
4EC
100
AcDbEntity
  8
02___PRT_ALL_AXES
100
AcDbLine
 62
7
  6
CONTINUOUS
 10
92.3125311489
 20
63.5813481915
 11
122.3125311489
 21
63.5813481915
  0
LINE
  5
4ED
100
AcDbEntity
  8
0
100
AcDbLine
 62
7
  6
CONTINUOUS
 10
92.6125311489
 20
38.0813481915
 11
92.9125311489
 21
38.3813481915
  0
LINE
  5
4EE
100
AcDbEntity
  8
02___PRT_ALL_AXES
100
AcDbLine
 62
7
  6
CONTINUOUS
 10
26.3125311489
 20
66.5813481915
 11
90.3125311489
 21
66.5813481915
  0
LINE
  5
4EF
100
AcDbEntity
  8
02___PRT_ALL_AXES
100
AcDbLine
 62
7
  6
CONTINUOUS
 10
92.3125311489
 20
66.5813481915
 11
122.3125311489
 21
66.5813481915
  0
LINE
  5
4F0
100
AcDbEntity
  8
02___PRT_ALL_AXES
100
AcDbLine
 62
7
  6
CONTINUOUS
 10
145.3125311489
 20
53.6813481915
 11
143.3125311489
 21
54.1813481915
  0
LINE
  5
4F1
100
AcDbEntity
  8
0
100
AcDbLine
 62
7
  6
CONTINUOUS
 10
92.9125311489
 20
62.9813481915
 11
92.6125311489
 21
63.2813481915
  0
LINE
  5
4F2
100
AcDbEntity
  8
0
100
AcDbLine
 62
7
  6
CONTINUOUS
 10
121.7125311489
 20
38.3813481915
 11
122.0125311489
 21
38.0813481915
  0
LINE
  5
4F3
100
AcDbEntity
  8
0
100
AcDbLine
 62
7
  6
CONTINUOUS
 10
122.0125311489
 20
63.2813481915
 11
121.7125311489
 21
62.9813481915
  0
LINE
  5
4F4
100
AcDbEntity
  8
02___PRT_ALL_AXES
100
AcDbLine
 62
7
  6
CENTER
 10
107.3125311489
 20
71.5813481915
 11
107.3125311489
 21
58.5813481915
  0
LINE
  5
4F5
100
AcDbEntity
  8
0
100
AcDbLine
 62
7
  6
CONTINUOUS
 10
123.3125311489
 20
57.3313481915
 11
123.5125311489
 21
57.5313481915
  0
LINE
  5
4F6
100
AcDbEntity
  8
0
100
AcDbLine
 62
7
  6
CONTINUOUS
 10
123.3125311489
 20
44.0313481915
 11
123.5125311489
 21
43.8313481915
  0
LINE
  5
4F7
100
AcDbEntity
  8
0
100
AcDbLine
 62
7
  6
CONTINUOUS
 10
122.3125311489
 20
49.5813481915
 11
121.7125311489
 21
50.1813481915
  0
LINE
  5
4F8
100
AcDbEntity
  8
0
100
AcDbLine
 62
7
  6
CONTINUOUS
 10
122.3125311489
 20
51.7813481915
 11
121.7125311489
 21
51.1813481915
  0
LINE
  5
4F9
100
AcDbEntity
  8
0
100
AcDbLine
 62
7
  6
CONTINUOUS
 10
121.7125311489
 20
49.5813481915
 11
122.0125311489
 21
49.8813481915
  0
LINE
  5
4FA
100
AcDbEntity
  8
0
100
AcDbLine
 62
7
  6
CONTINUOUS
 10
121.7125311489
 20
51.7813481915
 11
122.0125311489
 21
51.4813481915
  0
LINE
  5
4FB
100
AcDbEntity
  8
0
100
AcDbLine
 62
7
  6
CONTINUOUS
 10
121.7125311489
 20
62.9813481915
 11
121.7125311489
 21
51.7813481915
  0
LINE
  5
4FC
100
AcDbEntity
  8
0
100
AcDbLine
 62
7
  6
CONTINUOUS
 10
121.7125311489
 20
38.3813481915
 11
121.7125311489
 21
49.5813481915
  0
LINE
  5
4FD
100
AcDbEntity
  8
0
100
AcDbLine
 62
7
  6
CONTINUOUS
 10
122.3125311489
 20
62.9813481915
 11
122.3125311489
 21
51.7813481915
  0
LINE
  5
4FE
100
AcDbEntity
  8
0
100
AcDbLine
 62
7
  6
CONTINUOUS
 10
122.3125311489
 20
38.3813481915
 11
122.3125311489
 21
49.5813481915
  0
LINE
  5
4FF
100
AcDbEntity
  8
02___PRT_ALL_AXES
100
AcDbLine
 62
7
  6
CONTINUOUS
 10
122.3125311489
 20
63.5813481915
 11
122.3125311489
 21
66.5813481915
  0
LINE
  5
500
100
AcDbEntity
  8
0
100
AcDbLine
 62
7
  6
CONTINUOUS
 10
121.7125311489
 20
37.7813481915
 11
122.3125311489
 21
38.3813481915
  0
LINE
  5
501
100
AcDbEntity
  8
0
100
AcDbLine
 62
7
  6
CONTINUOUS
 10
121.7125311489
 20
63.5813481915
 11
122.3125311489
 21
62.9813481915
  0
LINE
  5
502
100
AcDbEntity
  8
0
100
AcDbLine
 62
7
  6
CONTINUOUS
 10
123.3125311489
 20
44.0314261076
 11
123.3125311489
 21
57.3312702755
  0
LINE
  5
503
100
AcDbEntity
  8
0
100
AcDbLine
 62
7
  6
CONTINUOUS
 10
123.5125311489
 20
43.8313481915
 11
123.5125311489
 21
57.5313481915
  0
LINE
  5
504
100
AcDbEntity
  8
0
100
AcDbLine
 62
7
  6
CONTINUOUS
 10
133.8125311489
 20
44.0313481915
 11
133.6125311489
 21
43.8313481915
  0
LINE
  5
505
100
AcDbEntity
  8
0
100
AcDbLine
 62
7
  6
CONTINUOUS
 10
133.8125311489
 20
57.3313481915
 11
133.6125311489
 21
57.5313481915
  0
LINE
  5
506
100
AcDbEntity
  8
0
100
AcDbLine
 62
7
  6
CONTINUOUS
 10
140.3125311489
 20
44.8813481915
 11
140.1125311489
 21
44.6813481915
  0
LINE
  5
507
100
AcDbEntity
  8
0
100
AcDbLine
 62
7
  6
CONTINUOUS
 10
140.3125311489
 20
56.4813481915
 11
140.1125311489
 21
56.6813481915
  0
LINE
  5
508
100
AcDbEntity
  8
0
100
AcDbLine
 62
7
  6
CONTINUOUS
 10
133.6125311489
 20
43.8313481915
 11
133.6125311489
 21
57.5313481915
  0
LINE
  5
509
100
AcDbEntity
  8
0
100
AcDbLine
 62
7
  6
CONTINUOUS
 10
133.8125311489
 20
44.0314261077
 11
133.8125311489
 21
57.3312702754
  0
LINE
  5
50A
100
AcDbEntity
  8
0
100
AcDbLine
 62
7
  6
CONTINUOUS
 10
140.1125311489
 20
44.6813481915
 11
140.1125311489
 21
56.6813481915
  0
LINE
  5
50B
100
AcDbEntity
  8
0
100
AcDbLine
 62
7
  6
CONTINUOUS
 10
140.3125311489
 20
44.8813481915
 11
140.3125311489
 21
56.4813481915
  0
LINE
  5
50C
100
AcDbEntity
  8
02___PRT_ALL_AXES
100
AcDbLine
 62
7
  6
CONTINUOUS
 10
143.3125311489
 20
47.1813481915
 11
143.3125311489
 21
54.1813481915
  0
LINE
  5
50D
100
AcDbEntity
  8
02___PRT_ALL_AXES
100
AcDbLine
 62
7
  6
CONTINUOUS
 10
145.3125311489
 20
47.6814299627
 11
145.3125311489
 21
53.6812664204
  0
LINE
  5
50E
100
AcDbEntity
  8
02___PRT_ALL_AXES
100
AcDbLine
 62
7
  6
CONTINUOUS
 10
257.4909787303
 20
233.3671782763
 11
257.4909787303
 21
223.9671782763
  0
LINE
  5
50F
100
AcDbEntity
  8
02___PRT_ALL_AXES
100
AcDbLine
 62
7
  6
CONTINUOUS
 10
259.2646250575
 20
164.6671782763
 11
259.2646250575
 21
194.6671782763
  0
LINE
  5
510
100
AcDbEntity
  8
02___PRT_ALL_AXES
100
AcDbLine
 62
7
  6
CONTINUOUS
 10
293.2646250575
 20
141.6671782763
 11
289.2646250575
 21
141.6671782763
  0
LINE
  5
511
100
AcDbEntity
  8
02___PRT_ALL_AXES
100
AcDbLine
 62
7
  6
CONTINUOUS
 10
293.7646250575
 20
143.6671782763
 11
288.7646250575
 21
143.6671782763
  0
LINE
  5
512
100
AcDbEntity
  8
0
100
AcDbLine
 62
7
  6
CONTINUOUS
 10
286.4646250577
 20
146.6671782761
 11
286.2646250577
 21
146.8671782761
  0
LINE
  5
513
100
AcDbEntity
  8
0
100
AcDbLine
 62
7
  6
CONTINUOUS
 10
273.8646250575
 20
164.6671782763
 11
273.2646250575
 21
165.2671782763
  0
LINE
  5
514
100
AcDbEntity
  8
0
100
AcDbLine
 62
7
  6
CONTINUOUS
 10
285.4646250576
 20
154.1671782762
 11
285.2646250576
 21
154.3671782762
  0
LINE
  5
515
100
AcDbEntity
  8
02___PRT_ALL_AXES
100
AcDbLine
 62
7
  6
CONTINUOUS
 10
264.4909787303
 20
233.3671782763
 11
264.4909787303
 21
223.9671782763
  0
LINE
  5
516
100
AcDbEntity
  8
02___PRT_ALL_AXES
100
AcDbLine
 62
7
  6
CENTER
 10
266.2646250575
 20
179.6671782763
 11
266.2646250575
 21
172.1671782763
  0
LINE
  5
517
100
AcDbEntity
  8
02___PRT_ALL_AXES
100
AcDbLine
 62
7
  6
CENTER
 10
266.2646250575
 20
179.6671782763
 11
266.2646250575
 21
187.1671782763
  0
LINE
  5
518
100
AcDbEntity
  8
0
100
AcDbLine
 62
7
  6
CONTINUOUS
 10
286.4646250575
 20
146.6671782763
 11
296.0646250575
 21
146.6671782763
  0
LINE
  5
519
100
AcDbEntity
  8
0
100
AcDbLine
 62
7
  6
CONTINUOUS
 10
286.2646250575
 20
146.8671782763
 11
296.2646250575
 21
146.8671782763
  0
LINE
  5
51A
100
AcDbEntity
  8
0
100
AcDbLine
 62
7
  6
CONTINUOUS
 10
273.2646250575
 20
194.0671782763
 11
273.2646250575
 21
165.2671782763
  0
LINE
  5
51B
100
AcDbEntity
  8
0
100
AcDbLine
 62
7
  6
CONTINUOUS
 10
285.4646250575
 20
154.1671782763
 11
297.0646250575
 21
154.1671782763
  0
LINE
  5
51C
100
AcDbEntity
  8
0
100
AcDbLine
 62
7
  6
CONTINUOUS
 10
285.2646250575
 20
154.3671782763
 11
297.2646250575
 21
154.3671782763
  0
LINE
  5
51D
100
AcDbEntity
  8
0
100
AcDbLine
 62
7
  6
CONTINUOUS
 10
273.8646250575
 20
194.0671782763
 11
273.8646250575
 21
165.2671782763
  0
LINE
  5
51E
100
AcDbEntity
  8
0
100
AcDbLine
 62
7
  6
CONTINUOUS
 10
297.0646250574
 20
163.6671782764
 11
297.2646250574
 21
163.4671782764
  0
LINE
  5
51F
100
AcDbEntity
  8
02___PRT_ALL_AXES
100
AcDbLine
 62
7
  6
CONTINUOUS
 10
289.2646250575
 20
141.6671782763
 11
288.7646250575
 21
143.6671782763
  0
LINE
  5
520
100
AcDbEntity
  8
0
100
AcDbLine
 62
7
  6
CONTINUOUS
 10
291.4016910283
 20
223.8482142011
 11
306.3273375206
 21
233.1747932516
  0
LINE
  5
521
100
AcDbEntity
  8
0
100
AcDbLine
 62
7
  6
CONTINUOUS
 10
285.2646250575
 20
163.4671782763
 11
297.2646250575
 21
163.4671782763
  0
LINE
  5
522
100
AcDbEntity
  8
0
100
AcDbLine
 62
7
  6
CONTINUOUS
 10
285.4646250575
 20
163.6671782763
 11
297.0646250575
 21
163.6671782763
  0
LINE
  5
523
100
AcDbEntity
  8
02___PRT_ALL_AXES
100
AcDbLine
 62
7
  6
CONTINUOUS
 10
323.2646250575
 20
164.6671782763
 11
308.6646250575
 21
164.6671782763
  0
LINE
  5
524
100
AcDbEntity
  8
02___PRT_ALL_AXES
100
AcDbLine
 62
7
  6
CONTINUOUS
 10
273.8646250575
 20
164.6671782763
 11
259.2646250575
 21
164.6671782763
  0
LINE
  5
525
100
AcDbEntity
  8
0
100
AcDbLine
 62
7
  6
CONTINUOUS
 10
273.8646250575
 20
164.6671782763
 11
308.6646250575
 21
164.6671782763
  0
LINE
  5
526
100
AcDbEntity
  8
0
100
AcDbLine
 62
7
  6
CONTINUOUS
 10
273.8646250575
 20
165.2671782763
 11
308.6646250575
 21
165.2671782763
  0
LINE
  5
527
100
AcDbEntity
  8
0
100
AcDbLine
 62
7
  6
CONTINUOUS
 10
273.8646250575
 20
194.0671782763
 11
273.5646250575
 21
194.3671782763
  0
LINE
  5
528
100
AcDbEntity
  8
02___PRT_ALL_AXES
100
AcDbLine
 62
7
  6
CONTINUOUS
 10
285.2646250575
 20
154.3671782763
 11
285.2646250575
 21
163.4671782763
  0
LINE
  5
529
100
AcDbEntity
  8
0
100
AcDbLine
 62
7
  6
CONTINUOUS
 10
285.2646250575
 20
154.3671782763
 11
285.2646250575
 21
163.4671782763
  0
LINE
  5
52A
100
AcDbEntity
  8
02___PRT_ALL_AXES
100
AcDbLine
 62
7
  6
CONTINUOUS
 10
286.2646250575
 20
146.8671782763
 11
286.2646250575
 21
154.1671782763
  0
LINE
  5
52B
100
AcDbEntity
  8
0
100
AcDbLine
 62
7
  6
CONTINUOUS
 10
286.2646250575
 20
146.8671782763
 11
286.2646250575
 21
154.1671782763
  0
LINE
  5
52C
100
AcDbEntity
  8
0
100
AcDbLine
 62
7
  6
CONTINUOUS
 10
286.2646250575
 20
163.6671782763
 11
286.2646250575
 21
164.6671782763
  0
LINE
  5
52D
100
AcDbEntity
  8
0
100
AcDbLine
 62
7
  6
CONTINUOUS
 10
286.2646250575
 20
194.6671782763
 11
286.2646250575
 21
208.6671782763
  0
LINE
  5
52E
100
AcDbEntity
  8
02___PRT_ALL_AXES
100
AcDbLine
 62
7
  6
CONTINUOUS
 10
288.9646250575
 20
143.6671782763
 11
288.9646250575
 21
146.6671782763
  0
LINE
  5
52F
100
AcDbEntity
  8
0
100
AcDbLine
 62
7
  6
CONTINUOUS
 10
308.9646250575
 20
164.9671782763
 11
308.6646250575
 21
165.2671782763
  0
LINE
  5
530
100
AcDbEntity
  8
02___PRT_ALL_AXES
100
AcDbLine
 62
7
  6
CENTER
 10
291.2646250575
 20
213.6671782763
 11
291.2646250575
 21
151.6671782763
  0
LINE
  5
531
100
AcDbEntity
  8
02___PRT_ALL_AXES
100
AcDbLine
 62
7
  6
CONTINUOUS
 10
293.5646250575
 20
143.6671782763
 11
293.5646250575
 21
146.6671782763
  0
LINE
  5
532
100
AcDbEntity
  8
0
100
AcDbLine
 62
7
  6
CONTINUOUS
 10
273.2646250575
 20
194.0671782763
 11
273.8646250575
 21
194.6671782763
  0
LINE
  5
533
100
AcDbEntity
  8
0
100
AcDbLine
 62
7
  6
CONTINUOUS
 10
325.2646250575
 20
246.0671782763
 11
325.8646250575
 21
246.6671782763
  0
LINE
  5
534
100
AcDbEntity
  8
02___PRT_ALL_AXES
100
AcDbLine
 62
7
  6
CONTINUOUS
 10
296.2646250575
 20
146.8671782763
 11
296.2646250575
 21
154.1671782763
  0
LINE
  5
535
100
AcDbEntity
  8
0
100
AcDbLine
 62
7
  6
CONTINUOUS
 10
296.2646250575
 20
146.8671782763
 11
296.2646250575
 21
154.1671782763
  0
LINE
  5
536
100
AcDbEntity
  8
0
100
AcDbLine
 62
7
  6
CONTINUOUS
 10
296.2646250575
 20
163.6671782763
 11
296.2646250575
 21
164.6671782763
  0
LINE
  5
537
100
AcDbEntity
  8
0
100
AcDbLine
 62
7
  6
CONTINUOUS
 10
296.2646250575
 20
194.6671782763
 11
296.2646250575
 21
208.6671782763
  0
LINE
  5
538
100
AcDbEntity
  8
02___PRT_ALL_AXES
100
AcDbLine
 62
7
  6
CONTINUOUS
 10
297.2646250575
 20
154.3671782763
 11
297.2646250575
 21
163.4671782763
  0
LINE
  5
539
100
AcDbEntity
  8
0
100
AcDbLine
 62
7
  6
CONTINUOUS
 10
297.2646250575
 20
154.3671782763
 11
297.2646250575
 21
163.4671782763
  0
LINE
  5
53A
100
AcDbEntity
  8
02___PRT_ALL_AXES
100
AcDbLine
 62
7
  6
CENTER
 10
316.2646250575
 20
179.6671782763
 11
308.7646250575
 21
179.6671782763
  0
LINE
  5
53B
100
AcDbEntity
  8
02___PRT_ALL_AXES
100
AcDbLine
 62
7
  6
CENTER
 10
266.2646250575
 20
179.6671782763
 11
258.7646250575
 21
179.6671782763
  0
LINE
  5
53C
100
AcDbEntity
  8
02___PRT_ALL_AXES
100
AcDbLine
 62
7
  6
CENTER
 10
266.2646250575
 20
179.6671782763
 11
273.7646250575
 21
179.6671782763
  0
LINE
  5
53D
100
AcDbEntity
  8
02___PRT_ALL_AXES
100
AcDbLine
 62
7
  6
CENTER
 10
316.2646250575
 20
179.6671782763
 11
323.7646250575
 21
179.6671782763
  0
LINE
  5
53E
100
AcDbEntity
  8
0
100
AcDbLine
 62
7
  6
CONTINUOUS
 10
308.6646250575
 20
194.6671782763
 11
309.2646250575
 21
194.0671782763
  0
LINE
  5
53F
100
AcDbEntity
  8
0
100
AcDbLine
 62
7
  6
CONTINUOUS
 10
308.6646250575
 20
165.2671782763
 11
308.6646250575
 21
194.0671782763
  0
LINE
  5
540
100
AcDbEntity
  8
0
100
AcDbLine
 62
7
  6
CONTINUOUS
 10
309.2646250575
 20
165.2671782763
 11
309.2646250575
 21
194.0671782763
  0
LINE
  5
541
100
AcDbEntity
  8
0
100
AcDbLine
 62
7
  6
CONTINUOUS
 10
311.2646250575
 20
233.6671782763
 11
311.2646250575
 21
223.6671782763
  0
LINE
  5
542
100
AcDbEntity
  8
02___PRT_ALL_AXES
100
AcDbLine
 62
7
  6
CONTINUOUS
 10
293.2646250575
 20
141.6671782763
 11
293.7646250575
 21
143.6671782763
  0
LINE
  5
543
100
AcDbEntity
  8
0
100
AcDbLine
 62
7
  6
CONTINUOUS
 10
273.8646250575
 20
165.2671782763
 11
273.5646250575
 21
164.9671782763
  0
LINE
  5
544
100
AcDbEntity
  8
0
100
AcDbLine
 62
7
  6
CONTINUOUS
 10
354.6646250575
 20
246.0671782763
 11
354.9646250575
 21
246.3671782763
  0
LINE
  5
545
100
AcDbEntity
  8
0
100
AcDbLine
 62
7
  6
CONTINUOUS
 10
308.6646250575
 20
194.0671782763
 11
273.8646250575
 21
194.0671782763
  0
LINE
  5
546
100
AcDbEntity
  8
0
100
AcDbLine
 62
7
  6
CONTINUOUS
 10
308.6646250575
 20
194.6671782763
 11
273.8646250575
 21
194.6671782763
  0
LINE
  5
547
100
AcDbEntity
  8
02___PRT_ALL_AXES
100
AcDbLine
 62
7
  6
CONTINUOUS
 10
259.2646250575
 20
194.6671782763
 11
273.8646250575
 21
194.6671782763
  0
LINE
  5
548
100
AcDbEntity
  8
02___PRT_ALL_AXES
100
AcDbLine
 62
7
  6
CONTINUOUS
 10
308.6646250575
 20
194.6671782763
 11
323.2646250575
 21
194.6671782763
  0
LINE
  5
549
100
AcDbEntity
  8
02___PRT_ALL_AXES
100
AcDbLine
 62
7
  6
CENTER
 10
316.2646250575
 20
179.6671782763
 11
316.2646250575
 21
172.1671782763
  0
LINE
  5
54A
100
AcDbEntity
  8
02___PRT_ALL_AXES
100
AcDbLine
 62
7
  6
CENTER
 10
316.2646250575
 20
179.6671782763
 11
316.2646250575
 21
187.1671782763
  0
LINE
  5
54B
100
AcDbEntity
  8
0
100
AcDbLine
 62
7
  6
CONTINUOUS
 10
308.6646250575
 20
194.0671782763
 11
308.9646250575
 21
194.3671782763
  0
LINE
  5
54C
100
AcDbEntity
  8
0
100
AcDbLine
 62
7
  6
CONTINUOUS
 10
325.5646250575
 20
210.9671782763
 11
325.8646250575
 21
211.2671782763
  0
LINE
  5
54D
100
AcDbEntity
  8
02___PRT_ALL_AXES
100
AcDbLine
 62
7
  6
CONTINUOUS
 10
355.2646250575
 20
196.6671782763
 11
325.2646250575
 21
196.6671782763
  0
LINE
  5
54E
100
AcDbEntity
  8
02___PRT_ALL_AXES
100
AcDbLine
 62
7
  6
CONTINUOUS
 10
323.2646250575
 20
194.6671782763
 11
323.2646250575
 21
164.6671782763
  0
LINE
  5
54F
100
AcDbEntity
  8
0
100
AcDbLine
 62
7
  6
CONTINUOUS
 10
356.2646250574
 20
235.3171782761
 11
356.4646250574
 21
235.5171782761
  0
LINE
  5
550
100
AcDbEntity
  8
0
100
AcDbLine
 62
7
  6
CONTINUOUS
 10
285.4646250576
 20
163.6671782764
 11
285.2646250576
 21
163.4671782764
  0
LINE
  5
551
100
AcDbEntity
  8
02___PRT_ALL_AXES
100
AcDbLine
 62
7
  6
CENTER
 10
340.2646250575
 20
203.6671782763
 11
332.7646250575
 21
203.6671782763
  0
LINE
  5
552
100
AcDbEntity
  8
02___PRT_ALL_AXES
100
AcDbLine
 62
7
  6
CENTER
 10
340.2646250575
 20
203.6671782763
 11
347.7646250575
 21
203.6671782763
  0
LINE
  5
553
100
AcDbEntity
  8
0
100
AcDbLine
 62
7
  6
CONTINUOUS
 10
325.2646250575
 20
246.0671782763
 11
325.2646250575
 21
211.2671782763
  0
LINE
  5
554
100
AcDbEntity
  8
02___PRT_ALL_AXES
100
AcDbLine
 62
7
  6
CONTINUOUS
 10
325.2646250575
 20
196.6671782763
 11
325.2646250575
 21
211.2671782763
  0
LINE
  5
555
100
AcDbEntity
  8
02___PRT_ALL_AXES
100
AcDbLine
 62
7
  6
CONTINUOUS
 10
325.2646250575
 20
246.0671782763
 11
325.2646250575
 21
260.6671782763
  0
LINE
  5
556
100
AcDbEntity
  8
0
100
AcDbLine
 62
7
  6
CONTINUOUS
 10
325.8646250575
 20
246.0671782763
 11
325.8646250575
 21
211.2671782763
  0
LINE
  5
557
100
AcDbEntity
  8
02___PRT_ALL_AXES
100
AcDbLine
 62
7
  6
CONTINUOUS
 10
378.2646250575
 20
225.6671782763
 11
376.2646250575
 21
225.1671782763
  0
LINE
  5
558
100
AcDbEntity
  8
0
100
AcDbLine
 62
7
  6
CONTINUOUS
 10
286.2646250575
 20
208.6671782763
 11
296.2646250575
 21
208.6671782763
  0
LINE
  5
559
100
AcDbEntity
  8
0
100
AcDbLine
 62
7
  6
CONTINUOUS
 10
325.8646250575
 20
210.6671782763
 11
354.6646250575
 21
210.6671782763
  0
LINE
  5
55A
100
AcDbEntity
  8
0
100
AcDbLine
 62
7
  6
CONTINUOUS
 10
325.8646250575
 20
211.2671782763
 11
354.6646250575
 21
211.2671782763
  0
LINE
  5
55B
100
AcDbEntity
  8
0
100
AcDbLine
 62
7
  6
CONTINUOUS
 10
325.2646250575
 20
211.2671782763
 11
325.8646250575
 21
210.6671782763
  0
LINE
  5
55C
100
AcDbEntity
  8
02___PRT_ALL_AXES
100
AcDbLine
 62
7
  6
CENTER
 10
340.2646250575
 20
253.6671782763
 11
340.2646250575
 21
246.1671782763
  0
LINE
  5
55D
100
AcDbEntity
  8
02___PRT_ALL_AXES
100
AcDbLine
 62
7
  6
CENTER
 10
340.2646250575
 20
203.6671782763
 11
340.2646250575
 21
196.1671782763
  0
LINE
  5
55E
100
AcDbEntity
  8
02___PRT_ALL_AXES
100
AcDbLine
 62
7
  6
CENTER
 10
340.2646250575
 20
203.6671782763
 11
340.2646250575
 21
211.1671782763
  0
LINE
  5
55F
100
AcDbEntity
  8
02___PRT_ALL_AXES
100
AcDbLine
 62
7
  6
CENTER
 10
340.2646250575
 20
253.6671782763
 11
340.2646250575
 21
261.1671782763
  0
LINE
  5
560
100
AcDbEntity
  8
0
100
AcDbLine
 62
7
  6
CONTINUOUS
 10
297.0646250575
 20
154.1671782762
 11
297.2646250574
 21
154.3671782762
  0
LINE
  5
561
100
AcDbEntity
  8
0
100
AcDbLine
 62
7
  6
CONTINUOUS
 10
355.2646250575
 20
211.2671782763
 11
354.6646250575
 21
210.6671782763
  0
LINE
  5
562
100
AcDbEntity
  8
0
100
AcDbLine
 62
7
  6
CONTINUOUS
 10
308.6646250575
 20
164.6671782763
 11
309.2646250575
 21
165.2671782763
  0
LINE
  5
563
100
AcDbEntity
  8
0
100
AcDbLine
 62
7
  6
CONTINUOUS
 10
366.7646250576
 20
222.0171782764
 11
366.5646250576
 21
221.8171782764
  0
LINE
  5
564
100
AcDbEntity
  8
0
100
AcDbLine
 62
7
  6
CONTINUOUS
 10
296.0646250574
 20
146.6671782762
 11
296.2646250574
 21
146.8671782762
  0
LINE
  5
565
100
AcDbEntity
  8
02___PRT_ALL_AXES
100
AcDbLine
 62
7
  6
CONTINUOUS
 10
366.5646250575
 20
221.8171782763
 11
356.4646250575
 21
221.8171782763
  0
LINE
  5
566
100
AcDbEntity
  8
0
100
AcDbLine
 62
7
  6
CONTINUOUS
 10
366.5646250575
 20
221.8171782763
 11
356.4646250575
 21
221.8171782763
  0
LINE
  5
567
100
AcDbEntity
  8
02___PRT_ALL_AXES
100
AcDbLine
 62
7
  6
CONTINUOUS
 10
373.0646250575
 20
222.6671782763
 11
366.7646250575
 21
222.6671782763
  0
LINE
  5
568
100
AcDbEntity
  8
0
100
AcDbLine
 62
7
  6
CONTINUOUS
 10
373.0646250575
 20
222.6671782763
 11
366.7646250575
 21
222.6671782763
  0
LINE
  5
569
100
AcDbEntity
  8
0
100
AcDbLine
 62
7
  6
CONTINUOUS
 10
311.2646250575
 20
223.6671782763
 11
325.2646250575
 21
223.6671782763
  0
LINE
  5
56A
100
AcDbEntity
  8
0
100
AcDbLine
 62
7
  6
CONTINUOUS
 10
355.2646250575
 20
223.6671782763
 11
356.2646250575
 21
223.6671782763
  0
LINE
  5
56B
100
AcDbEntity
  8
02___PRT_ALL_AXES
100
AcDbLine
 62
7
  6
CONTINUOUS
 10
264.4909787303
 20
223.9671782763
 11
257.4909787303
 21
223.9671782763
  0
LINE
  5
56C
100
AcDbEntity
  8
0
100
AcDbLine
 62
7
  6
CONTINUOUS
 10
373.2646250576
 20
222.8671782764
 11
373.0646250576
 21
222.6671782764
  0
LINE
  5
56D
100
AcDbEntity
  8
02___PRT_ALL_AXES
100
AcDbLine
 62
7
  6
CONTINUOUS
 10
292.7363125338
 20
224.6821782763
 11
264.4909787303
 21
224.6821782763
  0
LINE
  5
56E
100
AcDbEntity
  8
0
100
AcDbLine
 62
7
  6
CONTINUOUS
 10
292.7363125338
 20
224.6821782763
 11
264.4909787303
 21
224.6821782763
  0
LINE
  5
56F
100
AcDbEntity
  8
02___PRT_ALL_AXES
100
AcDbLine
 62
7
  6
CONTINUOUS
 10
376.2646250575
 20
225.4171782763
 11
373.2646250575
 21
225.4171782763
  0
LINE
  5
570
100
AcDbEntity
  8
02___PRT_ALL_AXES
100
AcDbLine
 62
7
  6
CENTER
 10
368.2646250575
 20
228.6671782763
 11
252.0788251922
 21
228.6671782763
  0
LINE
  5
571
100
AcDbEntity
  8
02___PRT_ALL_AXES
100
AcDbLine
 62
7
  6
CONTINUOUS
 10
376.2646250575
 20
231.9171782763
 11
373.2646250575
 21
231.9171782763
  0
LINE
  5
572
100
AcDbEntity
  8
02___PRT_ALL_AXES
100
AcDbLine
 62
7
  6
CONTINUOUS
 10
305.4909787303
 20
232.6521782763
 11
264.4909787303
 21
232.6521782763
  0
LINE
  5
573
100
AcDbEntity
  8
0
100
AcDbLine
 62
7
  6
CONTINUOUS
 10
305.4909787303
 20
232.6521782763
 11
264.4909787303
 21
232.6521782763
  0
LINE
  5
574
100
AcDbEntity
  8
02___PRT_ALL_AXES
100
AcDbLine
 62
7
  6
CONTINUOUS
 10
264.4909787303
 20
233.3671782763
 11
257.4909787303
 21
233.3671782763
  0
LINE
  5
575
100
AcDbEntity
  8
0
100
AcDbLine
 62
7
  6
CONTINUOUS
 10
311.2646250575
 20
233.6671782763
 11
325.2646250575
 21
233.6671782763
  0
LINE
  5
576
100
AcDbEntity
  8
0
100
AcDbLine
 62
7
  6
CONTINUOUS
 10
355.2646250575
 20
233.6671782763
 11
356.2646250575
 21
233.6671782763
  0
LINE
  5
577
100
AcDbEntity
  8
02___PRT_ALL_AXES
100
AcDbLine
 62
7
  6
CONTINUOUS
 10
373.0646250575
 20
234.6671782763
 11
366.7646250575
 21
234.6671782763
  0
LINE
  5
578
100
AcDbEntity
  8
0
100
AcDbLine
 62
7
  6
CONTINUOUS
 10
373.0646250575
 20
234.6671782763
 11
366.7646250575
 21
234.6671782763
  0
LINE
  5
579
100
AcDbEntity
  8
02___PRT_ALL_AXES
100
AcDbLine
 62
7
  6
CONTINUOUS
 10
366.5646250575
 20
235.5171782763
 11
356.4646250575
 21
235.5171782763
  0
LINE
  5
57A
100
AcDbEntity
  8
0
100
AcDbLine
 62
7
  6
CONTINUOUS
 10
366.5646250575
 20
235.5171782763
 11
356.4646250575
 21
235.5171782763
  0
LINE
  5
57B
100
AcDbEntity
  8
0
100
AcDbLine
 62
7
  6
CONTINUOUS
 10
354.6646250575
 20
211.2671782763
 11
354.9646250575
 21
210.9671782763
  0
LINE
  5
57C
100
AcDbEntity
  8
0
100
AcDbLine
 62
7
  6
CONTINUOUS
 10
354.6646250575
 20
211.2671782763
 11
354.6646250575
 21
246.0671782763
  0
LINE
  5
57D
100
AcDbEntity
  8
02___PRT_ALL_AXES
100
AcDbLine
 62
7
  6
CONTINUOUS
 10
355.2646250575
 20
260.6671782763
 11
355.2646250575
 21
246.0671782763
  0
LINE
  5
57E
100
AcDbEntity
  8
02___PRT_ALL_AXES
100
AcDbLine
 62
7
  6
CONTINUOUS
 10
355.2646250575
 20
211.2671782763
 11
355.2646250575
 21
196.6671782763
  0
LINE
  5
57F
100
AcDbEntity
  8
0
100
AcDbLine
 62
7
  6
CONTINUOUS
 10
355.2646250575
 20
211.2671782763
 11
355.2646250575
 21
246.0671782763
  0
LINE
  5
580
100
AcDbEntity
  8
0
100
AcDbLine
 62
7
  6
CONTINUOUS
 10
356.2646250575
 20
222.0171782763
 11
356.2646250575
 21
235.3171782763
  0
LINE
  5
581
100
AcDbEntity
  8
0
100
AcDbLine
 62
7
  6
CONTINUOUS
 10
356.4646250575
 20
221.8171782763
 11
356.4646250575
 21
235.5171782763
  0
LINE
  5
582
100
AcDbEntity
  8
0
100
AcDbLine
 62
7
  6
CONTINUOUS
 10
325.8646250575
 20
246.0671782763
 11
325.5646250575
 21
246.3671782763
  0
LINE
  5
583
100
AcDbEntity
  8
0
100
AcDbLine
 62
7
  6
CONTINUOUS
 10
354.6646250575
 20
246.0671782763
 11
325.8646250575
 21
246.0671782763
  0
LINE
  5
584
100
AcDbEntity
  8
0
100
AcDbLine
 62
7
  6
CONTINUOUS
 10
354.6646250575
 20
246.6671782763
 11
325.8646250575
 21
246.6671782763
  0
LINE
  5
585
100
AcDbEntity
  8
02___PRT_ALL_AXES
100
AcDbLine
 62
7
  6
CONTINUOUS
 10
378.2646250575
 20
231.6671782763
 11
376.2646250575
 21
232.1671782763
  0
LINE
  5
586
100
AcDbEntity
  8
0
100
AcDbLine
 62
7
  6
CONTINUOUS
 10
356.2646250574
 20
222.0171782764
 11
356.4646250574
 21
221.8171782764
  0
LINE
  5
587
100
AcDbEntity
  8
0
100
AcDbLine
 62
7
  6
CONTINUOUS
 10
366.5646250575
 20
221.8171782763
 11
366.5646250575
 21
235.5171782763
  0
LINE
  5
588
100
AcDbEntity
  8
0
100
AcDbLine
 62
7
  6
CONTINUOUS
 10
366.7646250575
 20
222.0171782763
 11
366.7646250575
 21
235.3171782763
  0
LINE
  5
589
100
AcDbEntity
  8
0
100
AcDbLine
 62
7
  6
CONTINUOUS
 10
373.0646250575
 20
222.6671782763
 11
373.0646250575
 21
234.6671782763
  0
LINE
  5
58A
100
AcDbEntity
  8
0
100
AcDbLine
 62
7
  6
CONTINUOUS
 10
373.2646250575
 20
222.8671782763
 11
373.2646250575
 21
234.4671782763
  0
LINE
  5
58B
100
AcDbEntity
  8
02___PRT_ALL_AXES
100
AcDbLine
 62
7
  6
CENTER
 10
340.2646250575
 20
253.6671782763
 11
332.7646250575
 21
253.6671782763
  0
LINE
  5
58C
100
AcDbEntity
  8
02___PRT_ALL_AXES
100
AcDbLine
 62
7
  6
CENTER
 10
340.2646250575
 20
253.6671782763
 11
347.7646250575
 21
253.6671782763
  0
LINE
  5
58D
100
AcDbEntity
  8
02___PRT_ALL_AXES
100
AcDbLine
 62
7
  6
CONTINUOUS
 10
376.2646250575
 20
232.1671782763
 11
376.2646250575
 21
225.1671782763
  0
LINE
  5
58E
100
AcDbEntity
  8
02___PRT_ALL_AXES
100
AcDbLine
 62
7
  6
CONTINUOUS
 10
378.2646250575
 20
231.6671782763
 11
378.2646250575
 21
225.6671782763
  0
LINE
  5
58F
100
AcDbEntity
  8
02___PRT_ALL_AXES
100
AcDbLine
 62
7
  6
CONTINUOUS
 10
325.2646250575
 20
260.6671782763
 11
355.2646250575
 21
260.6671782763
  0
LINE
  5
590
100
AcDbEntity
  8
0
100
AcDbLine
 62
7
  6
CONTINUOUS
 10
354.6646250575
 20
246.6671782763
 11
355.2646250575
 21
246.0671782763
  0
LINE
  5
591
100
AcDbEntity
  8
0
100
AcDbLine
 62
7
  6
CONTINUOUS
 10
366.7646250576
 20
235.3171782762
 11
366.5646250576
 21
235.5171782762
  0
LINE
  5
592
100
AcDbEntity
  8
0
100
AcDbLine
 62
7
  6
CONTINUOUS
 10
373.2646250576
 20
234.4671782762
 11
373.0646250576
 21
234.6671782762
  0
ARC
  5
593
100
AcDbEntity
  8
0
100
AcDbCircle
 62
7
  6
CONTINUOUS
 10
277.0042993577
 20
47.9749862815
 40
14.7731437491
100
AcDbArc
 50
237.5332925407
 51
239.439376766
  0
ARC
  5
594
100
AcDbEntity
  8
0
100
AcDbCircle
 62
7
  6
CONTINUOUS
 10
276.6194314833
 20
49.3389400816
 40
11.7213739308
100
AcDbArc
 50
64.1117726781
 51
66.5058560184
  0
ARC
  5
595
100
AcDbEntity
  8
0
100
AcDbCircle
 62
7
  6
CONTINUOUS
 10
294.9905094477
 20
62.9648836422
 40
3.9161090234
100
AcDbArc
 50
0.3492408302
 51
1.2739695035
  0
ARC
  5
596
100
AcDbEntity
  8
0
100
AcDbCircle
 62
7
  6
CONTINUOUS
 10
294.6797441023
 20
63.6577469375
 40
3.9118529123
100
AcDbArc
 50
47.6407397671
 51
48.5449908214
  0
ARC
  5
597
100
AcDbEntity
  8
0
100
AcDbCircle
 62
7
  6
CONTINUOUS
 10
297.1725532903
 20
64.72468962
 40
3.4595008714
100
AcDbArc
 50
47.4980757238
 51
47.7743373476
  0
ARC
  5
598
100
AcDbEntity
  8
0
100
AcDbCircle
 62
7
  6
CONTINUOUS
 10
297.4594556049
 20
64.1421195829
 40
3.4376182085
100
AcDbArc
 50
0.3522736795
 51
1.3866591565
  0
ARC
  5
599
100
AcDbEntity
  8
0
100
AcDbCircle
 62
7
  6
CONTINUOUS
 10
297.1995754337
 20
64.7545452965
 40
3.4192323398
100
AcDbArc
 50
47.773422741
 51
48.547285158
  0
ARC
  5
59A
100
AcDbEntity
  8
0
100
AcDbCircle
 62
7
  6
CONTINUOUS
 10
271.9574698737
 20
19.8627388349
 40
3.3044698657
100
AcDbArc
 50
253.555642688
 51
255.0721325738
  0
ARC
  5
59B
100
AcDbEntity
  8
0
100
AcDbCircle
 62
7
  6
CONTINUOUS
 10
271.9136611968
 20
19.3895618129
 40
2.8737261044
100
AcDbArc
 50
251.594256405
 51
253.5769833427
  0
ARC
  5
59C
100
AcDbEntity
  8
0
100
AcDbCircle
 62
7
  6
CONTINUOUS
 10
272.4838025805
 20
16.0491566881
 40
2.7744159495
100
AcDbArc
 50
253.5582337061
 51
255.3635960553
  0
ARC
  5
59D
100
AcDbEntity
  8
0
100
AcDbCircle
 62
7
  6
CONTINUOUS
 10
280.9371216575
 20
57.3840481612
 40
2.6679701539
100
AcDbArc
 50
49.8584720455
 51
52.6174897148
  0
ARC
  5
59E
100
AcDbEntity
  8
0
100
AcDbCircle
 62
7
  6
CONTINUOUS
 10
281.2630926789
 20
56.7324671123
 40
2.637436206
100
AcDbArc
 50
357.1270416925
 51
357.9001723582
  0
ARC
  5
59F
100
AcDbEntity
  8
0
100
AcDbCircle
 62
7
  6
CONTINUOUS
 10
281.313623637
 20
56.7299326244
 40
2.5868417265
100
AcDbArc
 50
356.3057844056
 51
357.1270109349
  0
ARC
  5
5A0
100
AcDbEntity
  8
0
100
AcDbCircle
 62
7
  6
CONTINUOUS
 10
280.9432316378
 20
57.7994659073
 40
2.3467787072
100
AcDbArc
 50
59.9257309132
 51
61.4072543768
  0
ARC
  5
5A1
100
AcDbEntity
  8
0
100
AcDbCircle
 62
7
  6
CONTINUOUS
 10
272.4401455874
 20
15.5772820816
 40
2.344964495
100
AcDbArc
 50
251.1695024909
 51
253.5903148456
  0
ARC
  5
5A2
100
AcDbEntity
  8
0
100
AcDbCircle
 62
7
  6
CONTINUOUS
 10
274.8447103131
 20
14.9682248807
 40
1.3219147988
100
AcDbArc
 50
309.1616338512
 51
309.6617264998
  0
ARC
  5
5A3
100
AcDbEntity
  8
02___PRT_ALL_AXES
100
AcDbCircle
 62
7
  6
CONTINUOUS
 10
257.3069136477
 20
26.4273944159
 40
1.158307659
100
AcDbArc
 50
291.2653399263
 51
294.4601137574
  0
ARC
  5
5A4
100
AcDbEntity
  8
02___PRT_ALL_AXES
100
AcDbCircle
 62
7
  6
CONTINUOUS
 10
299.4795734924
 20
66.4108510589
 40
0.8589306157
100
AcDbArc
 50
86.2670323925
 51
87.3757218547
  0
ARC
  5
5A5
100
AcDbEntity
  8
0
100
AcDbCircle
 62
7
  6
CONTINUOUS
 10
78.3125311489
 20
208.6671782763
 40
25.0
100
AcDbArc
 50
90.0
 51
101.3903070625
  0
ARC
  5
5A6
100
AcDbEntity
  8
0
100
AcDbCircle
 62
7
  6
CONTINUOUS
 10
78.3125311489
 20
208.6671782763
 40
25.0
100
AcDbArc
 50
142.6096929375
 51
180.0
  0
ARC
  5
5A7
100
AcDbEntity
  8
0
100
AcDbCircle
 62
7
  6
CONTINUOUS
 10
78.3125311489
 20
208.6671782763
 40
15.0
100
AcDbArc
 50
90.0
 51
180.0
  0
CIRCLE
  5
5A8
100
AcDbEntity
  8
0
100
AcDbCircle
 62
7
  6
CONTINUOUS
 10
107.3125311489
 20
218.6171782763
 40
6.45
  0
CIRCLE
  5
5A9
100
AcDbEntity
  8
0
100
AcDbCircle
 62
7
  6
CONTINUOUS
 10
107.3125311489
 20
238.7171782763
 40
6.45
  0
CIRCLE
  5
5AA
100
AcDbEntity
  8
0
100
AcDbCircle
 62
7
  6
CONTINUOUS
 10
68.3625311489
 20
179.6671782763
 40
6.45
  0
CIRCLE
  5
5AB
100
AcDbEntity
  8
0
100
AcDbCircle
 62
7
  6
CONTINUOUS
 10
48.2625311489
 20
179.6671782763
 40
6.45
  0
CIRCLE
  5
5AC
100
AcDbEntity
  8
02___PRT_ALL_AXES
100
AcDbCircle
 62
7
  6
CONTINUOUS
 10
107.3125311489
 20
253.6671782763
 40
3.5
  0
CIRCLE
  5
5AD
100
AcDbEntity
  8
02___PRT_ALL_AXES
100
AcDbCircle
 62
7
  6
CONTINUOUS
 10
107.3125311489
 20
203.6671782763
 40
3.5
  0
CIRCLE
  5
5AE
100
AcDbEntity
  8
02___PRT_ALL_AXES
100
AcDbCircle
 62
7
  6
CONTINUOUS
 10
33.3125311489
 20
179.6671782763
 40
3.5
  0
CIRCLE
  5
5AF
100
AcDbEntity
  8
02___PRT_ALL_AXES
100
AcDbCircle
 62
7
  6
CONTINUOUS
 10
83.3125311489
 20
179.6671782763
 40
3.5
  0
CIRCLE
  5
5B0
100
AcDbEntity
  8
0
100
AcDbCircle
 62
7
  6
CONTINUOUS
 10
107.3125311489
 20
218.6171782763
 40
3.3
  0
CIRCLE
  5
5B1
100
AcDbEntity
  8
0
100
AcDbCircle
 62
7
  6
CONTINUOUS
 10
107.3125311489
 20
238.7171782763
 40
3.3
  0
CIRCLE
  5
5B2
100
AcDbEntity
  8
0
100
AcDbCircle
 62
7
  6
CONTINUOUS
 10
68.3625311489
 20
179.6671782763
 40
3.3
  0
CIRCLE
  5
5B3
100
AcDbEntity
  8
0
100
AcDbCircle
 62
7
  6
CONTINUOUS
 10
48.2625311489
 20
179.6671782763
 40
3.3
  0
ARC
  5
5B4
100
AcDbEntity
  8
0
100
AcDbCircle
 62
7
  6
CONTINUOUS
 10
185.5202110983
 20
221.4163803362
 40
16.4695315439
100
AcDbArc
 50
47.9297970341
 51
50.6830516479
  0
ARC
  5
5B5
100
AcDbEntity
  8
0
100
AcDbCircle
 62
7
  6
CONTINUOUS
 10
208.29064355
 20
221.7653335978
 40
16.0094336511
100
AcDbArc
 50
129.2773772746
 51
132.1097740434
  0
ARC
  5
5B6
100
AcDbEntity
  8
0
100
AcDbCircle
 62
7
  6
CONTINUOUS
 10
197.0554668685
 20
228.6671782763
 40
6.85
100
AcDbArc
 50
85.8022308032
 51
94.1977690209
  0
ARC
  5
5B7
100
AcDbEntity
  8
0
100
AcDbCircle
 62
7
  6
CONTINUOUS
 10
197.0554668685
 20
228.6671782763
 40
6.65
100
AcDbArc
 50
85.6640640311
 51
94.3359361502
  0
ARC
  5
5B8
100
AcDbEntity
  8
0
100
AcDbCircle
 62
7
  6
CONTINUOUS
 10
197.0554668684
 20
228.6671782765
 40
5.6000000001
100
AcDbArc
 50
333.5991291357
 51
78.6718111469
  0
ARC
  5
5B9
100
AcDbEntity
  8
0
100
AcDbCircle
 62
7
  6
CONTINUOUS
 10
197.0554668684
 20
228.6671782765
 40
5.5999999999
100
AcDbArc
 50
101.3281888518
 51
206.4008708617
  0
ARC
  5
5BA
100
AcDbEntity
  8
0
100
AcDbCircle
 62
7
  6
CONTINUOUS
 10
197.0554668685
 20
228.6671782763
 40
5.2
100
AcDbArc
 50
84.4560160596
 51
95.5439839106
  0
ARC
  5
5BB
100
AcDbEntity
  8
0
100
AcDbCircle
 62
7
  6
CONTINUOUS
 10
197.0554668685
 20
228.6671782763
 40
5.0
100
AcDbArc
 50
0.0
 51
180.0
  0
CIRCLE
  5
5BC
100
AcDbEntity
  8
02___PRT_ALL_AXES
100
AcDbCircle
 62
7
  6
CONTINUOUS
 10
197.0554668685
 20
228.6671782763
 40
4.7
  0
ARC
  5
5BD
100
AcDbEntity
  8
0
100
AcDbCircle
 62
7
  6
CONTINUOUS
 10
197.054300375
 20
227.1571731315
 40
3.3089591361
100
AcDbArc
 50
241.0408889633
 51
270.0201982411
  0
ARC
  5
5BE
100
AcDbEntity
  8
0
100
AcDbCircle
 62
7
  6
CONTINUOUS
 10
197.056646328
 20
227.1570623941
 40
3.3088484032
100
AcDbArc
 50
269.9795765649
 51
299.1465632561
  0
CIRCLE
  5
5BF
100
AcDbEntity
  8
0
100
AcDbCircle
 62
7
  6
CONTINUOUS
 10
197.0554668685
 20
228.6671782763
 40
3.25
  0
CIRCLE
  5
5C0
100
AcDbEntity
  8
0
100
AcDbCircle
 62
7
  6
CONTINUOUS
 10
197.0554668685
 20
228.6671782763
 40
2.375
  0
CIRCLE
  5
5C1
100
AcDbEntity
  8
02___PRT_ALL_AXES
100
AcDbCircle
 62
7
  6
CONTINUOUS
 10
197.0554668685
 20
228.6671782763
 40
2.35
  0
ARC
  5
5C2
100
AcDbEntity
  8
0
100
AcDbCircle
 62
7
  6
CONTINUOUS
 10
58.3125311487
 20
50.6813481915
 40
5.5999999999
100
AcDbArc
 50
225.5803395553
 51
296.4008708617
  0
ARC
  5
5C3
100
AcDbEntity
  8
0
100
AcDbCircle
 62
7
  6
CONTINUOUS
 10
58.3125311491
 20
50.6813481916
 40
5.5999999999
100
AcDbArc
 50
63.5991289443
 51
134.4196604681
  0
ARC
  5
5C4
100
AcDbEntity
  8
0
100
AcDbCircle
 62
7
  6
CONTINUOUS
 10
58.3125311489
 20
50.6813481915
 40
5.0
100
AcDbArc
 50
90.0
 51
126.9344630116
  0
ARC
  5
5C5
100
AcDbEntity
  8
0
100
AcDbCircle
 62
7
  6
CONTINUOUS
 10
58.3125311489
 20
50.6813481915
 40
5.0
100
AcDbArc
 50
233.0655369884
 51
270.0
  0
ARC
  5
5C6
100
AcDbEntity
  8
0
100
AcDbCircle
 62
7
  6
CONTINUOUS
 10
311.2646250575
 20
208.6671782763
 40
25.0
100
AcDbArc
 50
90.0
 51
101.3903070625
  0
ARC
  5
5C7
100
AcDbEntity
  8
0
100
AcDbCircle
 62
7
  6
CONTINUOUS
 10
311.2646250575
 20
208.6671782763
 40
25.0
100
AcDbArc
 50
142.6096929375
 51
180.0
  0
ARC
  5
5C8
100
AcDbEntity
  8
0
100
AcDbCircle
 62
7
  6
CONTINUOUS
 10
311.2646250575
 20
208.6671782763
 40
15.0
100
AcDbArc
 50
90.0
 51
180.0
  0
CIRCLE
  5
5C9
100
AcDbEntity
  8
0
100
AcDbCircle
 62
7
  6
CONTINUOUS
 10
340.2646250575
 20
218.6171782763
 40
6.45
  0
CIRCLE
  5
5CA
100
AcDbEntity
  8
0
100
AcDbCircle
 62
7
  6
CONTINUOUS
 10
340.2646250575
 20
238.7171782763
 40
6.45
  0
CIRCLE
  5
5CB
100
AcDbEntity
  8
0
100
AcDbCircle
 62
7
  6
CONTINUOUS
 10
301.3146250575
 20
179.6671782763
 40
6.45
  0
CIRCLE
  5
5CC
100
AcDbEntity
  8
0
100
AcDbCircle
 62
7
  6
CONTINUOUS
 10
281.2146250575
 20
179.6671782763
 40
6.45
  0
CIRCLE
  5
5CD
100
AcDbEntity
  8
02___PRT_ALL_AXES
100
AcDbCircle
 62
7
  6
CONTINUOUS
 10
266.2646250575
 20
179.6671782763
 40
3.5
  0
CIRCLE
  5
5CE
100
AcDbEntity
  8
02___PRT_ALL_AXES
100
AcDbCircle
 62
7
  6
CONTINUOUS
 10
316.2646250575
 20
179.6671782763
 40
3.5
  0
CIRCLE
  5
5CF
100
AcDbEntity
  8
02___PRT_ALL_AXES
100
AcDbCircle
 62
7
  6
CONTINUOUS
 10
340.2646250575
 20
253.6671782763
 40
3.5
  0
CIRCLE
  5
5D0
100
AcDbEntity
  8
02___PRT_ALL_AXES
100
AcDbCircle
 62
7
  6
CONTINUOUS
 10
340.2646250575
 20
203.6671782763
 40
3.5
  0
CIRCLE
  5
5D1
100
AcDbEntity
  8
0
100
AcDbCircle
 62
7
  6
CONTINUOUS
 10
340.2646250575
 20
218.6171782763
 40
3.3
  0
CIRCLE
  5
5D2
100
AcDbEntity
  8
0
100
AcDbCircle
 62
7
  6
CONTINUOUS
 10
340.2646250575
 20
238.7171782763
 40
3.3
  0
CIRCLE
  5
5D3
100
AcDbEntity
  8
0
100
AcDbCircle
 62
7
  6
CONTINUOUS
 10
301.3146250575
 20
179.6671782763
 40
3.3
  0
CIRCLE
  5
5D4
100
AcDbEntity
  8
0
100
AcDbCircle
 62
7
  6
CONTINUOUS
 10
281.2146250575
 20
179.6671782763
 40
3.3
  0
SPLINE
  5
5D5
100
AcDbEntity
  8
0
100
AcDbSpline
 62
7
  6
CONTINUOUS
 70
0
 71
3
 72
11
 73
7
 74
0
 42
0.0000001
 43
0.0000001
 44
0.0000000001
 40
0.0
 40
0.0
 40
0.0
 40
0.0
 40
0.2898792266
 40
0.54766442
 40
0.7806909517
 40
1.0
 40
1.0
 40
1.0
 40
1.0
 10
275.7764721357
 20
14.0313814737
 30
0.0
 10
275.8062230895
 20
14.0618823129
 30
0.0
 10
275.8588568331
 20
14.1232688739
 30
0.0
 10
275.9176865312
 20
14.2226347334
 30
0.0
 10
275.9502847715
 20
14.3228247486
 30
0.0
 10
275.9536015518
 20
14.3902241183
 30
0.0
 10
275.9505988768
 20
14.422318994
 30
0.0
  0
SPLINE
  5
5D6
100
AcDbEntity
  8
02___PRT_ALL_AXES
100
AcDbSpline
 62
7
  6
CONTINUOUS
 70
0
 71
3
 72
11
 73
7
 74
0
 42
0.0000001
 43
0.0000001
 44
0.0000000001
 40
0.0
 40
0.0
 40
0.0
 40
0.0
 40
0.2906100524
 40
0.5441012614
 40
0.7740811079
 40
1.0
 40
1.0
 40
1.0
 40
1.0
 10
272.4349081848
 20
12.7825895803
 30
0.0
 10
272.4179335644
 20
12.7643994206
 30
0.0
 10
272.3887030937
 20
12.7276935781
 30
0.0
 10
272.3599128925
 20
12.6671663158
 30
0.0
 10
272.3509617188
 20
12.6060292683
 30
0.0
 10
272.3589362921
 20
12.5669329018
 30
0.0
 10
272.3657084056
 20
12.5488155355
 30
0.0
  0
SPLINE
  5
5D7
100
AcDbEntity
  8
02___PRT_ALL_AXES
100
AcDbSpline
 62
7
  6
CONTINUOUS
 70
0
 71
3
 72
11
 73
7
 74
0
 42
0.0000001
 43
0.0000001
 44
0.0000000001
 40
0.0
 40
0.0
 40
0.0
 40
0.0
 40
0.2904287375
 40
0.5439259168
 40
0.7739804276
 40
1.0
 40
1.0
 40
1.0
 40
1.0
 10
274.7314830347
 20
12.9968210583
 30
0.0
 10
274.7514462717
 20
12.982117102
 30
0.0
 10
274.7868059625
 20
12.9515009808
 30
0.0
 10
274.826149957
 20
12.8974845934
 30
0.0
 10
274.8461611462
 20
12.8392003855
 30
0.0
 10
274.8455904884
 20
12.7994058976
 30
0.0
 10
274.8423059438
 20
12.7803922239
 30
0.0
  0
SPLINE
  5
5D8
100
AcDbEntity
  8
0
100
AcDbSpline
 62
7
  6
CONTINUOUS
 70
0
 71
3
 72
9
 73
5
 74
0
 42
0.0000001
 43
0.0000001
 44
0.0000000001
 40
0.0
 40
0.0
 40
0.0
 40
0.0
 40
0.4642546984
 40
1.0
 40
1.0
 40
1.0
 40
1.0
 10
271.3143795342
 20
13.5360337895
 30
0.0
 10
271.3664158645
 20
13.4995521923
 30
0.0
 10
271.4863212934
 20
13.4320708881
 30
0.0
 10
271.6138567514
 20
13.3815140094
 30
0.0
 10
271.6832624904
 20
13.3578257382
 30
0.0
  0
SPLINE
  5
5D9
100
AcDbEntity
  8
0
100
AcDbSpline
 62
7
  6
CONTINUOUS
 70
0
 71
3
 72
17
 73
13
 74
0
 42
0.0000001
 43
0.0000001
 44
0.0000000001
 40
0.0
 40
0.0
 40
0.0
 40
0.0
 40
0.1163641806
 40
0.2489529088
 40
0.3913318845
 40
0.5361351867
 40
0.6757856311
 40
0.8031664326
 40
0.8603771109
 40
0.9124606752
 40
0.9590419064
 40
1.0
 40
1.0
 40
1.0
 40
1.0
 10
271.7776846448
 20
13.3278368206
 30
0.0
 10
271.9297205754
 20
13.2829445615
 30
0.0
 10
272.263639813
 20
13.2160344137
 30
0.0
 10
272.7959042083
 20
13.1736570161
 30
0.0
 10
273.3685399988
 20
13.1844922924
 30
0.0
 10
273.9473421216
 20
13.2480965804
 30
0.0
 10
274.4977892188
 20
13.3606801478
 30
0.0
 10
274.9202188618
 20
13.4937931934
 30
0.0
 10
275.2163553121
 20
13.6219837034
 30
0.0
 10
275.4041062081
 20
13.7218165528
 30
0.0
 10
275.5628090241
 20
13.8272561503
 30
0.0
 10
275.6535774355
 20
13.9053819868
 30
0.0
 10
275.6925368317
 20
13.945326744
 30
0.0
  0
SPLINE
  5
5DA
100
AcDbEntity
  8
0
100
AcDbSpline
 62
7
  6
CONTINUOUS
 70
0
 71
3
 72
11
 73
7
 74
0
 42
0.0000001
 43
0.0000001
 44
0.0000000001
 40
0.0
 40
0.0
 40
0.0
 40
0.0
 40
0.2898804466
 40
0.5476605278
 40
0.7806901435
 40
1.0
 40
1.0
 40
1.0
 40
1.0
 10
275.9155599383
 20
17.4652646749
 30
0.0
 10
275.951259089
 20
17.5018678268
 30
0.0
 10
276.0144247224
 20
17.5755268696
 30
0.0
 10
276.0850087154
 20
17.6947715823
 30
0.0
 10
276.1241379713
 20
17.814995842
 30
0.0
 10
276.1281119288
 20
17.8958758533
 30
0.0
 10
276.1245122793
 20
17.9343901257
 30
0.0
  0
SPLINE
  5
5DB
100
AcDbEntity
  8
0
100
AcDbSpline
 62
7
  6
CONTINUOUS
 70
0
 71
3
 72
9
 73
5
 74
0
 42
0.0000001
 43
0.0000001
 44
0.0000000001
 40
0.0
 40
0.0
 40
0.0
 40
0.0
 40
0.4631879868
 40
1.0
 40
1.0
 40
1.0
 40
1.0
 10
270.5413548472
 20
16.8846536601
 30
0.0
 10
270.6066455549
 20
16.838879699
 30
0.0
 10
270.7577925546
 20
16.7545330515
 30
0.0
 10
270.918618975
 20
16.6920362781
 30
0.0
 10
271.006298976
 20
16.6628429929
 30
0.0
  0
SPLINE
  5
5DC
100
AcDbEntity
  8
0
100
AcDbSpline
 62
7
  6
CONTINUOUS
 70
0
 71
3
 72
18
 73
14
 74
0
 42
0.0000001
 43
0.0000001
 44
0.0000000001
 40
0.0
 40
0.0
 40
0.0
 40
0.0
 40
0.0558397331
 40
0.116429958
 40
0.2490088119
 40
0.3913771865
 40
0.5361697107
 40
0.6758097624
 40
0.8031810844
 40
0.8603875049
 40
0.9124671925
 40
0.959044956
 40
1.0
 40
1.0
 40
1.0
 40
1.0
 10
271.1011817933
 20
16.6330823658
 30
0.0
 10
271.1893454002
 20
16.6070499441
 30
0.0
 10
271.3756214566
 20
16.5608917576
 30
0.0
 10
271.7797303389
 20
16.4905952084
 30
0.0
 10
272.3316446203
 20
16.4468174875
 30
0.0
 10
273.0234331532
 20
16.4598643325
 30
0.0
 10
273.7228596133
 20
16.5367321944
 30
0.0
 10
274.3879727837
 20
16.6727674139
 30
0.0
 10
274.8984108882
 20
16.833613062
 30
0.0
 10
275.2562421911
 20
16.9885098586
 30
0.0
 10
275.4831079036
 20
17.1091412384
 30
0.0
 10
275.6748737955
 20
17.2365474234
 30
0.0
 10
275.7845522923
 20
17.3309494813
 30
0.0
 10
275.8316282266
 20
17.3792160658
 30
0.0
  0
SPLINE
  5
5DD
100
AcDbEntity
  8
02___PRT_ALL_AXES
100
AcDbSpline
 62
7
  6
CONTINUOUS
 70
0
 71
3
 72
10
 73
6
 74
0
 42
0.0000001
 43
0.0000001
 44
0.0000000001
 40
0.0
 40
0.0
 40
0.0
 40
0.0
 40
0.4105301276
 40
0.6818426461
 40
1.0
 40
1.0
 40
1.0
 40
1.0
 10
272.6988751025
 20
11.6571125317
 30
0.0
 10
272.7155991516
 20
11.6123758461
 30
0.0
 10
272.7777645644
 20
11.5530892953
 30
0.0
 10
272.8802547429
 20
11.4998097872
 30
0.0
 10
272.9453671
 20
11.4767820379
 30
0.0
 10
272.9808659003
 20
11.4663001649
 30
0.0
  0
SPLINE
  5
5DE
100
AcDbEntity
  8
0
100
AcDbSpline
 62
7
  6
CONTINUOUS
 70
0
 71
3
 72
11
 73
7
 74
0
 42
0.0000001
 43
0.0000001
 44
0.0000000001
 40
0.0
 40
0.0
 40
0.0
 40
0.0
 40
0.2193083639
 40
0.4523376014
 40
0.7101211813
 40
1.0
 40
1.0
 40
1.0
 40
1.0
 10
270.9723018397
 20
13.9570051043
 30
0.0
 10
270.9753045031
 20
13.9249103511
 30
0.0
 10
270.9910396989
 20
13.8592899752
 30
0.0
 10
271.0416550625
 20
13.7668825652
 30
0.0
 10
271.117871684
 20
13.6801345612
 30
0.0
 10
271.1809730718
 20
13.6295691812
 30
0.0
 10
271.2158590529
 20
13.605107351
 30
0.0
  0
SPLINE
  5
5DF
100
AcDbEntity
  8
0
100
AcDbSpline
 62
7
  6
CONTINUOUS
 70
0
 71
3
 72
11
 73
7
 74
0
 42
0.0000001
 43
0.0000001
 44
0.0000000001
 40
0.0
 40
0.0
 40
0.0
 40
0.0
 40
0.2193088802
 40
0.4523355523
 40
0.7101158208
 40
1.0
 40
1.0
 40
1.0
 40
1.0
 10
270.1505508789
 20
17.3760129143
 30
0.0
 10
270.1541505224
 20
17.3374987052
 30
0.0
 10
270.1730457397
 20
17.2587569638
 30
0.0
 10
270.2337742419
 20
17.1478656829
 30
0.0
 10
270.3252351114
 20
17.0437667649
 30
0.0
 10
270.4009588552
 20
16.9830903874
 30
0.0
 10
270.4428232753
 20
16.9537361298
 30
0.0
  0
SPLINE
  5
5E0
100
AcDbEntity
  8
02___PRT_ALL_AXES
100
AcDbSpline
 62
7
  6
CONTINUOUS
 70
0
 71
3
 72
17
 73
13
 74
0
 42
0.0000001
 43
0.0000001
 44
0.0000000001
 40
0.0
 40
0.0
 40
0.0
 40
0.0
 40
0.0673814459
 40
0.1104877133
 40
0.1605602695
 40
0.2174152814
 40
0.2804604164
 40
0.4213676412
 40
0.574330166
 40
0.7287482851
 40
0.8738382491
 40
1.0
 40
1.0
 40
1.0
 40
1.0
 10
274.6801557787
 20
11.8423685377
 30
0.0
 10
274.6731194744
 20
11.8016458486
 30
0.0
 10
274.6340802702
 20
11.7406174233
 30
0.0
 10
274.5605389684
 20
11.6757487062
 30
0.0
 10
274.4833062459
 20
11.6248892077
 30
0.0
 10
274.3903129772
 20
11.5775563552
 30
0.0
 10
274.2417929481
 20
11.5176660551
 30
0.0
 10
274.0302377238
 20
11.458850597
 30
0.0
 10
273.758312267
 20
11.4152082281
 30
0.0
 10
273.4806711916
 20
11.3998422339
 30
0.0
 10
273.2195063842
 20
11.4138334582
 30
0.0
 10
273.0550754484
 20
11.4443880143
 30
0.0
 10
272.9808659003
 20
11.4663001649
 30
0.0
  0
SPLINE
  5
5E1
100
AcDbEntity
  8
0
100
AcDbSpline
 62
7
  6
CONTINUOUS
 70
0
 71
3
 72
16
 73
12
 74
0
 42
0.0000001
 43
0.0000001
 44
0.0000000001
 40
0.0
 40
0.0
 40
0.0
 40
0.0
 40
0.1167393782
 40
0.2476067764
 40
0.3870817778
 40
0.5289343802
 40
0.6667546867
 40
0.7944427017
 40
0.9067340917
 40
0.9558993843
 40
1.0
 40
1.0
 40
1.0
 40
1.0
 10
271.7827516184
 20
13.3647738151
 30
0.0
 10
271.9348025565
 20
13.3249933077
 30
0.0
 10
272.2638935437
 20
13.2654567305
 30
0.0
 10
272.7844058736
 20
13.2282047907
 30
0.0
 10
273.3399815345
 20
13.2391189196
 30
0.0
 10
273.9018777937
 20
13.2978018967
 30
0.0
 10
274.4412568193
 20
13.4012042187
 30
0.0
 10
274.9302786225
 20
13.54383619
 30
0.0
 10
275.2905064248
 20
13.6950723777
 30
0.0
 10
275.5309002011
 20
13.8327957154
 30
0.0
 10
275.6334773994
 20
13.9057592146
 30
0.0
 10
275.6795130529
 20
13.9432550661
 30
0.0
  0
SPLINE
  5
5E2
100
AcDbEntity
  8
0
100
AcDbSpline
 62
7
  6
CONTINUOUS
 70
0
 71
3
 72
9
 73
5
 74
0
 42
0.0000001
 43
0.0000001
 44
0.0000000001
 40
0.0
 40
0.0
 40
0.0
 40
0.0
 40
0.2591051933
 40
1.0
 40
1.0
 40
1.0
 40
1.0
 10
275.6884273472
 20
13.9505803939
 30
0.0
 10
275.6963747663
 20
13.9571697495
 30
0.0
 10
275.7267430978
 20
13.9829632138
 30
0.0
 10
275.755859536
 20
14.0102493247
 30
0.0
 10
275.7764721357
 20
14.0313814737
 30
0.0
  0
SPLINE
  5
5E3
100
AcDbEntity
  8
0
100
AcDbSpline
 62
7
  6
CONTINUOUS
 70
0
 71
3
 72
17
 73
13
 74
0
 42
0.0000001
 43
0.0000001
 44
0.0000000001
 40
0.0
 40
0.0
 40
0.0
 40
0.0
 40
0.116894966
 40
0.248316293
 40
0.3885276684
 40
0.5310490437
 40
0.6692184701
 40
0.7967197198
 40
0.8547603815
 40
0.9082272682
 40
0.9567155795
 40
1.0
 40
1.0
 40
1.0
 40
1.0
 10
271.1062292263
 20
16.6697918492
 30
0.0
 10
271.2909250062
 20
16.6204906066
 30
0.0
 10
271.6916762411
 20
16.5468797021
 30
0.0
 10
272.3262899537
 20
16.501087119
 30
0.0
 10
273.0043474692
 20
16.5150160224
 30
0.0
 10
273.689623737
 20
16.5881385359
 30
0.0
 10
274.3455459903
 20
16.7165433354
 30
0.0
 10
274.8540097866
 20
16.868044889
 30
0.0
 10
275.2168908913
 20
17.0139426763
 30
0.0
 10
275.4524088092
 20
17.1285368707
 30
0.0
 10
275.6567775789
 20
17.2501437636
 30
0.0
 10
275.7774640572
 20
17.3400660957
 30
0.0
 10
275.8311270195
 20
17.3862260931
 30
0.0
  0
SPLINE
  5
5E4
100
AcDbEntity
  8
0
100
AcDbSpline
 62
7
  6
CONTINUOUS
 70
0
 71
3
 72
9
 73
5
 74
0
 42
0.0000001
 43
0.0000001
 44
0.0000000001
 40
0.0
 40
0.0
 40
0.0
 40
0.0
 40
0.2574518321
 40
1.0
 40
1.0
 40
1.0
 40
1.0
 10
275.8311270195
 20
17.3862260931
 30
0.0
 10
275.8386527785
 20
17.3926996272
 30
0.0
 10
275.8676316717
 20
17.4181354047
 30
0.0
 10
275.895569152
 20
17.4447676668
 30
0.0
 10
275.9155599383
 20
17.4652646749
 30
0.0
  0
SPLINE
  5
5E5
100
AcDbEntity
  8
0
100
AcDbSpline
 62
7
  6
CONTINUOUS
 70
0
 71
3
 72
9
 73
5
 74
0
 42
0.0000001
 43
0.0000001
 44
0.0000000001
 40
0.0
 40
0.0
 40
0.0
 40
0.0
 40
0.2426409006
 40
1.0
 40
1.0
 40
1.0
 40
1.0
 10
270.4428232753
 20
16.9537361298
 30
0.0
 10
270.4505051705
 20
16.9483497819
 30
0.0
 10
270.4824299644
 20
16.9265302972
 30
0.0
 10
270.5153619397
 20
16.9061960161
 30
0.0
 10
270.5407203994
 20
16.8915489946
 30
0.0
  0
SPLINE
  5
5E6
100
AcDbEntity
  8
0
100
AcDbSpline
 62
7
  6
CONTINUOUS
 70
0
 71
3
 72
9
 73
5
 74
0
 42
0.0000001
 43
0.0000001
 44
0.0000000001
 40
0.0
 40
0.0
 40
0.0
 40
0.0
 40
0.4683409754
 40
1.0
 40
1.0
 40
1.0
 40
1.0
 10
270.5407203994
 20
16.8915489946
 30
0.0
 10
270.6112011373
 20
16.8508393893
 30
0.0
 10
270.7687141741
 20
16.7759819454
 30
0.0
 10
270.9334124886
 20
16.7196035708
 30
0.0
 10
271.0220271447
 20
16.6934379666
 30
0.0
  0
SPLINE
  5
5E7
100
AcDbEntity
  8
0
100
AcDbSpline
 62
7
  6
CONTINUOUS
 70
0
 71
3
 72
9
 73
5
 74
0
 42
0.0000001
 43
0.0000001
 44
0.0000000001
 40
0.0
 40
0.0
 40
0.0
 40
0.0
 40
0.2413427381
 40
1.0
 40
1.0
 40
1.0
 40
1.0
 10
271.2158590529
 20
13.605107351
 30
0.0
 10
271.2234392824
 20
13.5997921419
 30
0.0
 10
271.2551598938
 20
13.5782148515
 30
0.0
 10
271.2880506528
 20
13.5583763217
 30
0.0
 10
271.3134602636
 20
13.5441880181
 30
0.0
  0
SPLINE
  5
5E8
100
AcDbEntity
  8
0
100
AcDbSpline
 62
7
  6
CONTINUOUS
 70
0
 71
3
 72
9
 73
5
 74
0
 42
0.0000001
 43
0.0000001
 44
0.0000000001
 40
0.0
 40
0.0
 40
0.0
 40
0.0
 40
0.4701263143
 40
1.0
 40
1.0
 40
1.0
 40
1.0
 10
271.3134602636
 20
13.5441880181
 30
0.0
 10
271.3703913907
 20
13.5123986249
 30
0.0
 10
271.4965422835
 20
13.4537499996
 30
0.0
 10
271.6280464115
 20
13.4090043913
 30
0.0
 10
271.6985299962
 20
13.3881924213
 30
0.0
  0
SPLINE
  5
5E9
100
AcDbEntity
  8
02___PRT_ALL_AXES
100
AcDbSpline
 62
7
  6
CONTINUOUS
 70
0
 71
3
 72
10
 73
6
 74
0
 42
0.0000001
 43
0.0000001
 44
0.0000000001
 40
0.0
 40
0.0
 40
0.0
 40
0.0
 40
0.4105343379
 40
0.6818162517
 40
1.0
 40
1.0
 40
1.0
 40
1.0
 10
272.3657084056
 20
12.5488155355
 30
0.0
 10
272.3866117159
 20
12.4928931219
 30
0.0
 10
272.4643163749
 20
12.4187872698
 30
0.0
 10
272.5924265538
 20
12.3521819655
 30
0.0
 10
272.6738181685
 20
12.3234005403
 30
0.0
 10
272.718195523
 20
12.310297061
 30
0.0
  0
SPLINE
  5
5EA
100
AcDbEntity
  8
02___PRT_ALL_AXES
100
AcDbSpline
 62
7
  6
CONTINUOUS
 70
0
 71
3
 72
13
 73
9
 74
0
 42
0.0000001
 43
0.0000001
 44
0.0000000001
 40
0.0
 40
0.0
 40
0.0
 40
0.0
 40
0.0902975175
 40
0.1852982919
 40
0.2889334837
 40
0.4039584568
 40
0.6738290785
 40
1.0
 40
1.0
 40
1.0
 40
1.0
 10
272.4546429752
 20
12.6040606881
 30
0.0
 10
272.4558927552
 20
12.5906636132
 30
0.0
 10
272.4620350791
 20
12.5633934012
 30
0.0
 10
272.4814914635
 20
12.5245948822
 30
0.0
 10
272.5107895136
 20
12.4878199468
 30
0.0
 10
272.5653183771
 20
12.4391820904
 30
0.0
 10
272.6582452417
 20
12.386217799
 30
0.0
 10
272.7420991391
 20
12.356119512
 30
0.0
 10
272.7887123375
 20
12.3423558461
 30
0.0
  0
SPLINE
  5
5EB
100
AcDbEntity
  8
02___PRT_ALL_AXES
100
AcDbSpline
 62
7
  6
CONTINUOUS
 70
0
 71
3
 72
19
 73
15
 74
0
 42
0.0000001
 43
0.0000001
 44
0.0000000001
 40
0.0
 40
0.0
 40
0.0
 40
0.0
 40
0.0300968073
 40
0.0639322623
 40
0.1039507915
 40
0.1512306546
 40
0.2059129165
 40
0.2675462153
 40
0.3352913596
 40
0.4080398399
 40
0.5631525291
 40
0.7213390057
 40
0.870560595
 40
1.0
 40
1.0
 40
1.0
 40
1.0
 10
274.7446684328
 20
12.8180030618
 30
0.0
 10
274.7466815833
 20
12.7964230008
 30
0.0
 10
274.7410303161
 20
12.7493253665
 30
0.0
 10
274.7057650571
 20
12.6820302765
 30
0.0
 10
274.6466880164
 20
12.6169734001
 30
0.0
 10
274.5652205854
 20
12.5545510364
 30
0.0
 10
274.4629078314
 20
12.4956329616
 30
0.0
 10
274.341776237
 20
12.4413756524
 30
0.0
 10
274.2043656147
 20
12.3929350124
 30
0.0
 10
273.9989968383
 20
12.3363760567
 30
0.0
 10
273.7245601015
 20
12.2879139165
 30
0.0
 10
273.3915584149
 20
12.2656327564
 30
0.0
 10
273.0766911377
 20
12.2799784652
 30
0.0
 10
272.878110427
 20
12.315958914
 30
0.0
 10
272.7887123375
 20
12.3423558461
 30
0.0
  0
SPLINE
  5
5EC
100
AcDbEntity
  8
02___PRT_ALL_AXES
100
AcDbSpline
 62
7
  6
CONTINUOUS
 70
0
 71
3
 72
18
 73
14
 74
0
 42
0.0000001
 43
0.0000001
 44
0.0000000001
 40
0.0
 40
0.0
 40
0.0
 40
0.0
 40
0.031447692
 40
0.0680090218
 40
0.1110875964
 40
0.1611243642
 40
0.2179393868
 40
0.2809437772
 40
0.4217546404
 40
0.5746151631
 40
0.7289294935
 40
0.8739241259
 40
1.0
 40
1.0
 40
1.0
 40
1.0
 10
274.8423059438
 20
12.7803922239
 30
0.0
 10
274.8381991579
 20
12.7566187339
 30
0.0
 10
274.819250178
 20
12.7068196216
 30
0.0
 10
274.7674310827
 20
12.6382717861
 30
0.0
 10
274.6926801995
 20
12.5719092008
 30
0.0
 10
274.596295262
 20
12.5086083686
 30
0.0
 10
274.4800081435
 20
12.449347611
 30
0.0
 10
274.2943742263
 20
12.3745277643
 30
0.0
 10
274.0299205593
 20
12.3009764937
 30
0.0
 10
273.6900138657
 20
12.2464391763
 30
0.0
 10
273.3429574536
 20
12.2272199275
 30
0.0
 10
273.0164984561
 20
12.2447147607
 30
0.0
 10
272.8109573382
 20
12.2829069082
 30
0.0
 10
272.718195523
 20
12.310297061
 30
0.0
  0
SPLINE
  5
5ED
100
AcDbEntity
  8
0
100
AcDbSpline
 62
7
  6
CONTINUOUS
 70
0
 71
3
 72
9
 73
5
 74
0
 42
0.0000001
 43
0.0000001
 44
0.0000000001
 40
0.0
 40
0.0
 40
0.0
 40
0.0
 40
0.2694352486
 40
1.0
 40
1.0
 40
1.0
 40
1.0
 10
299.4631131346
 20
67.3172678468
 30
0.0
 10
299.3886286706
 20
67.3830541259
 30
0.0
 10
299.1020922655
 20
67.6147399206
 30
0.0
 10
298.7692452029
 20
67.795313821
 30
0.0
 10
298.510818307
 20
67.8716205654
 30
0.0
  0
SPLINE
  5
5EE
100
AcDbEntity
  8
02___PRT_ALL_AXES
100
AcDbSpline
 62
7
  6
CONTINUOUS
 70
0
 71
3
 72
9
 73
5
 74
0
 42
0.0000001
 43
0.0000001
 44
0.0000000001
 40
0.0
 40
0.0
 40
0.0
 40
0.0
 40
0.5150591945
 40
1.0
 40
1.0
 40
1.0
 40
1.0
 10
300.4738229952
 20
67.3189331899
 30
0.0
 10
300.4236037389
 20
67.333761631
 30
0.0
 10
300.3234205847
 20
67.3544551217
 30
0.0
 10
300.2208900747
 20
67.3549373893
 30
0.0
 10
300.1718781594
 20
67.3496081593
 30
0.0
  0
SPLINE
  5
5EF
100
AcDbEntity
  8
0
100
AcDbSpline
 62
7
  6
CONTINUOUS
 70
0
 71
3
 72
11
 73
7
 74
0
 42
0.0000001
 43
0.0000001
 44
0.0000000001
 40
0.0
 40
0.0
 40
0.0
 40
0.0
 40
0.2429618426
 40
0.4999949123
 40
0.7570306334
 40
1.0
 40
1.0
 40
1.0
 40
1.0
 10
300.896624727
 20
64.2263599297
 30
0.0
 10
300.8949377306
 20
64.504512696
 30
0.0
 10
300.8196340813
 20
65.0775528155
 30
0.0
 10
300.5356365574
 20
65.9017460539
 30
0.0
 10
300.1013497167
 20
66.6576242257
 30
0.0
 10
299.7191028919
 20
67.091155426
 30
0.0
 10
299.5106201454
 20
67.2753062986
 30
0.0
  0
SPLINE
  5
5F0
100
AcDbEntity
  8
0
100
AcDbSpline
 62
7
  6
CONTINUOUS
 70
0
 71
3
 72
9
 73
5
 74
0
 42
0.0000001
 43
0.0000001
 44
0.0000000001
 40
0.0
 40
0.0
 40
0.0
 40
0.0
 40
0.2682266869
 40
1.0
 40
1.0
 40
1.0
 40
1.0
 10
297.269514875
 20
66.589586045
 30
0.0
 10
297.1888034904
 20
66.6608763198
 30
0.0
 10
296.8773780602
 20
66.9137806718
 30
0.0
 10
296.5185857656
 20
67.1139148708
 30
0.0
 10
296.2392088989
 20
67.2048132619
 30
0.0
  0
SPLINE
  5
5F1
100
AcDbEntity
  8
0
100
AcDbSpline
 62
7
  6
CONTINUOUS
 70
0
 71
3
 72
11
 73
7
 74
0
 42
0.0000001
 43
0.0000001
 44
0.0000000001
 40
0.0
 40
0.0
 40
0.0
 40
0.0
 40
0.266770033
 40
0.5197997493
 40
0.7626014253
 40
1.0
 40
1.0
 40
1.0
 40
1.0
 10
298.510818307
 20
67.8716205654
 30
0.0
 10
298.4252297661
 20
67.896892637
 30
0.0
 10
298.2545806508
 20
67.9343068995
 30
0.0
 10
297.9985403252
 20
67.9473413957
 30
0.0
 10
297.7539750632
 20
67.9150206788
 30
0.0
 10
297.6006569356
 20
67.8630749363
 30
0.0
 10
297.5283627218
 20
67.8302044396
 30
0.0
  0
SPLINE
  5
5F2
100
AcDbEntity
  8
0
100
AcDbSpline
 62
7
  6
CONTINUOUS
 70
0
 71
3
 72
11
 73
7
 74
0
 42
0.0000001
 43
0.0000001
 44
0.0000000001
 40
0.0
 40
0.0
 40
0.0
 40
0.0
 40
0.2429682191
 40
0.5000029717
 40
0.7570361639
 40
1.0
 40
1.0
 40
1.0
 40
1.0
 10
298.9061597456
 20
63.052162475
 30
0.0
 10
298.9042117731
 20
63.3710770959
 30
0.0
 10
298.8178061102
 20
64.0280795514
 30
0.0
 10
298.4921492092
 20
64.9730159094
 30
0.0
 10
297.9941935793
 20
65.8396125405
 30
0.0
 10
297.5559151569
 20
66.3366221548
 30
0.0
 10
297.3168870729
 20
66.547743531
 30
0.0
  0
SPLINE
  5
5F3
100
AcDbEntity
  8
02___PRT_ALL_AXES
100
AcDbSpline
 62
7
  6
CONTINUOUS
 70
0
 71
3
 72
18
 73
14
 74
0
 42
0.0000001
 43
0.0000001
 44
0.0000000001
 40
0.0
 40
0.0
 40
0.0
 40
0.0
 40
0.1124090973
 40
0.1746196158
 40
0.2402571785
 40
0.3788166816
 40
0.5213819996
 40
0.660164276
 40
0.7881809188
 40
0.8467735872
 40
0.901383787
 40
0.9522382707
 40
1.0
 40
1.0
 40
1.0
 40
1.0
 10
300.4738229952
 20
67.3189331899
 30
0.0
 10
300.5884528061
 20
67.2850859864
 30
0.0
 10
300.7570735911
 20
67.1984977699
 30
0.0
 10
300.9578157647
 20
67.0402001565
 30
0.0
 10
301.1583489398
 20
66.8391708717
 30
0.0
 10
301.374177847
 20
66.5368678305
 30
0.0
 10
301.5611246108
 20
66.1285459276
 30
0.0
 10
301.664834842
 20
65.7030599519
 30
0.0
 10
301.6744452392
 20
65.3535149957
 30
0.0
 10
301.6294841914
 20
65.1001851982
 30
0.0
 10
301.5729398248
 20
64.9343109065
 30
0.0
 10
301.4936811875
 20
64.7909235042
 30
0.0
 10
301.4247743136
 20
64.7105949425
 30
0.0
 10
301.3874515639
 20
64.6761559708
 30
0.0
  0
SPLINE
  5
5F4
100
AcDbEntity
  8
0
100
AcDbSpline
 62
7
  6
CONTINUOUS
 70
0
 71
3
 72
14
 73
10
 74
0
 42
0.0000001
 43
0.0000001
 44
0.0000000001
 40
0.0
 40
0.0
 40
0.0
 40
0.0
 40
0.1074407011
 40
0.2171174017
 40
0.3310129788
 40
0.4506775657
 40
0.5771480124
 40
0.7109490469
 40
1.0
 40
1.0
 40
1.0
 40
1.0
 10
297.8956389242
 20
60.9393706455
 30
0.0
 10
297.9742797209
 20
60.9751255327
 30
0.0
 10
298.1266811868
 20
61.0627537831
 30
0.0
 10
298.3298602476
 20
61.2368087852
 30
0.0
 10
298.50583405
 20
61.4511069339
 30
0.0
 10
298.6521859685
 20
61.7021318396
 30
0.0
 10
298.7671862546
 20
61.9861858902
 30
0.0
 10
298.8796766252
 20
62.4142149699
 30
0.0
 10
298.9079558934
 20
62.7563473476
 30
0.0
 10
298.9065457219
 20
62.9887537546
 30
0.0
  0
SPLINE
  5
5F5
100
AcDbEntity
  8
0
100
AcDbSpline
 62
7
  6
CONTINUOUS
 70
0
 71
3
 72
14
 73
10
 74
0
 42
0.0000001
 43
0.0000001
 44
0.0000000001
 40
0.0
 40
0.0
 40
0.0
 40
0.0
 40
0.1074409846
 40
0.2171178285
 40
0.3310131633
 40
0.4506771361
 40
0.577147575
 40
0.7109496121
 40
1.0
 40
1.0
 40
1.0
 40
1.0
 10
300.0115439388
 20
62.3681735377
 30
0.0
 10
300.0804261543
 20
62.3994926782
 30
0.0
 10
300.2139181371
 20
62.4762453772
 30
0.0
 10
300.3918803478
 20
62.6287084439
 30
0.0
 10
300.5460190309
 20
62.8164126015
 30
0.0
 10
300.6742136616
 20
63.0362858852
 30
0.0
 10
300.774946795
 20
63.2850919541
 30
0.0
 10
300.8734674249
 20
63.6600105672
 30
0.0
 10
300.8982528861
 20
63.9596878831
 30
0.0
 10
300.8970088391
 20
64.1632550801
 30
0.0
  0
SPLINE
  5
5F6
100
AcDbEntity
  8
0
100
AcDbSpline
 62
7
  6
CONTINUOUS
 70
0
 71
3
 72
11
 73
7
 74
0
 42
0.0000001
 43
0.0000001
 44
0.0000000001
 40
0.0
 40
0.0
 40
0.0
 40
0.0
 40
0.2434699353
 40
0.4999868541
 40
0.7565107642
 40
1.0
 40
1.0
 40
1.0
 40
1.0
 10
300.896067112
 20
64.2253078994
 30
0.0
 10
300.8893433264
 20
64.5034990104
 30
0.0
 10
300.8077441382
 20
65.0741773815
 30
0.0
 10
300.5218004532
 20
65.8951420746
 30
0.0
 10
300.0913121696
 20
66.6504325831
 30
0.0
 10
299.7150182294
 20
67.0872034039
 30
0.0
 10
299.5098438631
 20
67.2752227127
 30
0.0
  0
SPLINE
  5
5F7
100
AcDbEntity
  8
0
100
AcDbSpline
 62
7
  6
CONTINUOUS
 70
0
 71
3
 72
11
 73
7
 74
0
 42
0.0000001
 43
0.0000001
 44
0.0000000001
 40
0.0
 40
0.0
 40
0.0
 40
0.0
 40
0.2434324679
 40
0.5000208104
 40
0.756598235
 40
1.0
 40
1.0
 40
1.0
 40
1.0
 10
298.9056504614
 20
63.0519510044
 30
0.0
 10
298.8985652773
 20
63.3709439989
 30
0.0
 10
298.8057051854
 20
64.0256110066
 30
0.0
 10
298.477905227
 20
64.9673004487
 30
0.0
 10
297.983602423
 20
65.8332235965
 30
0.0
 10
297.5512108061
 20
66.3334012319
 30
0.0
 10
297.3154611838
 20
66.5483504512
 30
0.0
  0
SPLINE
  5
5F8
100
AcDbEntity
  8
02___PRT_ALL_AXES
100
AcDbSpline
 62
7
  6
CONTINUOUS
 70
0
 71
3
 72
9
 73
5
 74
0
 42
0.0000001
 43
0.0000001
 44
0.0000000001
 40
0.0
 40
0.0
 40
0.0
 40
0.0
 40
0.2573840163
 40
1.0
 40
1.0
 40
1.0
 40
1.0
 10
299.7470602651
 20
67.2293813035
 30
0.0
 10
299.7293450814
 20
67.2346121368
 30
0.0
 10
299.6600211864
 20
67.2531807283
 30
0.0
 10
299.5886767254
 20
67.2644908106
 30
0.0
 10
299.5354954513
 20
67.2679593001
 30
0.0
  0
SPLINE
  5
5F9
100
AcDbEntity
  8
02___PRT_ALL_AXES
100
AcDbSpline
 62
7
  6
CONTINUOUS
 70
0
 71
3
 72
17
 73
13
 74
0
 42
0.0000001
 43
0.0000001
 44
0.0000000001
 40
0.0
 40
0.0
 40
0.0
 40
0.0
 40
0.1108511351
 40
0.1719695221
 40
0.2363944359
 40
0.3725661365
 40
0.5134901256
 40
0.652146785
 40
0.7819533532
 40
0.8420679249
 40
0.8984619037
 40
1.0
 40
1.0
 40
1.0
 40
1.0
 10
299.7470602651
 20
67.2293813035
 30
0.0
 10
299.8744361536
 20
67.1917705146
 30
0.0
 10
300.0620759603
 20
67.0974334201
 30
0.0
 10
300.2871753601
 20
66.9251922896
 30
0.0
 10
300.5131233168
 20
66.7067557316
 30
0.0
 10
300.7601386137
 20
66.3769701999
 30
0.0
 10
300.9819457142
 20
65.9280028492
 30
0.0
 10
301.1172979153
 20
65.4537293252
 30
0.0
 10
301.1499018409
 20
65.0580269846
 30
0.0
 10
301.1204617093
 20
64.7634802448
 30
0.0
 10
301.0600074562
 20
64.5090502861
 30
0.0
 10
300.9742652374
 20
64.3346116172
 30
0.0
 10
300.8988478505
 20
64.2391546389
 30
0.0
  0
SPLINE
  5
5FA
100
AcDbEntity
  8
02___PRT_ALL_AXES
100
AcDbSpline
 62
7
  6
CONTINUOUS
 70
0
 71
3
 72
9
 73
5
 74
0
 42
0.0000001
 43
0.0000001
 44
0.0000000001
 40
0.0
 40
0.0
 40
0.0
 40
0.0
 40
0.2538535584
 40
1.0
 40
1.0
 40
1.0
 40
1.0
 10
299.7578575577
 20
67.1138633212
 30
0.0
 10
299.7491825358
 20
67.1164248297
 30
0.0
 10
299.7148757884
 20
67.126055632
 30
0.0
 10
299.6800392523
 20
67.1338172169
 30
0.0
 10
299.6538579191
 20
67.1384418538
 30
0.0
  0
SPLINE
  5
5FB
100
AcDbEntity
  8
02___PRT_ALL_AXES
100
AcDbSpline
 62
7
  6
CONTINUOUS
 70
0
 71
3
 72
15
 73
11
 74
0
 42
0.0000001
 43
0.0000001
 44
0.0000000001
 40
0.0
 40
0.0
 40
0.0
 40
0.0
 40
0.1095689854
 40
0.2329820317
 40
0.3671039825
 40
0.5065287514
 40
0.6448909706
 40
0.7760119588
 40
0.8950754305
 40
1.0
 40
1.0
 40
1.0
 40
1.0
 10
299.7578575577
 20
67.1138633212
 30
0.0
 10
299.8710354564
 20
67.0804448296
 30
0.0
 10
300.0997593976
 20
66.9675125538
 30
0.0
 10
300.40253476
 20
66.7088618228
 30
0.0
 10
300.6673920787
 20
66.3699352672
 30
0.0
 10
300.875097305
 20
65.9754026546
 30
0.0
 10
301.0108016742
 20
65.5540321263
 30
0.0
 10
301.0643246031
 20
65.1361943652
 30
0.0
 10
301.0316044443
 20
64.7519552988
 30
0.0
 10
300.9460278537
 20
64.5213293352
 30
0.0
 10
300.8876779228
 20
64.4245525576
 30
0.0
  0
SPLINE
  5
5FC
100
AcDbEntity
  8
0
100
AcDbSpline
 62
7
  6
CONTINUOUS
 70
0
 71
3
 72
16
 73
12
 74
0
 42
0.0000001
 43
0.0000001
 44
0.0000000001
 40
0.0
 40
0.0
 40
0.0
 40
0.0
 40
0.0991896433
 40
0.1543994648
 40
0.2135212575
 40
0.3422146137
 40
0.481063885
 40
0.6232003022
 40
0.7610774207
 40
0.8880272385
 40
1.0
 40
1.0
 40
1.0
 40
1.0
 10
258.8965066173
 20
45.2379980421
 30
0.0
 10
258.9754856271
 20
45.3187607947
 30
0.0
 10
259.0693576882
 20
45.4741996472
 30
0.0
 10
259.1404450383
 20
45.7070759488
 30
0.0
 10
259.1822548573
 20
45.9816712194
 30
0.0
 10
259.165230383
 20
46.3569480386
 30
0.0
 10
259.0484287573
 20
46.8115090076
 30
0.0
 10
258.8446279851
 20
47.2458737226
 30
0.0
 10
258.5706310308
 20
47.623525321
 30
0.0
 10
258.2493745609
 20
47.9130370703
 30
0.0
 10
258.0024610996
 20
48.0390574468
 30
0.0
 10
257.8801616408
 20
48.075169298
 30
0.0
  0
SPLINE
  5
5FD
100
AcDbEntity
  8
02___PRT_ALL_AXES
100
AcDbSpline
 62
7
  6
CONTINUOUS
 70
0
 71
3
 72
10
 73
6
 74
0
 42
0.0000001
 43
0.0000001
 44
0.0000000001
 40
0.0
 40
0.0
 40
0.0
 40
0.0
 40
0.51897042
 40
0.762196339
 40
1.0
 40
1.0
 40
1.0
 40
1.0
 10
260.2856258503
 20
49.8672310746
 30
0.0
 10
260.1554202969
 20
49.9056773901
 30
0.0
 10
259.9533323263
 20
49.9357664948
 30
0.0
 10
259.6927578641
 20
49.9012212614
 30
0.0
 10
259.572627571
 20
49.8605043025
 30
0.0
 10
259.5159959757
 20
49.8347574853
 30
0.0
  0
SPLINE
  5
5FE
100
AcDbEntity
  8
0
100
AcDbSpline
 62
7
  6
CONTINUOUS
 70
0
 71
3
 72
9
 73
5
 74
0
 42
0.0000001
 43
0.0000001
 44
0.0000000001
 40
0.0
 40
0.0
 40
0.0
 40
0.0
 40
0.2608373956
 40
1.0
 40
1.0
 40
1.0
 40
1.0
 10
257.8801616408
 20
48.075169298
 30
0.0
 10
257.8557344907
 20
48.0823820005
 30
0.0
 10
257.7611210483
 20
48.1064950772
 30
0.0
 10
257.6623359196
 20
48.1155627071
 30
0.0
 10
257.5902754422
 20
48.1114742769
 30
0.0
  0
SPLINE
  5
5FF
100
AcDbEntity
  8
02___PRT_ALL_AXES
100
AcDbSpline
 62
7
  6
CONTINUOUS
 70
0
 71
3
 72
18
 73
14
 74
0
 42
0.0000001
 43
0.0000001
 44
0.0000000001
 40
0.0
 40
0.0
 40
0.0
 40
0.0
 40
0.1154885214
 40
0.1798390251
 40
0.2478208965
 40
0.3908370183
 40
0.5361176743
 40
0.6744138335
 40
0.7982867214
 40
0.8538644628
 40
0.9053333168
 40
0.9535666178
 40
1.0
 40
1.0
 40
1.0
 40
1.0
 10
260.2856258503
 20
49.8672310746
 30
0.0
 10
260.4814115406
 20
49.8094206494
 30
0.0
 10
260.7685711894
 20
49.6560808277
 30
0.0
 10
261.1053504123
 20
49.3754718914
 30
0.0
 10
261.4382736084
 20
49.0186324138
 30
0.0
 10
261.7851875393
 20
48.4867748651
 30
0.0
 10
262.0626816804
 20
47.7800010818
 30
0.0
 10
262.1811638216
 20
47.0639985334
 30
0.0
 10
262.1340915522
 20
46.4954487228
 30
0.0
 10
261.9987447003
 20
46.1081496078
 30
0.0
 10
261.8587164383
 20
45.8696764477
 30
0.0
 10
261.6796932273
 20
45.6801665163
 30
0.0
 10
261.5359520249
 20
45.5901981367
 30
0.0
 10
261.4612339282
 20
45.5562285272
 30
0.0
  0
SPLINE
  5
600
100
AcDbEntity
  8
02___PRT_ALL_AXES
100
AcDbSpline
 62
7
  6
CONTINUOUS
 70
0
 71
3
 72
10
 73
6
 74
0
 42
0.0000001
 43
0.0000001
 44
0.0000000001
 40
0.0
 40
0.0
 40
0.0
 40
0.0
 40
0.237803661
 40
0.48102958
 40
1.0
 40
1.0
 40
1.0
 40
1.0
 10
258.9931454213
 20
44.4341710483
 30
0.0
 10
258.936513826
 20
44.4084242311
 30
0.0
 10
258.8163835329
 20
44.3677072721
 30
0.0
 10
258.5558090707
 20
44.3331620388
 30
0.0
 10
258.3537211001
 20
44.3632511434
 30
0.0
 10
258.2235155467
 20
44.4016974589
 30
0.0
  0
SPLINE
  5
601
100
AcDbEntity
  8
02___PRT_ALL_AXES
100
AcDbSpline
 62
7
  6
CONTINUOUS
 70
0
 71
3
 72
18
 73
14
 74
0
 42
0.0000001
 43
0.0000001
 44
0.0000000001
 40
0.0
 40
0.0
 40
0.0
 40
0.0
 40
0.0464333822
 40
0.0946666832
 40
0.1461355372
 40
0.2017132786
 40
0.3255861665
 40
0.4638823257
 40
0.6091629817
 40
0.7521791035
 40
0.8201609749
 40
0.8845114786
 40
1.0
 40
1.0
 40
1.0
 40
1.0
 10
257.0479074688
 20
48.7127000063
 30
0.0
 10
256.9731893721
 20
48.6787303968
 30
0.0
 10
256.8294481697
 20
48.5887620173
 30
0.0
 10
256.6504249587
 20
48.3992520858
 30
0.0
 10
256.5103966967
 20
48.1607789257
 30
0.0
 10
256.3750498448
 20
47.7734798107
 30
0.0
 10
256.3279775754
 20
47.2049300001
 30
0.0
 10
256.4464597166
 20
46.4889274517
 30
0.0
 10
256.7239538577
 20
45.7821536684
 30
0.0
 10
257.0708677886
 20
45.2502961197
 30
0.0
 10
257.4037909847
 20
44.8934566421
 30
0.0
 10
257.7405702076
 20
44.6128477058
 30
0.0
 10
258.0277298564
 20
44.4595078842
 30
0.0
 10
258.2235155467
 20
44.4016974589
 30
0.0
  0
SPLINE
  5
602
100
AcDbEntity
  8
0
100
AcDbSpline
 62
7
  6
CONTINUOUS
 70
0
 71
3
 72
11
 73
7
 74
0
 42
0.0000001
 43
0.0000001
 44
0.0000000001
 40
0.0
 40
0.0
 40
0.0
 40
0.0
 40
0.2669612055
 40
0.5157252081
 40
0.7560454144
 40
1.0
 40
1.0
 40
1.0
 40
1.0
 10
258.1608912494
 20
45.0717017566
 30
0.0
 10
258.2285269586
 20
45.0517306897
 30
0.0
 10
258.3639289547
 20
45.0266015521
 30
0.0
 10
258.5655942495
 20
45.0416334849
 30
0.0
 10
258.7490611809
 20
45.1118411726
 30
0.0
 10
258.8514488062
 20
45.1919225993
 30
0.0
 10
258.8965066173
 20
45.2379980421
 30
0.0
  0
SPLINE
  5
603
100
AcDbEntity
  8
0
100
AcDbSpline
 62
7
  6
CONTINUOUS
 70
0
 71
3
 72
13
 73
9
 74
0
 42
0.0000001
 43
0.0000001
 44
0.0000000001
 40
0.0
 40
0.0
 40
0.0
 40
0.0
 40
0.2295097294
 40
0.3618278358
 40
0.499747957
 40
0.637705168
 40
0.7701337669
 40
1.0
 40
1.0
 40
1.0
 40
1.0
 10
258.3129892843
 20
47.840107183
 30
0.0
 10
258.2443319267
 20
47.6826604964
 30
0.0
 10
258.2176762545
 20
47.3993606685
 30
0.0
 10
258.2826001617
 20
47.0311503524
 30
0.0
 10
258.385995334
 20
46.7418319374
 30
0.0
 10
258.5354753646
 20
46.4733184471
 30
0.0
 10
258.7698086036
 20
46.1814781786
 30
0.0
 10
259.0005571513
 20
46.0144826878
 30
0.0
 10
259.1643783727
 20
45.9619695754
 30
0.0
  0
SPLINE
  5
604
100
AcDbEntity
  8
02___PRT_ALL_AXES
100
AcDbSpline
 62
7
  6
CONTINUOUS
 70
0
 71
3
 72
10
 73
6
 74
0
 42
0.0000001
 43
0.0000001
 44
0.0000000001
 40
0.0
 40
0.0
 40
0.0
 40
0.0
 40
0.51897042
 40
0.762196339
 40
1.0
 40
1.0
 40
1.0
 40
1.0
 10
257.8175373435
 20
48.7451735957
 30
0.0
 10
257.68733179
 20
48.7836199112
 30
0.0
 10
257.4852438194
 20
48.8137090158
 30
0.0
 10
257.2246693572
 20
48.7791637825
 30
0.0
 10
257.1045390641
 20
48.7384468235
 30
0.0
 10
257.0479074688
 20
48.7127000063
 30
0.0
  0
SPLINE
  5
605
100
AcDbEntity
  8
0
100
AcDbSpline
 62
7
  6
CONTINUOUS
 70
0
 71
3
 72
19
 73
15
 74
0
 42
0.0000001
 43
0.0000001
 44
0.0000000001
 40
0.0
 40
0.0
 40
0.0
 40
0.0
 40
0.0479745039
 40
0.0951952651
 40
0.1438928882
 40
0.195939805
 40
0.2524974495
 40
0.3139648994
 40
0.4498248949
 40
0.5968413568
 40
0.744197637
 40
0.8146472959
 40
0.8812872966
 40
1.0
 40
1.0
 40
1.0
 40
1.0
 10
257.5902754422
 20
48.1114742769
 30
0.0
 10
257.5277507645
 20
48.1079268708
 30
0.0
 10
257.4037721853
 20
48.0846446909
 30
0.0
 10
257.23444148
 20
47.9976371975
 30
0.0
 10
257.0924807107
 20
47.8631626193
 30
0.0
 10
256.982638796
 20
47.6874686553
 30
0.0
 10
256.9073147528
 20
47.4770905152
 30
0.0
 10
256.8533127257
 20
47.1486507239
 30
0.0
 10
256.8859009895
 20
46.6940161322
 30
0.0
 10
257.0584817221
 20
46.1551299658
 30
0.0
 10
257.3015515908
 20
45.7402481137
 30
0.0
 10
257.5451012903
 20
45.4584948581
 30
0.0
 10
257.7951143709
 20
45.2368262744
 30
0.0
 10
258.0122689544
 20
45.1155860571
 30
0.0
 10
258.1608912494
 20
45.0717017566
 30
0.0
  0
SPLINE
  5
606
100
AcDbEntity
  8
02___PRT_ALL_AXES
100
AcDbSpline
 62
7
  6
CONTINUOUS
 70
0
 71
3
 72
18
 73
14
 74
0
 42
0.0000001
 43
0.0000001
 44
0.0000000001
 40
0.0
 40
0.0
 40
0.0
 40
0.0
 40
0.1154885214
 40
0.1798390251
 40
0.2478208965
 40
0.3908370183
 40
0.5361176743
 40
0.6744138335
 40
0.7982867214
 40
0.8538644628
 40
0.9053333168
 40
0.9535666178
 40
1.0
 40
1.0
 40
1.0
 40
1.0
 10
257.8175373435
 20
48.7451735957
 30
0.0
 10
258.0133230338
 20
48.6873631704
 30
0.0
 10
258.3004826826
 20
48.5340233488
 30
0.0
 10
258.6372619054
 20
48.2534144124
 30
0.0
 10
258.9701851015
 20
47.8965749349
 30
0.0
 10
259.3170990324
 20
47.3647173862
 30
0.0
 10
259.5945931736
 20
46.6579436029
 30
0.0
 10
259.7130753148
 20
45.9419410545
 30
0.0
 10
259.6660030454
 20
45.3733912439
 30
0.0
 10
259.5306561934
 20
44.9860921289
 30
0.0
 10
259.3906279314
 20
44.7476189688
 30
0.0
 10
259.2116047204
 20
44.5581090373
 30
0.0
 10
259.067863518
 20
44.4681406578
 30
0.0
 10
258.9931454213
 20
44.4341710483
 30
0.0
  0
SPLINE
  5
607
100
AcDbEntity
  8
0
100
AcDbSpline
 62
7
  6
CONTINUOUS
 70
0
 71
3
 72
9
 73
5
 74
0
 42
0.0000001
 43
0.0000001
 44
0.0000000001
 40
0.0
 40
0.0
 40
0.0
 40
0.0
 40
0.5136075424
 40
1.0
 40
1.0
 40
1.0
 40
1.0
 10
281.7371819627
 20
59.8840449581
 30
0.0
 10
281.6264681396
 20
59.9023500062
 30
0.0
 10
281.4049577398
 20
59.911390168
 30
0.0
 10
281.1900660977
 20
59.8531506648
 30
0.0
 10
281.0933285056
 20
59.809158597
 30
0.0
  0
SPLINE
  5
608
100
AcDbEntity
  8
0
100
AcDbSpline
 62
7
  6
CONTINUOUS
 70
0
 71
3
 72
11
 73
7
 74
0
 42
0.0000001
 43
0.0000001
 44
0.0000000001
 40
0.0
 40
0.0
 40
0.0
 40
0.0
 40
0.2632422315
 40
0.5098409996
 40
0.7511398534
 40
1.0
 40
1.0
 40
1.0
 40
1.0
 10
280.1625613404
 20
59.3960366098
 30
0.0
 10
280.2191980531
 20
59.5048984638
 30
0.0
 10
280.3532101109
 20
59.7047634993
 30
0.0
 10
280.623849887
 20
59.9346350552
 30
0.0
 10
280.9452048091
 20
60.0701198447
 30
0.0
 10
281.1762737633
 20
60.0924503075
 30
0.0
 10
281.2922197586
 20
60.0886217774
 30
0.0
  0
SPLINE
  5
609
100
AcDbEntity
  8
0
100
AcDbSpline
 62
7
  6
CONTINUOUS
 70
0
 71
3
 72
17
 73
13
 74
0
 42
0.0000001
 43
0.0000001
 44
0.0000000001
 40
0.0
 40
0.0
 40
0.0
 40
0.0
 40
0.0484317717
 40
0.0978114068
 40
0.1489717798
 40
0.2025487127
 40
0.3180543393
 40
0.4451717454
 40
0.5815067737
 40
0.7228236193
 40
0.8640119373
 40
1.0
 40
1.0
 40
1.0
 40
1.0
 10
292.2235913625
 20
66.2380560354
 30
0.0
 10
292.1313788637
 20
66.265281255
 30
0.0
 10
291.9392731512
 20
66.3021404272
 30
0.0
 10
291.6419102253
 20
66.301661384
 30
0.0
 10
291.3394464848
 20
66.246112332
 30
0.0
 10
290.9266781538
 20
66.0968787694
 30
0.0
 10
290.4265945027
 20
65.7725316226
 30
0.0
 10
289.9072750706
 20
65.2204722264
 30
0.0
 10
289.4826700126
 20
64.5324519234
 30
0.0
 10
289.179788796
 20
63.7533322358
 30
0.0
 10
289.0179049942
 20
62.9342896387
 30
0.0
 10
289.0110988029
 20
62.3799484022
 30
0.0
 10
289.0362225976
 20
62.1111541614
 30
0.0
  0
SPLINE
  5
60A
100
AcDbEntity
  8
0
100
AcDbSpline
 62
7
  6
CONTINUOUS
 70
0
 71
3
 72
17
 73
13
 74
0
 42
0.0000001
 43
0.0000001
 44
0.0000000001
 40
0.0
 40
0.0
 40
0.0
 40
0.0
 40
0.0484317717
 40
0.0978114068
 40
0.1489717798
 40
0.2025487127
 40
0.3180543393
 40
0.4451717454
 40
0.5815067737
 40
0.7228236193
 40
0.8640119373
 40
1.0
 40
1.0
 40
1.0
 40
1.0
 10
293.0916936905
 20
56.9504102536
 30
0.0
 10
292.9994811918
 20
56.9776354732
 30
0.0
 10
292.8073754792
 20
57.0144946454
 30
0.0
 10
292.5100125534
 20
57.0140156022
 30
0.0
 10
292.2075488129
 20
56.9584665502
 30
0.0
 10
291.7947804819
 20
56.8092329876
 30
0.0
 10
291.2946968308
 20
56.4848858408
 30
0.0
 10
290.7753773987
 20
55.9328264446
 30
0.0
 10
290.3507723407
 20
55.2448061416
 30
0.0
 10
290.047891124
 20
54.465686454
 30
0.0
 10
289.8860073223
 20
53.6466438569
 30
0.0
 10
289.8792011309
 20
53.0923026204
 30
0.0
 10
289.9043249257
 20
52.8235083796
 30
0.0
  0
SPLINE
  5
60B
100
AcDbEntity
  8
0
100
AcDbSpline
 62
7
  6
CONTINUOUS
 70
0
 71
3
 72
13
 73
9
 74
0
 42
0.0000001
 43
0.0000001
 44
0.0000000001
 40
0.0
 40
0.0
 40
0.0
 40
0.0
 40
0.2851976132
 40
0.5444470196
 40
0.664818998
 40
0.779855157
 40
0.8909698327
 40
1.0
 40
1.0
 40
1.0
 40
1.0
 10
289.9043249257
 20
52.8235083796
 30
0.0
 10
289.9274536328
 20
52.5760591646
 30
0.0
 10
290.0176770149
 20
52.1060851114
 30
0.0
 10
290.2621550383
 20
51.5724410048
 30
0.0
 10
290.526187724
 20
51.2296202122
 30
0.0
 10
290.7481254947
 20
51.0226294135
 30
0.0
 10
290.9949700703
 20
50.8635694166
 30
0.0
 10
291.1741678785
 20
50.7913016423
 30
0.0
 10
291.2652906949
 20
50.7643981453
 30
0.0
  0
SPLINE
  5
60C
100
AcDbEntity
  8
0
100
AcDbSpline
 62
7
  6
CONTINUOUS
 70
0
 71
3
 72
13
 73
9
 74
0
 42
0.0000001
 43
0.0000001
 44
0.0000000001
 40
0.0
 40
0.0
 40
0.0
 40
0.0
 40
0.2851976132
 40
0.5444470196
 40
0.664818998
 40
0.779855157
 40
0.8909698327
 40
1.0
 40
1.0
 40
1.0
 40
1.0
 10
289.0362225976
 20
62.1111541614
 30
0.0
 10
289.0593513048
 20
61.8637049464
 30
0.0
 10
289.1495746869
 20
61.3937308932
 30
0.0
 10
289.3940527103
 20
60.8600867866
 30
0.0
 10
289.658085396
 20
60.517265994
 30
0.0
 10
289.8800231666
 20
60.3102751954
 30
0.0
 10
290.1268677422
 20
60.1512151984
 30
0.0
 10
290.3060655504
 20
60.0789474241
 30
0.0
 10
290.3971883668
 20
60.0520439271
 30
0.0
  0
SPLINE
  5
60D
100
AcDbEntity
  8
0
100
AcDbSpline
 62
7
  6
CONTINUOUS
 70
0
 71
3
 72
11
 73
7
 74
0
 42
0.0000001
 43
0.0000001
 44
0.0000000001
 40
0.0
 40
0.0
 40
0.0
 40
0.0
 40
0.2429622313
 40
0.4999992163
 40
0.7570356516
 40
1.0
 40
1.0
 40
1.0
 40
1.0
 10
282.5633792033
 20
59.5073514479
 30
0.0
 10
282.7646766769
 20
59.3295498581
 30
0.0
 10
283.1337737726
 20
58.9109747854
 30
0.0
 10
283.5531178155
 20
58.1811405634
 30
0.0
 10
283.8273481613
 20
57.3853306919
 30
0.0
 10
283.9000573612
 20
56.832020231
 30
0.0
 10
283.9016858492
 20
56.5634449467
 30
0.0
  0
SPLINE
  5
60E
100
AcDbEntity
  8
0
100
AcDbSpline
 62
7
  6
CONTINUOUS
 70
0
 71
3
 72
9
 73
5
 74
0
 42
0.0000001
 43
0.0000001
 44
0.0000000001
 40
0.0
 40
0.0
 40
0.0
 40
0.0
 40
0.2612944196
 40
1.0
 40
1.0
 40
1.0
 40
1.0
 10
282.5569352184
 20
59.5040172105
 30
0.0
 10
282.5192698275
 20
59.5327720912
 30
0.0
 10
282.3721426467
 20
59.6387794152
 30
0.0
 10
282.212486996
 20
59.7280529892
 30
0.0
 10
282.0890614413
 20
59.7801440945
 30
0.0
  0
SPLINE
  5
60F
100
AcDbEntity
  8
0
100
AcDbSpline
 62
7
  6
CONTINUOUS
 70
0
 71
3
 72
11
 73
7
 74
0
 42
0.0000001
 43
0.0000001
 44
0.0000000001
 40
0.0
 40
0.0
 40
0.0
 40
0.0
 40
0.2205069112
 40
0.4552888058
 40
0.7139707898
 40
1.0
 40
1.0
 40
1.0
 40
1.0
 10
283.1626417195
 20
55.2574728072
 30
0.0
 10
283.2675466897
 20
55.3051790449
 30
0.0
 10
283.4680054434
 20
55.4432283884
 30
0.0
 10
283.6939018045
 20
55.7469313678
 30
0.0
 10
283.8424400042
 20
56.1304953362
 30
0.0
 10
283.8854552432
 20
56.4140825026
 30
0.0
 10
283.8950902379
 20
56.5632583728
 30
0.0
  0
SPLINE
  5
610
100
AcDbEntity
  8
0
100
AcDbSpline
 62
7
  6
CONTINUOUS
 70
0
 71
3
 72
9
 73
5
 74
0
 42
0.0000001
 43
0.0000001
 44
0.0000000001
 40
0.0
 40
0.0
 40
0.0
 40
0.0
 40
0.274144983
 40
1.0
 40
1.0
 40
1.0
 40
1.0
 10
282.0890614413
 20
59.7801440945
 30
0.0
 10
282.087160709
 20
59.7874928796
 30
0.0
 10
282.0800796197
 20
59.8142601092
 30
0.0
 10
282.072398264
 20
59.8408724032
 30
0.0
 10
282.0663546114
 20
59.8600398776
 30
0.0
  0
LINE
  5
611
100
AcDbEntity
  8
0
100
AcDbLine
 62
7
  6
CONTINUOUS
 10
282.5406495797
 20
54.7856569162
 11
282.5306084816
 21
54.9700051129
  0
SPLINE
  5
612
100
AcDbEntity
  8
0
100
AcDbSpline
 62
7
  6
CONTINUOUS
 70
0
 71
3
 72
11
 73
7
 74
0
 42
0.0000001
 43
0.0000001
 44
0.0000000001
 40
0.0
 40
0.0
 40
0.0
 40
0.0
 40
0.2320383362
 40
0.4858768955
 40
0.7473403378
 40
1.0
 40
1.0
 40
1.0
 40
1.0
 10
289.0271849111
 20
62.5240697498
 30
0.0
 10
289.1636503305
 20
62.622148977
 30
0.0
 10
289.4136208671
 20
62.8786563561
 30
0.0
 10
289.6802117487
 20
63.3553010146
 30
0.0
 10
289.8347480625
 20
63.8944617031
 30
0.0
 10
289.8518507572
 20
64.2710808849
 30
0.0
 10
289.8348212144
 20
64.4532764123
 30
0.0
  0
SPLINE
  5
613
100
AcDbEntity
  8
0
100
AcDbSpline
 62
7
  6
CONTINUOUS
 70
0
 71
3
 72
13
 73
9
 74
0
 42
0.0000001
 43
0.0000001
 44
0.0000000001
 40
0.0
 40
0.0
 40
0.0
 40
0.0
 40
0.2851976132
 40
0.5444470196
 40
0.664818998
 40
0.779855157
 40
0.8909698327
 40
1.0
 40
1.0
 40
1.0
 40
1.0
 10
294.4526594598
 20
54.8913000193
 30
0.0
 10
294.4295307526
 20
55.1387492343
 30
0.0
 10
294.3393073705
 20
55.6087232875
 30
0.0
 10
294.0948293471
 20
56.1423673941
 30
0.0
 10
293.8307966614
 20
56.4851881867
 30
0.0
 10
293.6088588907
 20
56.6921789853
 30
0.0
 10
293.3620143151
 20
56.8512389823
 30
0.0
 10
293.1828165069
 20
56.9235067566
 30
0.0
 10
293.0916936905
 20
56.9504102536
 30
0.0
  0
SPLINE
  5
614
100
AcDbEntity
  8
0
100
AcDbSpline
 62
7
  6
CONTINUOUS
 70
0
 71
3
 72
9
 73
5
 74
0
 42
0.0000001
 43
0.0000001
 44
0.0000000001
 40
0.0
 40
0.0
 40
0.0
 40
0.0
 40
0.2400314875
 40
1.0
 40
1.0
 40
1.0
 40
1.0
 10
289.7314536266
 20
64.9047248909
 30
0.0
 10
289.744946621
 20
64.8701394204
 30
0.0
 10
289.7954666904
 20
64.723849559
 30
0.0
 10
289.8238825975
 20
64.5703063938
 30
0.0
 10
289.8348212144
 20
64.4532764123
 30
0.0
  0
SPLINE
  5
615
100
AcDbEntity
  8
0
100
AcDbSpline
 62
7
  6
CONTINUOUS
 70
0
 71
3
 72
13
 73
9
 74
0
 42
0.0000001
 43
0.0000001
 44
0.0000000001
 40
0.0
 40
0.0
 40
0.0
 40
0.0
 40
0.2851976132
 40
0.5444470196
 40
0.664818998
 40
0.779855157
 40
0.8909698327
 40
1.0
 40
1.0
 40
1.0
 40
1.0
 10
293.5845571317
 20
64.1789458011
 30
0.0
 10
293.5614284245
 20
64.4263950161
 30
0.0
 10
293.4712050425
 20
64.8963690693
 30
0.0
 10
293.2267270191
 20
65.4300131759
 30
0.0
 10
292.9626943333
 20
65.7728339685
 30
0.0
 10
292.7407565627
 20
65.9798247672
 30
0.0
 10
292.4939119871
 20
66.1388847641
 30
0.0
 10
292.3147141789
 20
66.2111525384
 30
0.0
 10
292.2235913625
 20
66.2380560354
 30
0.0
  0
SPLINE
  5
616
100
AcDbEntity
  8
0
100
AcDbSpline
 62
7
  6
CONTINUOUS
 70
0
 71
3
 72
14
 73
10
 74
0
 42
0.0000001
 43
0.0000001
 44
0.0000000001
 40
0.0
 40
0.0
 40
0.0
 40
0.0
 40
0.2931365033
 40
0.4251381728
 40
0.5478608694
 40
0.663268102
 40
0.7744798114
 40
0.8854100932
 40
1.0
 40
1.0
 40
1.0
 40
1.0
 10
283.9016858492
 20
56.5634449467
 30
0.0
 10
283.9031773155
 20
56.317467709
 30
0.0
 10
283.864258038
 20
55.9562935776
 30
0.0
 10
283.7040438264
 20
55.5232618689
 30
0.0
 10
283.542755141
 20
55.2553054982
 30
0.0
 10
283.3393841258
 20
55.0406286385
 30
0.0
 10
283.0985595929
 20
54.8859549682
 30
0.0
 10
282.8274722073
 20
54.7966299818
 30
0.0
 10
282.6367538613
 20
54.7824835583
 30
0.0
 10
282.5406495797
 20
54.7856569162
 30
0.0
  0
SPLINE
  5
617
100
AcDbEntity
  8
0
100
AcDbSpline
 62
7
  6
CONTINUOUS
 70
0
 71
3
 72
17
 73
13
 74
0
 42
0.0000001
 43
0.0000001
 44
0.0000000001
 40
0.0
 40
0.0
 40
0.0
 40
0.0
 40
0.0484317717
 40
0.0978114068
 40
0.1489717798
 40
0.2025487127
 40
0.3180543393
 40
0.4451717454
 40
0.5815067737
 40
0.7228236193
 40
0.8640119373
 40
1.0
 40
1.0
 40
1.0
 40
1.0
 10
290.3971883668
 20
60.0520439271
 30
0.0
 10
290.4894008656
 20
60.0248187075
 30
0.0
 10
290.6815065782
 20
59.9879595353
 30
0.0
 10
290.978869504
 20
59.9884385785
 30
0.0
 10
291.2813332445
 20
60.0439876305
 30
0.0
 10
291.6941015755
 20
60.1932211931
 30
0.0
 10
292.1941852266
 20
60.5175683399
 30
0.0
 10
292.7135046587
 20
61.0696277361
 30
0.0
 10
293.1381097167
 20
61.7576480391
 30
0.0
 10
293.4409909334
 20
62.5367677267
 30
0.0
 10
293.6028747351
 20
63.3558103238
 30
0.0
 10
293.6096809264
 20
63.9101515603
 30
0.0
 10
293.5845571317
 20
64.1789458011
 30
0.0
  0
SPLINE
  5
618
100
AcDbEntity
  8
0
100
AcDbSpline
 62
7
  6
CONTINUOUS
 70
0
 71
3
 72
9
 73
5
 74
0
 42
0.0000001
 43
0.0000001
 44
0.0000000001
 40
0.0
 40
0.0
 40
0.0
 40
0.0
 40
0.2400314875
 40
1.0
 40
1.0
 40
1.0
 40
1.0
 10
290.5995559547
 20
55.6170791091
 30
0.0
 10
290.6130489491
 20
55.5824936386
 30
0.0
 10
290.6635690185
 20
55.4362037771
 30
0.0
 10
290.6919849255
 20
55.282660612
 30
0.0
 10
290.7029235425
 20
55.1656306305
 30
0.0
  0
SPLINE
  5
619
100
AcDbEntity
  8
0
100
AcDbSpline
 62
7
  6
CONTINUOUS
 70
0
 71
3
 72
17
 73
13
 74
0
 42
0.0000001
 43
0.0000001
 44
0.0000000001
 40
0.0
 40
0.0
 40
0.0
 40
0.0
 40
0.0484317717
 40
0.0978114068
 40
0.1489717798
 40
0.2025487127
 40
0.3180543393
 40
0.4451717454
 40
0.5815067737
 40
0.7228236193
 40
0.8640119373
 40
1.0
 40
1.0
 40
1.0
 40
1.0
 10
291.2652906949
 20
50.7643981453
 30
0.0
 10
291.3575031937
 20
50.7371729257
 30
0.0
 10
291.5496089062
 20
50.7003137535
 30
0.0
 10
291.8469718321
 20
50.7007927967
 30
0.0
 10
292.1494355725
 20
50.7563418487
 30
0.0
 10
292.5622039036
 20
50.9055754113
 30
0.0
 10
293.0622875547
 20
51.2299225581
 30
0.0
 10
293.5816069868
 20
51.7819819543
 30
0.0
 10
294.0062120448
 20
52.4700022573
 30
0.0
 10
294.3090932614
 20
53.2491219449
 30
0.0
 10
294.4709770632
 20
54.068164542
 30
0.0
 10
294.4777832545
 20
54.6225057785
 30
0.0
 10
294.4526594598
 20
54.8913000193
 30
0.0
  0
SPLINE
  5
61A
100
AcDbEntity
  8
0
100
AcDbSpline
 62
7
  6
CONTINUOUS
 70
0
 71
3
 72
9
 73
5
 74
0
 42
0.0000001
 43
0.0000001
 44
0.0000000001
 40
0.0
 40
0.0
 40
0.0
 40
0.0
 40
0.2386120046
 40
1.0
 40
1.0
 40
1.0
 40
1.0
 10
290.7035136084
 20
65.9373297836
 30
0.0
 10
290.7356303029
 20
65.8636079731
 30
0.0
 10
290.8560526597
 20
65.5485144064
 30
0.0
 10
290.9215817731
 20
65.2136816018
 30
0.0
 10
290.9454610425
 20
64.9582022778
 30
0.0
  0
SPLINE
  5
61B
100
AcDbEntity
  8
0
100
AcDbSpline
 62
7
  6
CONTINUOUS
 70
0
 71
3
 72
12
 73
8
 74
0
 42
0.0000001
 43
0.0000001
 44
0.0000000001
 40
0.0
 40
0.0
 40
0.0
 40
0.0
 40
0.2300259246
 40
0.3548944087
 40
0.4840337072
 40
0.7463272954
 40
1.0
 40
1.0
 40
1.0
 40
1.0
 10
290.147916289
 20
51.8397867144
 30
0.0
 10
290.4264424353
 20
52.0237886642
 30
0.0
 10
290.8042002619
 20
52.3900538821
 30
0.0
 10
291.2006551713
 20
52.9708497855
 30
0.0
 10
291.5413810581
 20
53.6404847815
 30
0.0
 10
291.8104278042
 20
54.5464836301
 30
0.0
 10
291.8478228959
 20
55.3040209789
 30
0.0
 10
291.8135633706
 20
55.670556496
 30
0.0
  0
SPLINE
  5
61C
100
AcDbEntity
  8
0
100
AcDbSpline
 62
7
  6
CONTINUOUS
 70
0
 71
3
 72
11
 73
7
 74
0
 42
0.0000001
 43
0.0000001
 44
0.0000000001
 40
0.0
 40
0.0
 40
0.0
 40
0.0
 40
0.2320383362
 40
0.4858768955
 40
0.7473403378
 40
1.0
 40
1.0
 40
1.0
 40
1.0
 10
289.8952872392
 20
53.2364239679
 30
0.0
 10
290.0317526586
 20
53.3345031952
 30
0.0
 10
290.2817231952
 20
53.5910105743
 30
0.0
 10
290.5483140767
 20
54.0676552328
 30
0.0
 10
290.7028503906
 20
54.6068159212
 30
0.0
 10
290.7199530853
 20
54.9834351031
 30
0.0
 10
290.7029235425
 20
55.1656306305
 30
0.0
  0
SPLINE
  5
61D
100
AcDbEntity
  8
0
100
AcDbSpline
 62
7
  6
CONTINUOUS
 70
0
 71
3
 72
9
 73
5
 74
0
 42
0.0000001
 43
0.0000001
 44
0.0000000001
 40
0.0
 40
0.0
 40
0.0
 40
0.0
 40
0.2386120046
 40
1.0
 40
1.0
 40
1.0
 40
1.0
 10
291.5716159364
 20
56.6496840018
 30
0.0
 10
291.603732631
 20
56.5759621913
 30
0.0
 10
291.7241549877
 20
56.2608686245
 30
0.0
 10
291.7896841011
 20
55.9260358199
 30
0.0
 10
291.8135633706
 20
55.670556496
 30
0.0
  0
SPLINE
  5
61E
100
AcDbEntity
  8
0
100
AcDbSpline
 62
7
  6
CONTINUOUS
 70
0
 71
3
 72
12
 73
8
 74
0
 42
0.0000001
 43
0.0000001
 44
0.0000000001
 40
0.0
 40
0.0
 40
0.0
 40
0.0
 40
0.2300259246
 40
0.3548944087
 40
0.4840337072
 40
0.7463272954
 40
1.0
 40
1.0
 40
1.0
 40
1.0
 10
289.279813961
 20
61.1274324962
 30
0.0
 10
289.5583401073
 20
61.3114344461
 30
0.0
 10
289.9360979338
 20
61.6776996639
 30
0.0
 10
290.3325528432
 20
62.2584955673
 30
0.0
 10
290.67327873
 20
62.9281305633
 30
0.0
 10
290.9423254762
 20
63.8341294119
 30
0.0
 10
290.9797205678
 20
64.5916667607
 30
0.0
 10
290.9454610425
 20
64.9582022778
 30
0.0
  0
SPLINE
  5
61F
100
AcDbEntity
  8
0
100
AcDbSpline
 62
7
  6
CONTINUOUS
 70
0
 71
3
 72
9
 73
5
 74
0
 42
0.0000001
 43
0.0000001
 44
0.0000000001
 40
0.0
 40
0.0
 40
0.0
 40
0.0
 40
0.2412454956
 40
1.0
 40
1.0
 40
1.0
 40
1.0
 10
282.1192544443
 20
59.8303131835
 30
0.0
 10
282.1575064347
 20
59.808166608
 30
0.0
 10
282.3135159808
 20
59.7119858188
 30
0.0
 10
282.4591864571
 20
59.5993825877
 30
0.0
 10
282.5633792033
 20
59.5073514479
 30
0.0
  0
SPLINE
  5
620
100
AcDbEntity
  8
0
100
AcDbSpline
 62
7
  6
CONTINUOUS
 70
0
 71
3
 72
9
 73
5
 74
0
 42
0.0000001
 43
0.0000001
 44
0.0000000001
 40
0.0
 40
0.0
 40
0.0
 40
0.0
 40
0.4744091205
 40
1.0
 40
1.0
 40
1.0
 40
1.0
 10
268.9337772138
 20
35.766800302
 30
0.0
 10
268.9378254599
 20
35.7234962548
 30
0.0
 10
268.9645016352
 20
35.6333347819
 30
0.0
 10
269.0193910834
 20
35.5580746061
 30
0.0
 10
269.0520523729
 20
35.5226480078
 30
0.0
  0
SPLINE
  5
621
100
AcDbEntity
  8
0
100
AcDbSpline
 62
7
  6
CONTINUOUS
 70
0
 71
3
 72
15
 73
11
 74
0
 42
0.0000001
 43
0.0000001
 44
0.0000000001
 40
0.0
 40
0.0
 40
0.0
 40
0.0
 40
0.1421486245
 40
0.2676538299
 40
0.3808600217
 40
0.4881978997
 40
0.5974328262
 40
0.7158852688
 40
0.8489798027
 40
1.0
 40
1.0
 40
1.0
 40
1.0
 10
268.8817659225
 20
35.6221295097
 30
0.0
 10
268.8403710641
 20
35.6511570034
 30
0.0
 10
268.7659341567
 20
35.7112943363
 30
0.0
 10
268.6776847732
 20
35.8153681578
 30
0.0
 10
268.6221241617
 20
35.9268402846
 30
0.0
 10
268.6016706253
 20
36.0441420153
 30
0.0
 10
268.6173417206
 20
36.1639512926
 30
0.0
 10
268.6676711419
 20
36.2833459314
 30
0.0
 10
268.7505514724
 20
36.4010999427
 30
0.0
 10
268.8218504707
 20
36.4732902202
 30
0.0
 10
268.861829623
 20
36.5091623859
 30
0.0
  0
SPLINE
  5
622
100
AcDbEntity
  8
0
100
AcDbSpline
 62
7
  6
CONTINUOUS
 70
0
 71
3
 72
10
 73
6
 74
0
 42
0.0000001
 43
0.0000001
 44
0.0000000001
 40
0.0
 40
0.0
 40
0.0
 40
0.0
 40
0.2393217106
 40
0.4834084959
 40
1.0
 40
1.0
 40
1.0
 40
1.0
 10
273.9538224899
 20
29.4873525756
 30
0.0
 10
273.8605184545
 20
29.5148985617
 30
0.0
 10
273.6659671917
 20
29.5519394734
 30
0.0
 10
273.2575823786
 20
29.5501479131
 30
0.0
 10
272.9532188161
 20
29.461620178
 30
0.0
 10
272.7620507598
 20
29.374710188
 30
0.0
  0
SPLINE
  5
623
100
AcDbEntity
  8
0
100
AcDbSpline
 62
7
  6
CONTINUOUS
 70
0
 71
3
 72
10
 73
6
 74
0
 42
0.0000001
 43
0.0000001
 44
0.0000000001
 40
0.0
 40
0.0
 40
0.0
 40
0.0
 40
0.2393217106
 40
0.4834084959
 40
1.0
 40
1.0
 40
1.0
 40
1.0
 10
281.0407623453
 20
32.7092604794
 30
0.0
 10
280.9474583099
 20
32.7368064655
 30
0.0
 10
280.7529070472
 20
32.7738473772
 30
0.0
 10
280.344522234
 20
32.7720558169
 30
0.0
 10
280.0401586715
 20
32.6835280818
 30
0.0
 10
279.8489906153
 20
32.5966180919
 30
0.0
  0
SPLINE
  5
624
100
AcDbEntity
  8
0
100
AcDbSpline
 62
7
  6
CONTINUOUS
 70
0
 71
3
 72
18
 73
14
 74
0
 42
0.0000001
 43
0.0000001
 44
0.0000000001
 40
0.0
 40
0.0
 40
0.0
 40
0.0
 40
0.1178088865
 40
0.1822992965
 40
0.2498116774
 40
0.3905309259
 40
0.5327414528
 40
0.6685493615
 40
0.7918091816
 40
0.8480879691
 40
0.9009646399
 40
0.951206338
 40
1.0
 40
1.0
 40
1.0
 40
1.0
 10
279.8489906153
 20
32.5966180919
 30
0.0
 10
279.5864472086
 20
32.477259004
 30
0.0
 10
279.2147383167
 20
32.2122020562
 30
0.0
 10
278.800098667
 20
31.7617980944
 30
0.0
 10
278.4135503774
 20
31.2151963033
 30
0.0
 10
278.0480520839
 20
30.4303068554
 30
0.0
 10
277.823678622
 20
29.4218172506
 30
0.0
 10
277.8286518674
 20
28.4308098298
 30
0.0
 10
278.0341397837
 20
27.6734198292
 30
0.0
 10
278.318477017
 20
27.1773043597
 30
0.0
 10
278.5750274205
 20
26.8796441153
 30
0.0
 10
278.8747794472
 20
26.6544686186
 30
0.0
 10
279.0997981995
 20
26.5570694527
 30
0.0
 10
279.2143591853
 20
26.5232478145
 30
0.0
  0
SPLINE
  5
625
100
AcDbEntity
  8
0
100
AcDbSpline
 62
7
  6
CONTINUOUS
 70
0
 71
3
 72
18
 73
14
 74
0
 42
0.0000001
 43
0.0000001
 44
0.0000000001
 40
0.0
 40
0.0
 40
0.0
 40
0.0
 40
0.1178088865
 40
0.1822992965
 40
0.2498116774
 40
0.3905309259
 40
0.5327414528
 40
0.6685493615
 40
0.7918091816
 40
0.8480879691
 40
0.9009646399
 40
0.951206338
 40
1.0
 40
1.0
 40
1.0
 40
1.0
 10
272.7620507598
 20
29.374710188
 30
0.0
 10
272.4995073532
 20
29.2553511002
 30
0.0
 10
272.1277984613
 20
28.9902941524
 30
0.0
 10
271.7131588116
 20
28.5398901906
 30
0.0
 10
271.326610522
 20
27.9932883995
 30
0.0
 10
270.9611122284
 20
27.2083989516
 30
0.0
 10
270.7367387666
 20
26.1999093468
 30
0.0
 10
270.741712012
 20
25.208901926
 30
0.0
 10
270.9471999282
 20
24.4515119254
 30
0.0
 10
271.2315371615
 20
23.9553964559
 30
0.0
 10
271.4880875651
 20
23.6577362115
 30
0.0
 10
271.7878395918
 20
23.4325607148
 30
0.0
 10
272.012858344
 20
23.3351615489
 30
0.0
 10
272.1274193299
 20
23.3013399107
 30
0.0
  0
SPLINE
  5
626
100
AcDbEntity
  8
0
100
AcDbSpline
 62
7
  6
CONTINUOUS
 70
0
 71
3
 72
15
 73
11
 74
0
 42
0.0000001
 43
0.0000001
 44
0.0000000001
 40
0.0
 40
0.0
 40
0.0
 40
0.0
 40
0.0855025541
 40
0.1906849504
 40
0.3129557125
 40
0.4479097355
 40
0.5900873183
 40
0.7334931688
 40
0.8720352503
 40
1.0
 40
1.0
 40
1.0
 40
1.0
 10
273.9897821112
 20
36.0993759783
 30
0.0
 10
273.9035893576
 20
36.0110126446
 30
0.0
 10
273.6801327449
 20
35.8449786648
 30
0.0
 10
273.2747578297
 20
35.6430048668
 30
0.0
 10
272.7797484411
 20
35.4698465683
 30
0.0
 10
272.2184848446
 20
35.3344058958
 30
0.0
 10
271.6175155897
 20
35.2433056705
 30
0.0
 10
271.0059579749
 20
35.2011321388
 30
0.0
 10
270.4135627176
 20
35.2098482753
 30
0.0
 10
270.0302023672
 20
35.2513053268
 30
0.0
 10
269.8480709973
 20
35.2822511599
 30
0.0
  0
SPLINE
  5
627
100
AcDbEntity
  8
0
100
AcDbSpline
 62
7
  6
CONTINUOUS
 70
0
 71
3
 72
9
 73
5
 74
0
 42
0.0000001
 43
0.0000001
 44
0.0000000001
 40
0.0
 40
0.0
 40
0.0
 40
0.0
 40
0.5240281821
 40
1.0
 40
1.0
 40
1.0
 40
1.0
 10
273.8468821155
 20
35.9797398314
 30
0.0
 10
273.8705985217
 20
36.019297952
 30
0.0
 10
273.9075293488
 20
36.1006801072
 30
0.0
 10
273.9159651439
 20
36.1904027246
 30
0.0
 10
273.9120658028
 20
36.2321139361
 30
0.0
  0
SPLINE
  5
628
100
AcDbEntity
  8
0
100
AcDbSpline
 62
7
  6
CONTINUOUS
 70
0
 71
3
 72
18
 73
14
 74
0
 42
0.0000001
 43
0.0000001
 44
0.0000000001
 40
0.0
 40
0.0
 40
0.0
 40
0.0
 40
0.1178088865
 40
0.1822992965
 40
0.2498116774
 40
0.3905309259
 40
0.5327414528
 40
0.6685493615
 40
0.7918091816
 40
0.8480879691
 40
0.9009646399
 40
0.951206338
 40
1.0
 40
1.0
 40
1.0
 40
1.0
 10
280.4061309154
 20
26.635890202
 30
0.0
 10
280.668674322
 20
26.7552492899
 30
0.0
 10
281.0403832139
 20
27.0203062377
 30
0.0
 10
281.4550228636
 20
27.4707101995
 30
0.0
 10
281.8415711532
 20
28.0173119906
 30
0.0
 10
282.2070694468
 20
28.8022014385
 30
0.0
 10
282.4314429086
 20
29.8106910433
 30
0.0
 10
282.4264696632
 20
30.8016984641
 30
0.0
 10
282.220981747
 20
31.5590884647
 30
0.0
 10
281.9366445137
 20
32.0552039342
 30
0.0
 10
281.6800941101
 20
32.3528641786
 30
0.0
 10
281.3803420834
 20
32.5780396752
 30
0.0
 10
281.1553233312
 20
32.6754388412
 30
0.0
 10
281.0407623453
 20
32.7092604794
 30
0.0
  0
SPLINE
  5
629
100
AcDbEntity
  8
0
100
AcDbSpline
 62
7
  6
CONTINUOUS
 70
0
 71
3
 72
10
 73
6
 74
0
 42
0.0000001
 43
0.0000001
 44
0.0000000001
 40
0.0
 40
0.0
 40
0.0
 40
0.0
 40
0.2393217106
 40
0.4834084959
 40
1.0
 40
1.0
 40
1.0
 40
1.0
 10
279.2143591853
 20
26.5232478145
 30
0.0
 10
279.3076632207
 20
26.4957018284
 30
0.0
 10
279.5022144835
 20
26.4586609167
 30
0.0
 10
279.9105992966
 20
26.4604524769
 30
0.0
 10
280.2149628591
 20
26.5489802121
 30
0.0
 10
280.4061309154
 20
26.635890202
 30
0.0
  0
SPLINE
  5
62A
100
AcDbEntity
  8
0
100
AcDbSpline
 62
7
  6
CONTINUOUS
 70
0
 71
3
 72
13
 73
9
 74
0
 42
0.0000001
 43
0.0000001
 44
0.0000000001
 40
0.0
 40
0.0
 40
0.0
 40
0.0
 40
0.236788732
 40
0.3666273328
 40
0.4999603813
 40
0.6332998072
 40
0.7631571349
 40
1.0
 40
1.0
 40
1.0
 40
1.0
 10
271.0105579606
 20
24.3770733237
 30
0.0
 10
271.3635654195
 20
24.6103195964
 30
0.0
 10
271.8263710184
 20
25.1032859895
 30
0.0
 10
272.267268049
 20
25.881470783
 30
0.0
 10
272.5196723458
 20
26.546832055
 30
0.0
 10
272.669554876
 20
27.2425277083
 30
0.0
 10
272.7225933404
 20
28.1355091389
 30
0.0
 10
272.6021627268
 20
28.8009669302
 30
0.0
 10
272.4327881809
 20
29.1887970661
 30
0.0
  0
SPLINE
  5
62B
100
AcDbEntity
  8
0
100
AcDbSpline
 62
7
  6
CONTINUOUS
 70
0
 71
3
 72
18
 73
14
 74
0
 42
0.0000001
 43
0.0000001
 44
0.0000000001
 40
0.0
 40
0.0
 40
0.0
 40
0.0
 40
0.1178088865
 40
0.1822992965
 40
0.2498116774
 40
0.3905309259
 40
0.5327414528
 40
0.6685493615
 40
0.7918091816
 40
0.8480879691
 40
0.9009646399
 40
0.951206338
 40
1.0
 40
1.0
 40
1.0
 40
1.0
 10
273.3191910599
 20
23.4139822982
 30
0.0
 10
273.5817344666
 20
23.5333413861
 30
0.0
 10
273.9534433585
 20
23.7983983339
 30
0.0
 10
274.3680830082
 20
24.2488022956
 30
0.0
 10
274.7546312978
 20
24.7954040867
 30
0.0
 10
275.1201295913
 20
25.5802935347
 30
0.0
 10
275.3445030532
 20
26.5887831394
 30
0.0
 10
275.3395298078
 20
27.5797905603
 30
0.0
 10
275.1340418916
 20
28.3371805609
 30
0.0
 10
274.8497046582
 20
28.8332960304
 30
0.0
 10
274.5931542547
 20
29.1309562748
 30
0.0
 10
274.293402228
 20
29.3561317714
 30
0.0
 10
274.0683834757
 20
29.4535309374
 30
0.0
 10
273.9538224899
 20
29.4873525756
 30
0.0
  0
SPLINE
  5
62C
100
AcDbEntity
  8
0
100
AcDbSpline
 62
7
  6
CONTINUOUS
 70
0
 71
3
 72
11
 73
7
 74
0
 42
0.0000001
 43
0.0000001
 44
0.0000000001
 40
0.0
 40
0.0
 40
0.0
 40
0.0
 40
0.2381951218
 40
0.4999560476
 40
0.7617432321
 40
1.0
 40
1.0
 40
1.0
 40
1.0
 10
270.7564682697
 20
25.7726833511
 30
0.0
 10
270.9264666761
 20
25.894598116
 30
0.0
 10
271.2276786148
 20
26.2294294434
 30
0.0
 10
271.507046174
 20
26.8464227669
 30
0.0
 10
271.608043414
 20
27.516210589
 30
0.0
 10
271.5372885498
 20
27.961052192
 30
0.0
 10
271.4609570956
 20
28.1558824568
 30
0.0
  0
SPLINE
  5
62D
100
AcDbEntity
  8
0
100
AcDbSpline
 62
7
  6
CONTINUOUS
 70
0
 71
3
 72
10
 73
6
 74
0
 42
0.0000001
 43
0.0000001
 44
0.0000000001
 40
0.0
 40
0.0
 40
0.0
 40
0.0
 40
0.2393217106
 40
0.4834084959
 40
1.0
 40
1.0
 40
1.0
 40
1.0
 10
272.1274193299
 20
23.3013399107
 30
0.0
 10
272.2207233653
 20
23.2737939246
 30
0.0
 10
272.415274628
 20
23.2367530129
 30
0.0
 10
272.8236594412
 20
23.2385445731
 30
0.0
 10
273.1280230037
 20
23.3270723083
 30
0.0
 10
273.3191910599
 20
23.4139822982
 30
0.0
  0
SPLINE
  5
62E
100
AcDbEntity
  8
0
100
AcDbSpline
 62
7
  6
CONTINUOUS
 70
0
 71
3
 72
15
 73
11
 74
0
 42
0.0000001
 43
0.0000001
 44
0.0000000001
 40
0.0
 40
0.0
 40
0.0
 40
0.0
 40
0.1504625948
 40
0.2831056742
 40
0.4013207232
 40
0.5105768645
 40
0.6181361693
 40
0.7316838494
 40
0.8575624382
 40
1.0
 40
1.0
 40
1.0
 40
1.0
 10
273.8522558911
 20
36.9706282461
 30
0.0
 10
273.8975037906
 20
36.942807911
 30
0.0
 10
273.9796530961
 20
36.8851664059
 30
0.0
 10
274.0810740098
 20
36.7850766546
 30
0.0
 10
274.1510616538
 20
36.6774666885
 30
0.0
 10
274.187453621
 20
36.5632011942
 30
0.0
 10
274.1882712503
 20
36.4448325835
 30
0.0
 10
274.1539803962
 20
36.3257426563
 30
0.0
 10
274.086637743
 20
36.2078432572
 30
0.0
 10
274.0248929451
 20
36.1353710034
 30
0.0
 10
273.9897821112
 20
36.0993759783
 30
0.0
  0
SPLINE
  5
62F
100
AcDbEntity
  8
0
100
AcDbSpline
 62
7
  6
CONTINUOUS
 70
0
 71
3
 72
11
 73
7
 74
0
 42
0.0000001
 43
0.0000001
 44
0.0000000001
 40
0.0
 40
0.0
 40
0.0
 40
0.0
 40
0.2381951218
 40
0.4999560476
 40
0.7617432321
 40
1.0
 40
1.0
 40
1.0
 40
1.0
 10
277.8434081252
 20
28.9945912549
 30
0.0
 10
278.0134065315
 20
29.1165060198
 30
0.0
 10
278.3146184702
 20
29.4513373472
 30
0.0
 10
278.5939860294
 20
30.0683306707
 30
0.0
 10
278.6949832694
 20
30.7381184928
 30
0.0
 10
278.6242284053
 20
31.1829600958
 30
0.0
 10
278.547896951
 20
31.3777903606
 30
0.0
  0
SPLINE
  5
630
100
AcDbEntity
  8
0
100
AcDbSpline
 62
7
  6
CONTINUOUS
 70
0
 71
3
 72
13
 73
9
 74
0
 42
0.0000001
 43
0.0000001
 44
0.0000000001
 40
0.0
 40
0.0
 40
0.0
 40
0.0
 40
0.236788732
 40
0.3666273328
 40
0.4999603813
 40
0.6332998072
 40
0.7631571349
 40
1.0
 40
1.0
 40
1.0
 40
1.0
 10
278.097497816
 20
27.5989812275
 30
0.0
 10
278.450505275
 20
27.8322275003
 30
0.0
 10
278.9133108738
 20
28.3251938933
 30
0.0
 10
279.3542079044
 20
29.1033786868
 30
0.0
 10
279.6066122012
 20
29.7687399588
 30
0.0
 10
279.7564947314
 20
30.4644356122
 30
0.0
 10
279.8095331959
 20
31.3574170427
 30
0.0
 10
279.6891025822
 20
32.022874834
 30
0.0
 10
279.5197280363
 20
32.4107049699
 30
0.0
  0
SPLINE
  5
631
100
AcDbEntity
  8
02___PRT_ALL_AXES
100
AcDbSpline
 62
7
  6
CONTINUOUS
 70
0
 71
3
 72
11
 73
7
 74
0
 42
0.0000001
 43
0.0000001
 44
0.0000000001
 40
0.0
 40
0.0
 40
0.0
 40
0.0
 40
0.2856941258
 40
0.5453925195
 40
0.7804368422
 40
1.0
 40
1.0
 40
1.0
 40
1.0
 10
280.3521769647
 20
72.1726388667
 30
0.0
 10
280.3647247905
 20
72.0383922951
 30
0.0
 10
280.413757778
 20
71.7832894043
 30
0.0
 10
280.5687804486
 20
71.4445402463
 30
0.0
 10
280.7958064484
 20
71.1874810657
 30
0.0
 10
280.9910449112
 20
71.0847409851
 30
0.0
 10
281.09042056
 20
71.0553826526
 30
0.0
  0
SPLINE
  5
632
100
AcDbEntity
  8
02___PRT_ALL_AXES
100
AcDbSpline
 62
7
  6
CONTINUOUS
 70
0
 71
3
 72
11
 73
7
 74
0
 42
0.0000001
 43
0.0000001
 44
0.0000000001
 40
0.0
 40
0.0
 40
0.0
 40
0.0
 40
0.2856941258
 40
0.5453925195
 40
0.7804368422
 40
1.0
 40
1.0
 40
1.0
 40
1.0
 10
282.5116354922
 20
49.0690423946
 30
0.0
 10
282.524183318
 20
48.9347958229
 30
0.0
 10
282.5732163055
 20
48.6796929321
 30
0.0
 10
282.7282389761
 20
48.3409437741
 30
0.0
 10
282.9552649759
 20
48.0838845935
 30
0.0
 10
283.1505034387
 20
47.981144513
 30
0.0
 10
283.2498790876
 20
47.9517861804
 30
0.0
  0
SPLINE
  5
633
100
AcDbEntity
  8
02___PRT_ALL_AXES
100
AcDbSpline
 62
7
  6
CONTINUOUS
 70
0
 71
3
 72
9
 73
5
 74
0
 42
0.0000001
 43
0.0000001
 44
0.0000000001
 40
0.0
 40
0.0
 40
0.0
 40
0.0
 40
0.253704102
 40
1.0
 40
1.0
 40
1.0
 40
1.0
 10
282.5031878158
 20
49.3283030902
 30
0.0
 10
282.5026266378
 20
49.3063663101
 30
0.0
 10
282.5016465914
 20
49.2198750927
 30
0.0
 10
282.5056282527
 20
49.1333125968
 30
0.0
 10
282.5116354922
 20
49.0690423946
 30
0.0
  0
SPLINE
  5
634
100
AcDbEntity
  8
02___PRT_ALL_AXES
100
AcDbSpline
 62
7
  6
CONTINUOUS
 70
0
 71
3
 72
9
 73
5
 74
0
 42
0.0000001
 43
0.0000001
 44
0.0000000001
 40
0.0
 40
0.0
 40
0.0
 40
0.0
 40
0.2698341832
 40
1.0
 40
1.0
 40
1.0
 40
1.0
 10
281.7646270359
 20
73.6063989363
 30
0.0
 10
281.7577922959
 20
73.6795223946
 30
0.0
 10
281.7182396486
 20
73.9484259959
 30
0.0
 10
281.6164726846
 20
74.2124225131
 30
0.0
 10
281.5002655797
 20
74.373638929
 30
0.0
  0
SPLINE
  5
635
100
AcDbEntity
  8
02___PRT_ALL_AXES
100
AcDbSpline
 62
7
  6
CONTINUOUS
 70
0
 71
3
 72
9
 73
5
 74
0
 42
0.0000001
 43
0.0000001
 44
0.0000000001
 40
0.0
 40
0.0
 40
0.0
 40
0.0
 40
0.2279207224
 40
1.0
 40
1.0
 40
1.0
 40
1.0
 10
282.7824305907
 20
48.2997153133
 30
0.0
 10
282.8585922666
 20
48.3294325011
 30
0.0
 10
283.1786999284
 20
48.4960496583
 30
0.0
 10
283.4266908629
 20
48.7793750561
 30
0.0
 10
283.5707997685
 20
49.0158678324
 30
0.0
  0
SPLINE
  5
636
100
AcDbEntity
  8
02___PRT_ALL_AXES
100
AcDbSpline
 62
7
  6
CONTINUOUS
 70
0
 71
3
 72
14
 73
10
 74
0
 42
0.0000001
 43
0.0000001
 44
0.0000000001
 40
0.0
 40
0.0
 40
0.0
 40
0.0
 40
0.0975673261
 40
0.2021532
 40
0.3178846325
 40
0.4452541409
 40
0.5818608425
 40
0.7234664965
 40
1.0
 40
1.0
 40
1.0
 40
1.0
 10
282.0820218762
 20
74.4119525598
 30
0.0
 10
281.9814171321
 20
74.4416740013
 30
0.0
 10
281.7586374205
 20
74.4613236497
 30
0.0
 10
281.4242878617
 20
74.3655233084
 30
0.0
 10
281.1069522565
 20
74.1596152445
 30
0.0
 10
280.8249324648
 20
73.8600448336
 30
0.0
 10
280.594445926
 20
73.4864287232
 30
0.0
 10
280.3775378448
 20
72.9290159665
 30
0.0
 10
280.3245070083
 20
72.46867396
 30
0.0
 10
280.3521769647
 20
72.1726388667
 30
0.0
  0
SPLINE
  5
637
100
AcDbEntity
  8
02___PRT_ALL_AXES
100
AcDbSpline
 62
7
  6
CONTINUOUS
 70
0
 71
3
 72
12
 73
8
 74
0
 42
0.0000001
 43
0.0000001
 44
0.0000000001
 40
0.0
 40
0.0
 40
0.0
 40
0.0
 40
0.22032761
 40
0.3434330514
 40
0.4728786667
 40
0.7400542459
 40
1.0
 40
1.0
 40
1.0
 40
1.0
 10
280.6229720632
 20
71.4033117855
 30
0.0
 10
280.8027657402
 20
71.473464686
 30
0.0
 10
281.0561908458
 20
71.6547825312
 30
0.0
 10
281.3235553982
 20
71.9717271413
 30
0.0
 10
281.5617217946
 20
72.3618798608
 30
0.0
 10
281.7537536188
 20
72.9115222592
 30
0.0
 10
281.7858173324
 20
73.3796883722
 30
0.0
 10
281.7646270359
 20
73.6063989363
 30
0.0
  0
SPLINE
  5
638
100
AcDbEntity
  8
02___PRT_ALL_AXES
100
AcDbSpline
 62
7
  6
CONTINUOUS
 70
0
 71
3
 72
12
 73
8
 74
0
 42
0.0000001
 43
0.0000001
 44
0.0000000001
 40
0.0
 40
0.0
 40
0.0
 40
0.0
 40
0.1062703827
 40
0.2152130401
 40
0.4485253864
 40
0.7106901302
 40
1.0
 40
1.0
 40
1.0
 40
1.0
 10
283.2498790876
 20
47.9517861804
 30
0.0
 10
283.3068985782
 20
47.9349410359
 30
0.0
 10
283.4265790741
 20
47.9136217049
 30
0.0
 10
283.6789926366
 20
47.9238835302
 30
0.0
 10
284.0046355531
 20
48.0423989955
 30
0.0
 10
284.3531731644
 20
48.3180007655
 30
0.0
 10
284.5422117673
 20
48.5659437779
 30
0.0
 10
284.6264382042
 20
48.7041652417
 30
0.0
  0
SPLINE
  5
639
100
AcDbEntity
  8
02___PRT_ALL_AXES
100
AcDbSpline
 62
7
  6
CONTINUOUS
 70
0
 71
3
 72
11
 73
7
 74
0
 42
0.0000001
 43
0.0000001
 44
0.0000000001
 40
0.0
 40
0.0
 40
0.0
 40
0.0
 40
0.2856941258
 40
0.5453925195
 40
0.7804368422
 40
1.0
 40
1.0
 40
1.0
 40
1.0
 10
282.8202654716
 20
73.2946963457
 30
0.0
 10
282.8077176457
 20
73.4289429173
 30
0.0
 10
282.7586846582
 20
73.6840458081
 30
0.0
 10
282.6036619877
 20
74.0227949661
 30
0.0
 10
282.3766359878
 20
74.2798541467
 30
0.0
 10
282.1813975251
 20
74.3825942273
 30
0.0
 10
282.0820218762
 20
74.4119525598
 30
0.0
  0
SPLINE
  5
63A
100
AcDbEntity
  8
02___PRT_ALL_AXES
100
AcDbSpline
 62
7
  6
CONTINUOUS
 70
0
 71
3
 72
14
 73
10
 74
0
 42
0.0000001
 43
0.0000001
 44
0.0000000001
 40
0.0
 40
0.0
 40
0.0
 40
0.0
 40
0.0975673261
 40
0.2021532
 40
0.3178846325
 40
0.4452541409
 40
0.5818608425
 40
0.7234664965
 40
1.0
 40
1.0
 40
1.0
 40
1.0
 10
281.09042056
 20
71.0553826526
 30
0.0
 10
281.1910253041
 20
71.0256612111
 30
0.0
 10
281.4138050157
 20
71.0060115627
 30
0.0
 10
281.7481545746
 20
71.101811904
 30
0.0
 10
282.0654901797
 20
71.3077199679
 30
0.0
 10
282.3475099714
 20
71.6072903788
 30
0.0
 10
282.5779965103
 20
71.9809064892
 30
0.0
 10
282.7949045915
 20
72.5383192459
 30
0.0
 10
282.8479354279
 20
72.9986612524
 30
0.0
 10
282.8202654716
 20
73.2946963457
 30
0.0
  0
SPLINE
  5
63B
100
AcDbEntity
  8
02___PRT_ALL_AXES
100
AcDbSpline
 62
7
  6
CONTINUOUS
 70
0
 71
3
 72
16
 73
12
 74
0
 42
0.0000001
 43
0.0000001
 44
0.0000000001
 40
0.0
 40
0.0
 40
0.0
 40
0.0
 40
0.1179111728
 40
0.2497315348
 40
0.3905635784
 40
0.5328857873
 40
0.6687982867
 40
0.7921499949
 40
0.9008872084
 40
0.9511673359
 40
1.0
 40
1.0
 40
1.0
 40
1.0
 10
258.5398363836
 20
28.2958460888
 30
0.0
 10
258.3973502442
 20
28.2310681694
 30
0.0
 10
258.1217639478
 20
28.034472123
 30
0.0
 10
257.7972332647
 20
27.6238451727
 30
0.0
 10
257.5625516182
 20
27.1202926944
 30
0.0
 10
257.440735429
 20
26.5730065242
 30
0.0
 10
257.4438508158
 20
26.0348123688
 30
0.0
 10
257.5726775294
 20
25.5569954769
 30
0.0
 10
257.7889518375
 20
25.2382510411
 30
0.0
 10
258.0113777957
 20
25.071325591
 30
0.0
 10
258.1335121407
 20
25.0185160979
 30
0.0
 10
258.195682961
 20
25.0001658681
 30
0.0
  0
SPLINE
  5
63C
100
AcDbEntity
  8
02___PRT_ALL_AXES
100
AcDbSpline
 62
7
  6
CONTINUOUS
 70
0
 71
3
 72
13
 73
9
 74
0
 42
0.0000001
 43
0.0000001
 44
0.0000000001
 40
0.0
 40
0.0
 40
0.0
 40
0.0
 40
0.2337791404
 40
0.366076545
 40
0.502974914
 40
0.6394036524
 40
0.7703680443
 40
1.0
 40
1.0
 40
1.0
 40
1.0
 10
257.7865221418
 20
25.3730451733
 30
0.0
 10
258.0260415664
 20
25.4819369578
 30
0.0
 10
258.3462472287
 20
25.7746664544
 30
0.0
 10
258.6382955375
 20
26.2600380378
 30
0.0
 10
258.8004187469
 20
26.6899282973
 30
0.0
 10
258.8829003626
 20
27.1404633547
 30
0.0
 10
258.8817657082
 20
27.7001203675
 30
0.0
 10
258.7556225405
 20
28.1100277167
 30
0.0
 10
258.6043349238
 20
28.3195621505
 30
0.0
  0
SPLINE
  5
63D
100
AcDbEntity
  8
02___PRT_ALL_AXES
100
AcDbSpline
 62
7
  6
CONTINUOUS
 70
0
 71
3
 72
9
 73
5
 74
0
 42
0.0000001
 43
0.0000001
 44
0.0000000001
 40
0.0
 40
0.0
 40
0.0
 40
0.0
 40
0.4822498619
 40
1.0
 40
1.0
 40
1.0
 40
1.0
 10
259.1863140002
 20
28.3570228034
 30
0.0
 10
259.0845490176
 20
28.3870595764
 30
0.0
 10
258.8590136757
 20
28.4063284595
 30
0.0
 10
258.6435385801
 20
28.342991815
 30
0.0
 10
258.5398363836
 20
28.2958460888
 30
0.0
  0
SPLINE
  5
63E
100
AcDbEntity
  8
02___PRT_ALL_AXES
100
AcDbSpline
 62
7
  6
CONTINUOUS
 70
0
 71
3
 72
16
 73
12
 74
0
 42
0.0000001
 43
0.0000001
 44
0.0000000001
 40
0.0
 40
0.0
 40
0.0
 40
0.0
 40
0.1179111728
 40
0.2497315348
 40
0.3905635784
 40
0.5328857873
 40
0.6687982867
 40
0.7921499949
 40
0.9008872084
 40
0.9511673359
 40
1.0
 40
1.0
 40
1.0
 40
1.0
 10
258.8421605775
 20
25.0613425827
 30
0.0
 10
258.9846467169
 20
25.1261205021
 30
0.0
 10
259.2602330133
 20
25.3227165484
 30
0.0
 10
259.5847636965
 20
25.7333434988
 30
0.0
 10
259.8194453429
 20
26.2368959771
 30
0.0
 10
259.9412615322
 20
26.7841821473
 30
0.0
 10
259.9381461454
 20
27.3223763027
 30
0.0
 10
259.8093194317
 20
27.8001931946
 30
0.0
 10
259.5930451236
 20
28.1189376304
 30
0.0
 10
259.3706191654
 20
28.2858630805
 30
0.0
 10
259.2484848204
 20
28.3386725736
 30
0.0
 10
259.1863140002
 20
28.3570228034
 30
0.0
  0
SPLINE
  5
63F
100
AcDbEntity
  8
02___PRT_ALL_AXES
100
AcDbSpline
 62
7
  6
CONTINUOUS
 70
0
 71
3
 72
9
 73
5
 74
0
 42
0.0000001
 43
0.0000001
 44
0.0000000001
 40
0.0
 40
0.0
 40
0.0
 40
0.0
 40
0.4822498619
 40
1.0
 40
1.0
 40
1.0
 40
1.0
 10
258.195682961
 20
25.0001658681
 30
0.0
 10
258.2974479435
 20
24.9701290951
 30
0.0
 10
258.5229832854
 20
24.9508602119
 30
0.0
 10
258.738458381
 20
25.0141968564
 30
0.0
 10
258.8421605775
 20
25.0613425827
 30
0.0
  0
SPLINE
  5
640
100
AcDbEntity
  8
0
100
AcDbSpline
 62
7
  6
CONTINUOUS
 70
0
 71
3
 72
9
 73
5
 74
0
 42
0.0000001
 43
0.0000001
 44
0.0000000001
 40
0.0
 40
0.0
 40
0.0
 40
0.0
 40
0.5076287412
 40
1.0
 40
1.0
 40
1.0
 40
1.0
 10
273.2658234144
 20
55.6940823416
 30
0.0
 10
273.6723469505
 20
56.057726262
 30
0.0
 10
274.5224825596
 20
56.7213407173
 30
0.0
 10
275.463992282
 20
57.249920817
 30
0.0
 10
275.9455981674
 20
57.4688714277
 30
0.0
  0
SPLINE
  5
641
100
AcDbEntity
  8
0
100
AcDbSpline
 62
7
  6
CONTINUOUS
 70
0
 71
3
 72
15
 73
11
 74
0
 42
0.0000001
 43
0.0000001
 44
0.0000000001
 40
0.0
 40
0.0
 40
0.0
 40
0.0
 40
0.128651908
 40
0.2643409784
 40
0.4030129292
 40
0.5405614561
 40
0.672899562
 40
0.7960064598
 40
0.9060927865
 40
1.0
 40
1.0
 40
1.0
 40
1.0
 10
273.2815102042
 20
42.9783644626
 30
0.0
 10
273.2352136958
 20
43.473681151
 30
0.0
 10
273.2213687738
 20
44.5001333783
 30
0.0
 10
273.417203632
 20
46.0506136634
 30
0.0
 10
273.8241289086
 20
47.5953420305
 30
0.0
 10
274.4241363976
 20
49.0617886912
 30
0.0
 10
275.1862558635
 20
50.3821772153
 30
0.0
 10
276.0665521112
 20
51.4953655512
 30
0.0
 10
277.0059290941
 20
52.351096241
 30
0.0
 10
277.6843516008
 20
52.7668936231
 30
0.0
 10
278.0149171434
 20
52.9171773501
 30
0.0
  0
SPLINE
  5
642
100
AcDbEntity
  8
0
100
AcDbSpline
 62
7
  6
CONTINUOUS
 70
0
 71
3
 72
9
 73
5
 74
0
 42
0.0000001
 43
0.0000001
 44
0.0000000001
 40
0.0
 40
0.0
 40
0.0
 40
0.0
 40
0.2448280621
 40
1.0
 40
1.0
 40
1.0
 40
1.0
 10
268.3032090323
 20
42.513050115
 30
0.0
 10
268.2495262834
 20
43.0873906505
 30
0.0
 10
268.1721394284
 20
45.4452821495
 30
0.0
 10
268.6281661636
 20
47.8133245003
 30
0.0
 10
269.2257535785
 20
49.4892442563
 30
0.0
  0
SPLINE
  5
643
100
AcDbEntity
  8
0
100
AcDbSpline
 62
7
  6
CONTINUOUS
 70
0
 71
3
 72
17
 73
13
 74
0
 42
0.0000001
 43
0.0000001
 44
0.0000000001
 40
0.0
 40
0.0
 40
0.0
 40
0.0
 40
0.1155258129
 40
0.247621126
 40
0.3906766568
 40
0.5359960963
 40
0.6743299807
 40
0.7982341423
 40
0.8538267801
 40
0.9053077189
 40
0.9535547336
 40
1.0
 40
1.0
 40
1.0
 40
1.0
 10
276.7643118027
 20
57.5033840361
 30
0.0
 10
276.972607672
 20
57.4418796802
 30
0.0
 10
277.3922862806
 20
57.2176159436
 30
0.0
 10
277.9240936313
 20
56.7018627949
 30
0.0
 10
278.3596265368
 20
56.0349317655
 30
0.0
 10
278.6547842495
 20
55.2828488375
 30
0.0
 10
278.7808564804
 20
54.5211860639
 30
0.0
 10
278.7307432361
 20
53.9163375461
 30
0.0
 10
278.5867607878
 20
53.5043190086
 30
0.0
 10
278.4377711155
 20
53.2506376418
 30
0.0
 10
278.2473182198
 20
53.0490320689
 30
0.0
 10
278.0943947951
 20
52.9533357978
 30
0.0
 10
278.0149151042
 20
52.9171818346
 30
0.0
  0
SPLINE
  5
644
100
AcDbEntity
  8
0
100
AcDbSpline
 62
7
  6
CONTINUOUS
 70
0
 71
3
 72
14
 73
10
 74
0
 42
0.0000001
 43
0.0000001
 44
0.0000000001
 40
0.0
 40
0.0
 40
0.0
 40
0.0
 40
0.1134623447
 40
0.2216134519
 40
0.3352766529
 40
0.4568241911
 40
0.5853438815
 40
0.7194633804
 40
1.0
 40
1.0
 40
1.0
 40
1.0
 10
275.0447685571
 20
56.4844495368
 30
0.0
 10
275.1158301929
 20
56.4634668829
 30
0.0
 10
275.2488894815
 20
56.3893938843
 30
0.0
 10
275.3650720417
 20
56.1953092559
 30
0.0
 10
275.4065657836
 20
55.9722385326
 30
0.0
 10
275.3993977351
 20
55.7337253273
 30
0.0
 10
275.356655788
 20
55.485931915
 30
0.0
 10
275.2622841748
 20
55.1436281394
 30
0.0
 10
275.1621121368
 20
54.8911712413
 30
0.0
 10
275.087507221
 20
54.7238503332
 30
0.0
  0
SPLINE
  5
645
100
AcDbEntity
  8
0
100
AcDbSpline
 62
7
  6
CONTINUOUS
 70
0
 71
3
 72
13
 73
9
 74
0
 42
0.0000001
 43
0.0000001
 44
0.0000000001
 40
0.0
 40
0.0
 40
0.0
 40
0.0
 40
0.2562737032
 40
0.5159526506
 40
0.6460247366
 40
0.7739912257
 40
0.8949595003
 40
1.0
 40
1.0
 40
1.0
 40
1.0
 10
272.7710492269
 20
51.3641084182
 30
0.0
 10
272.5890117443
 20
51.1680099828
 30
0.0
 10
272.2095902106
 20
50.7850226251
 30
0.0
 10
271.6920976418
 20
50.3495333015
 30
0.0
 10
271.2413665114
 20
50.0500771458
 30
0.0
 10
270.8883787632
 20
49.8680971198
 30
0.0
 10
270.5352736508
 20
49.7541102671
 30
0.0
 10
270.2902106617
 20
49.751351738
 30
0.0
 10
270.1850305467
 20
49.782408692
 30
0.0
  0
SPLINE
  5
646
100
AcDbEntity
  8
0
100
AcDbSpline
 62
7
  6
CONTINUOUS
 70
0
 71
3
 72
18
 73
14
 74
0
 42
0.0000001
 43
0.0000001
 44
0.0000000001
 40
0.0
 40
0.0
 40
0.0
 40
0.0
 40
0.1294589351
 40
0.2786932278
 40
0.4369007405
 40
0.5920293386
 40
0.7324455255
 40
0.7940831116
 40
0.8487645837
 40
0.896047697
 40
0.9360648932
 40
0.9699007817
 40
1.0
 40
1.0
 40
1.0
 40
1.0
 10
269.0294392562
 20
41.944237661
 30
0.0
 10
269.2237993113
 20
41.8868481887
 30
0.0
 10
269.6555243096
 20
41.8086175774
 30
0.0
 10
270.3400239644
 20
41.7774810832
 30
0.0
 10
271.0641044259
 20
41.8258511087
 30
0.0
 10
271.7648088686
 20
41.9498793672
 30
0.0
 10
272.3018243126
 20
42.1130971568
 30
0.0
 10
272.6691315307
 20
42.2774921959
 30
0.0
 10
272.8915164965
 20
42.4056284127
 30
0.0
 10
273.0686194211
 20
42.5413095777
 30
0.0
 10
273.1970005671
 20
42.6827664265
 30
0.0
 10
273.2736515028
 20
42.8290628607
 30
0.0
 10
273.2858855202
 20
42.9314505437
 30
0.0
 10
273.2815088155
 20
42.9783643328
 30
0.0
  0
SPLINE
  5
647
100
AcDbEntity
  8
0
100
AcDbSpline
 62
7
  6
CONTINUOUS
 70
0
 71
3
 72
9
 73
5
 74
0
 42
0.0000001
 43
0.0000001
 44
0.0000000001
 40
0.0
 40
0.0
 40
0.0
 40
0.0
 40
0.2587616516
 40
1.0
 40
1.0
 40
1.0
 40
1.0
 10
270.1850305467
 20
49.782408692
 30
0.0
 10
270.1721727944
 20
49.7862052521
 30
0.0
 10
270.1230758991
 20
49.8027858402
 30
0.0
 10
270.0765597687
 20
49.827216561
 30
0.0
 10
270.0452105969
 20
49.8493996031
 30
0.0
  0
SPLINE
  5
648
100
AcDbEntity
  8
0
100
AcDbSpline
 62
7
  6
CONTINUOUS
 70
0
 71
3
 72
11
 73
7
 74
0
 42
0.0000001
 43
0.0000001
 44
0.0000000001
 40
0.0
 40
0.0
 40
0.0
 40
0.0
 40
0.1843907004
 40
0.4026866945
 40
0.6732309999
 40
1.0
 40
1.0
 40
1.0
 40
1.0
 10
268.303210421
 20
42.5130502448
 30
0.0
 10
268.3087464052
 20
42.4537101689
 30
0.0
 10
268.3574979625
 20
42.3267109863
 30
0.0
 10
268.5152343289
 20
42.1712379772
 30
0.0
 10
268.7456648673
 20
42.0396292432
 30
0.0
 10
268.9281462125
 20
41.9741468639
 30
0.0
 10
269.0294392562
 20
41.944237661
 30
0.0
  0
SPLINE
  5
649
100
AcDbEntity
  8
0
100
AcDbSpline
 62
7
  6
CONTINUOUS
 70
0
 71
3
 72
9
 73
5
 74
0
 42
0.0000001
 43
0.0000001
 44
0.0000000001
 40
0.0
 40
0.0
 40
0.0
 40
0.0
 40
0.4798780675
 40
1.0
 40
1.0
 40
1.0
 40
1.0
 10
275.9456002066
 20
57.4688669433
 30
0.0
 10
276.0668836191
 20
57.5240367104
 30
0.0
 10
276.3457192155
 20
57.5868429276
 30
0.0
 10
276.6258077162
 20
57.5442806927
 30
0.0
 10
276.7643118027
 20
57.5033840361
 30
0.0
  0
SPLINE
  5
64A
100
AcDbEntity
  8
0
100
AcDbSpline
 62
7
  6
CONTINUOUS
 70
0
 71
3
 72
12
 73
8
 74
0
 42
0.0000001
 43
0.0000001
 44
0.0000000001
 40
0.0
 40
0.0
 40
0.0
 40
0.0
 40
0.2649360935
 40
0.5286431143
 40
0.6577607315
 40
0.7821610363
 40
1.0
 40
1.0
 40
1.0
 40
1.0
 10
273.2963136037
 20
55.7088671207
 30
0.0
 10
273.4293785095
 20
55.8206741412
 30
0.0
 10
273.7031843791
 20
56.0342219998
 30
0.0
 10
274.06957087
 20
56.2643123295
 30
0.0
 10
274.3785109959
 20
56.407427287
 30
0.0
 10
274.6707571297
 20
56.5039256275
 30
0.0
 10
274.9077129757
 20
56.5249184875
 30
0.0
 10
275.0447685571
 20
56.4844495368
 30
0.0
  0
SPLINE
  5
64B
100
AcDbEntity
  8
0
100
AcDbSpline
 62
7
  6
CONTINUOUS
 70
0
 71
3
 72
9
 73
5
 74
0
 42
0.0000001
 43
0.0000001
 44
0.0000000001
 40
0.0
 40
0.0
 40
0.0
 40
0.0
 40
0.2488098766
 40
1.0
 40
1.0
 40
1.0
 40
1.0
 10
70.1688090595
 20
53.7696661983
 30
0.0
 10
70.2599520465
 20
53.7409688939
 30
0.0
 10
70.6244497842
 20
53.6200671282
 30
0.0
 10
70.9812434004
 20
53.4748939235
 30
0.0
 10
71.240842286
 20
53.3490561289
 30
0.0
  0
SPLINE
  5
64C
100
AcDbEntity
  8
0
100
AcDbSpline
 62
7
  6
CONTINUOUS
 70
0
 71
3
 72
12
 73
8
 74
0
 42
0.0000001
 43
0.0000001
 44
0.0000000001
 40
0.0
 40
0.0
 40
0.0
 40
0.0
 40
0.2370740725
 40
0.4802231197
 40
0.7334761617
 40
0.8655363921
 40
1.0
 40
1.0
 40
1.0
 40
1.0
 10
71.240842286
 20
53.3490561289
 30
0.0
 10
71.4964285611
 20
53.2251634044
 30
0.0
 10
71.9991596619
 20
52.9403425122
 30
0.0
 10
72.6810919741
 20
52.3775055509
 30
0.0
 10
73.1285205681
 20
51.7539621213
 30
0.0
 10
73.3373829883
 20
51.1629595424
 30
0.0
 10
73.375243612
 20
50.8424449588
 30
0.0
 10
73.375243612
 20
50.6813481915
 30
0.0
  0
SPLINE
  5
64D
100
AcDbEntity
  8
0
100
AcDbSpline
 62
7
  6
CONTINUOUS
 70
0
 71
3
 72
12
 73
8
 74
0
 42
0.0000001
 43
0.0000001
 44
0.0000000001
 40
0.0
 40
0.0
 40
0.0
 40
0.0
 40
0.134490084
 40
0.266607568
 40
0.5199174893
 40
0.7630288162
 40
1.0
 40
1.0
 40
1.0
 40
1.0
 10
73.375243612
 20
50.6813481915
 30
0.0
 10
73.375243612
 20
50.5200859238
 30
0.0
 10
73.3372132153
 20
50.1992141118
 30
0.0
 10
73.1279963966
 20
49.6076067083
 30
0.0
 10
72.6797884437
 20
48.9836854964
 30
0.0
 10
71.9970439388
 20
48.4208564507
 30
0.0
 10
71.4939145824
 20
48.1361092185
 30
0.0
 10
71.2381615382
 20
48.0123028195
 30
0.0
  0
SPLINE
  5
64E
100
AcDbEntity
  8
0
100
AcDbSpline
 62
7
  6
CONTINUOUS
 70
0
 71
3
 72
9
 73
5
 74
0
 42
0.0000001
 43
0.0000001
 44
0.0000000001
 40
0.0
 40
0.0
 40
0.0
 40
0.0
 40
0.2515420913
 40
1.0
 40
1.0
 40
1.0
 40
1.0
 10
71.2381615382
 20
48.0123028195
 30
0.0
 10
71.1514407065
 20
47.9703225024
 30
0.0
 10
70.803021433
 20
47.811015895
 30
0.0
 10
70.4423790872
 20
47.6791699095
 30
0.0
 10
70.1689340491
 20
47.593069822
 30
0.0
  0
ELLIPSE
  5
64F
100
AcDbEntity
  8
0
100
AcDbEllipse
 62
7
  6
CONTINUOUS
 10
272.6960158458
 20
53.2452961974
 30
0.0
 11
2.2739637134
 21
2.7605323005
 31
0.0
 40
0.3811294524
 41
-2.4803047744
 42
0.6612878792
  0
ELLIPSE
  5
650
100
AcDbEntity
  8
0
100
AcDbEllipse
 62
7
  6
CONTINUOUS
 10
66.1615517234
 20
50.6813481915
 30
0.0
 11
6.3773330982
 21
0.0
 31
0.0
 40
0.6248693519
 41
-1.5707967122
 42
1.5707959414
  0
ENDSEC
  0
SECTION
  2
OBJECTS
  0
DICTIONARY
  5
C
100
AcDbDictionary
280
0
281
1
  3
ACAD_GROUP
350
D
  3
ACAD_MLINESTYLE
350
17
  3
ACAD_LAYOUT
350
1A
  3
ACAD_PLOTSETTINGS
350
19
  3
ACAD_PLOTSTYLENAME
350
E
  0
DICTIONARY
  5
D
102
{ACAD_REACTORS
330
C
102
}
100
AcDbDictionary
280
0
281
1
  0
ACDBDICTIONARYWDFLT
  5
E
102
{ACAD_REACTORS
330
C
102
}
100
AcDbDictionary
281
1
  3
Normal
350
F
100
AcDbDictionaryWithDefault
340
F
  0
DICTIONARY
  5
17
102
{ACAD_REACTORS
330
C
102
}
100
AcDbDictionary
280
0
281
1
  3
Standard
350
18
  0
DICTIONARY
  5
19
102
{ACAD_REACTORS
330
C
102
}
100
AcDbDictionary
281
1
  0
DICTIONARY
  5
1A
102
{ACAD_REACTORS
330
C
102
}
100
AcDbDictionary
281
1
  3
Model
350
651
  3
Layout1
350
652
  0
ACDBPLACEHOLDER
  5
F
102
{ACAD_REACTORS
330
E
102
}
  0
MLINESTYLE
  5
18
102
{ACAD_REACTORS
330
17
102
}
100
AcDbMlineStyle
  2
STANDARD
 70
0
  3

 62
256
 51
90.0
 52
90.0
 71
2
 49
0.5
 62
256
  6
BYLAYER
 49
-0.5
 62
256
  6
BYLAYER
  0
LAYOUT
  5
651
102
{ACAD_REACTORS
330
1A
102
}
100
AcDbPlotSettings
  1

  2
none_device
  4
ISO_A3_(420.00_x_297.00_MM)
  6

 40
0.0
 41
0.0
 42
0.0
 43
0.0
 44
420.0
 45
297.0
 46
0.0
 47
0.0
 48
0.0
 49
0.0
140
0.0
141
0.0
142
1.0
143
1.0
 70
1024
 72
1
 73
0
 74
0
  7

 75
0
147
1.0
148
0.0
149
0.0
100
AcDbLayout
  1
Model
 70
0
 71
0
 10
0.0
 20
0.0
 11
420.0
 21
297.0
 12
0.0
 22
0.0
 32
0.0
 14
0.0
 24
0.0
 34
0.0
 15
0.0
 25
0.0
 35
0.0
146
0.0
 13
0.0
 23
0.0
 33
0.0
 16
1.0
 26
0.0
 36
0.0
 17
0.0
 27
1.0
 37
0.0
 76
0
330
217
345
0
346
0
  0
LAYOUT
  5
652
102
{ACAD_REACTORS
330
1A
102
}
100
AcDbPlotSettings
  1

  2
none_device
  4
ISO_A3_(420.00_x_297.00_MM)
  6

 40
0.0
 41
0.0
 42
0.0
 43
0.0
 44
420.0
 45
297.0
 46
0.0
 47
0.0
 48
0.0
 49
0.0
140
0.0
141
0.0
142
1.0
143
1.0
 70
0
 72
1
 73
0
 74
0
  7

 75
0
147
1.0
148
0.0
149
0.0
100
AcDbLayout
  1
Layout1
 70
0
 71
1
 10
0.0
 20
0.0
 11
420.0
 21
297.0
 12
0.0
 22
0.0
 32
0.0
 14
0.0
 24
0.0
 34
0.0
 15
0.0
 25
0.0
 35
0.0
146
0.0
 13
0.0
 23
0.0
 33
0.0
 16
1.0
 26
0.0
 36
0.0
 17
0.0
 27
1.0
 37
0.0
 76
0
330
218
345
0
346
0
  0
ENDSEC
  0
EOF
