999
DXF file: sensoradapter_dm15_90grad.dxf
999
Pro/ENGINEER 2018400 by Parametric Technology Corporation
  0
SECTION
  2
HEADER
  9
$ACADVER
  1
AC1027
  9
$DWGCODEPAGE
  3
ANSI_1252
  9
$EXTMAX
 10
420.0
 20
297.0
 30
0.0
  9
$EXTMIN
 10
0.0
 20
0.0
 30
0.0
  9
$LIMMIN
 10
0.0
 20
0.0
  9
$LIMMAX
 10
420.0
 20
297.0
  9
$VIEWCTR
 10
210.0
 20
148.5
  9
$VIEWSIZE
 40
297.0
  9
$CLAYER
  8
0
  9
$LTSCALE
 40
23.1
  9
$CELTYPE
  6
BYLAYER
  9
$DIMSCALE
 40
1.0
  9
$DIMASZ
 40
3.5
  9
$DIMEXO
 40
1.0
  9
$DIMDLI
 40
15.96
  9
$DIMEXE
 40
1.5
  9
$DIMCEN
 40
3.78
  9
$DIMLFAC
 40
1.0
  9
$DIMBLK
  1
_FILLED
  9
$DIMALT
 70
0
  9
$DIMALTF
 40
0.0393700787
  9
$DIMTXT
 40
3.5
  9
$DIMTOL
 70
1
  9
$DIMLIM
 70
0
  9
$DIMTFAC
 40
1.0
  9
$DIMTP
 40
0.01
  9
$DIMTM
 40
0.01
  9
$DIMGAP
 40
0.625
  9
$DIMDSEP
 70
44
  9
$AUNITS
 70
0
  9
$PDMODE
 70
3
  9
$PDSIZE
 40
8.0
  9
$HANDSEED
  5
65E
  9
$TILEMODE
 70
1
  9
$MEASUREMENT
 70
1
  9
$INSUNITS
 70
4
  0
ENDSEC
  0
SECTION
  2
CLASSES
  0
CLASS
  1
ACDBDICTIONARYWDFLT
  2
AcDbDictionaryWithDefault
  3
AutoCAD 2000
 90
0
 91
1
280
0
281
0
  0
CLASS
  1
ACDBPLACEHOLDER
  2
AcDbPlaceHolder
  3
AutoCAD 2000
 90
0
 91
1
280
0
281
0
  0
CLASS
  1
LAYOUT
  2
AcDbLayout
  3
AutoCAD 2000
 90
0
 91
0
280
0
281
0
  0
ENDSEC
  0
SECTION
  2
TABLES
  0
TABLE
  2
VPORT
  5
8
100
AcDbSymbolTable
 70
2
  0
VPORT
  5
1F4
100
AcDbSymbolTableRecord
100
AcDbViewportTableRecord
  2
*ACTIVE
 70
0
 10
0.0
 20
0.0
 11
1.0
 21
1.0
 12
210.0
 22
148.5
 13
0.0
 23
0.0
 14
1.0
 24
1.0
 15
0.0
 25
0.0
 16
0.0
 26
0.0
 36
1.0
 17
0.0
 27
0.0
 37
0.0
 40
297.0
 41
1.4141414141
 42
50.0
 43
0.0
 44
0.0
 50
0.0
 51
0.0
 71
0
 72
100
 73
1
 74
1
 75
0
 76
0
 77
0
 78
0
  0
ENDTAB
  0
TABLE
  2
LTYPE
  5
5
100
AcDbSymbolTable
 70
6
  0
LTYPE
  5
14
100
AcDbSymbolTableRecord
100
AcDbLinetypeTableRecord
  2
BYBLOCK
 70
0
  3

 72
65
 73
0
 40
0.0
  0
LTYPE
  5
15
100
AcDbSymbolTableRecord
100
AcDbLinetypeTableRecord
  2
BYLAYER
 70
0
  3

 72
65
 73
0
 40
0.0
  0
LTYPE
  5
16
100
AcDbSymbolTableRecord
100
AcDbLinetypeTableRecord
  2
CONTINUOUS
 70
64
  3
Solid line
 72
65
 73
0
 40
0.0
  0
LTYPE
  5
1F5
100
AcDbSymbolTableRecord
100
AcDbLinetypeTableRecord
  2
CENTER
 70
64
  3
____ _ ____ _ ____ _ ____ _ ____ _ ____ _ ____
 72
65
 73
4
 40
0.6
 49
0.375
 74
0
 49
-0.075
 74
0
 49
0.075
 74
0
 49
-0.075
 74
0
  0
LTYPE
  5
1F6
100
AcDbSymbolTableRecord
100
AcDbLinetypeTableRecord
  2
HIDDEN
 70
64
  3
- - - - - - - - - - - - - - - - - - - -
 72
65
 73
2
 40
0.2
 49
0.1
 74
0
 49
-0.1
 74
0
  0
LTYPE
  5
1F7
100
AcDbSymbolTableRecord
100
AcDbLinetypeTableRecord
  2
PHANTOM
 70
64
  3
_____ _ _ _____ _ _ _____ _ _ _____
 72
65
 73
6
 40
0.8
 49
0.45
 74
0
 49
-0.05
 74
0
 49
0.1
 74
0
 49
-0.05
 74
0
 49
0.1
 74
0
 49
-0.05
 74
0
  0
LTYPE
  5
1F8
100
AcDbSymbolTableRecord
100
AcDbLinetypeTableRecord
  2
DOT
 70
64
  3
. . . . . . . . . . . . . . . . . . . .
 72
65
 73
2
 40
0.2
 49
0.1
 74
0
 49
-0.1
 74
0
  0
LTYPE
  5
1F9
100
AcDbSymbolTableRecord
100
AcDbLinetypeTableRecord
  2
DASHED
 70
64
  3
- - - - - - - - - - - - - - - - - - - -
 72
65
 73
2
 40
0.2
 49
0.1
 74
0
 49
-0.1
 74
0
  0
ENDTAB
  0
TABLE
  2
LAYER
  5
2
100
AcDbSymbolTable
 70
36
  0
LAYER
  5
10
100
AcDbSymbolTableRecord
100
AcDbLayerTableRecord
  2
0
 70
0
 62
7
  6
CONTINUOUS
370
-3
390
F
  0
LAYER
  5
1FA
100
AcDbSymbolTableRecord
100
AcDbLayerTableRecord
  2
DEFAULT_1
 70
0
 62
7
  6
CENTER
370
-3
390
F
  0
LAYER
  5
1FB
100
AcDbSymbolTableRecord
100
AcDbLayerTableRecord
  2
DEFAULT_2
 70
0
 62
8
  6
HIDDEN
370
-3
390
F
  0
LAYER
  5
1FC
100
AcDbSymbolTableRecord
100
AcDbLayerTableRecord
  2
DEFAULT_3
 70
0
 62
7
  6
PHANTOM
370
-3
390
F
  0
LAYER
  5
1FD
100
AcDbSymbolTableRecord
100
AcDbLayerTableRecord
  2
01_ALL_DTM_PLN
 70
0
 62
7
  6
CONTINUOUS
370
-3
390
F
  0
LAYER
  5
1FE
100
AcDbSymbolTableRecord
100
AcDbLayerTableRecord
  2
01__ASM_ALL_DTM_PLN
 70
0
 62
7
  6
CONTINUOUS
370
-3
390
F
  0
LAYER
  5
1FF
100
AcDbSymbolTableRecord
100
AcDbLayerTableRecord
  2
01__ASM_DEF_DTM_PLN
 70
0
 62
7
  6
CONTINUOUS
370
-3
390
F
  0
LAYER
  5
200
100
AcDbSymbolTableRecord
100
AcDbLayerTableRecord
  2
01___PRT_ALL_DTM_PLN
 70
0
 62
7
  6
CONTINUOUS
370
-3
390
F
  0
LAYER
  5
201
100
AcDbSymbolTableRecord
100
AcDbLayerTableRecord
  2
01___PRT_DEF_DTM_PLN
 70
0
 62
7
  6
CONTINUOUS
370
-3
390
F
  0
LAYER
  5
202
100
AcDbSymbolTableRecord
100
AcDbLayerTableRecord
  2
02_ALL_AXES
 70
0
 62
7
  6
CONTINUOUS
370
-3
390
F
  0
LAYER
  5
203
100
AcDbSymbolTableRecord
100
AcDbLayerTableRecord
  2
02__ASM_ALL_AXES
 70
0
 62
7
  6
CONTINUOUS
370
-3
390
F
  0
LAYER
  5
204
100
AcDbSymbolTableRecord
100
AcDbLayerTableRecord
  2
02___PRT_ALL_AXES
 70
0
 62
7
  6
CONTINUOUS
370
-3
390
F
  0
LAYER
  5
205
100
AcDbSymbolTableRecord
100
AcDbLayerTableRecord
  2
03_ALL_CURVES
 70
0
 62
7
  6
CONTINUOUS
370
-3
390
F
  0
LAYER
  5
206
100
AcDbSymbolTableRecord
100
AcDbLayerTableRecord
  2
03__ASM_ALL_CURVES
 70
0
 62
7
  6
CONTINUOUS
370
-3
390
F
  0
LAYER
  5
207
100
AcDbSymbolTableRecord
100
AcDbLayerTableRecord
  2
03___PRT_ALL_CURVES
 70
0
 62
7
  6
CONTINUOUS
370
-3
390
F
  0
LAYER
  5
208
100
AcDbSymbolTableRecord
100
AcDbLayerTableRecord
  2
04_ALL_DTM_PNT
 70
0
 62
7
  6
CONTINUOUS
370
-3
390
F
  0
LAYER
  5
209
100
AcDbSymbolTableRecord
100
AcDbLayerTableRecord
  2
04__ASM_ALL_DTM_PNT
 70
0
 62
7
  6
CONTINUOUS
370
-3
390
F
  0
LAYER
  5
20A
100
AcDbSymbolTableRecord
100
AcDbLayerTableRecord
  2
04___PRT_ALL_DTM_PNT
 70
0
 62
7
  6
CONTINUOUS
370
-3
390
F
  0
LAYER
  5
20B
100
AcDbSymbolTableRecord
100
AcDbLayerTableRecord
  2
05_ALL_DTM_CSYS
 70
0
 62
7
  6
CONTINUOUS
370
-3
390
F
  0
LAYER
  5
20C
100
AcDbSymbolTableRecord
100
AcDbLayerTableRecord
  2
05__ASM_ALL_DTM_CSYS
 70
0
 62
7
  6
CONTINUOUS
370
-3
390
F
  0
LAYER
  5
20D
100
AcDbSymbolTableRecord
100
AcDbLayerTableRecord
  2
05__ASM_DEF_DTM_CSYS
 70
0
 62
7
  6
CONTINUOUS
370
-3
390
F
  0
LAYER
  5
20E
100
AcDbSymbolTableRecord
100
AcDbLayerTableRecord
  2
05___PRT_ALL_DTM_CSYS
 70
0
 62
7
  6
CONTINUOUS
370
-3
390
F
  0
LAYER
  5
20F
100
AcDbSymbolTableRecord
100
AcDbLayerTableRecord
  2
05___PRT_DEF_DTM_CSYS
 70
0
 62
7
  6
CONTINUOUS
370
-3
390
F
  0
LAYER
  5
210
100
AcDbSymbolTableRecord
100
AcDbLayerTableRecord
  2
06_ALL_SURFS
 70
0
 62
7
  6
CONTINUOUS
370
-3
390
F
  0
LAYER
  5
211
100
AcDbSymbolTableRecord
100
AcDbLayerTableRecord
  2
06__ASM_ALL_SURFS
 70
0
 62
7
  6
CONTINUOUS
370
-3
390
F
  0
LAYER
  5
212
100
AcDbSymbolTableRecord
100
AcDbLayerTableRecord
  2
06___PRT_ALL_SURFS
 70
0
 62
7
  6
CONTINUOUS
370
-3
390
F
  0
LAYER
  5
213
100
AcDbSymbolTableRecord
100
AcDbLayerTableRecord
  2
07__ASM_ALL_SKELETONS
 70
0
 62
7
  6
CONTINUOUS
370
-3
390
F
  0
ENDTAB
  0
TABLE
  2
STYLE
  5
3
100
AcDbSymbolTable
 70
1
  0
STYLE
  5
11
100
AcDbSymbolTableRecord
100
AcDbTextStyleTableRecord
  2
STANDARD
 70
0
 40
0.0
 41
0.85
 50
0.0
 71
0
 42
0.2
  3
txt
  4

  0
STYLE
  5
214
100
AcDbSymbolTableRecord
100
AcDbTextStyleTableRecord
  2
TEXTSTYLE_1
 70
0
 40
0.0
 41
0.8
 50
0.0
 71
0
 42
0.2
  3
gdt
  4

  0
ENDTAB
  0
TABLE
  2
VIEW
  5
6
100
AcDbSymbolTable
 70
0
  0
ENDTAB
  0
TABLE
  2
UCS
  5
7
100
AcDbSymbolTable
 70
0
  0
ENDTAB
  0
TABLE
  2
APPID
  5
9
100
AcDbSymbolTable
 70
1
  0
APPID
  5
215
100
AcDbSymbolTableRecord
100
AcDbRegAppTableRecord
  2
ACAD
 70
0
  0
ENDTAB
  0
TABLE
  2
BLOCK_RECORD
  5
1
100
AcDbSymbolTable
 70
0
  0
BLOCK_RECORD
  5
216
100
AcDbSymbolTableRecord
100
AcDbBlockTableRecord
  2
*Model_Space
  0
BLOCK_RECORD
  5
217
100
AcDbSymbolTableRecord
100
AcDbBlockTableRecord
  2
*Paper_Space
  0
BLOCK_RECORD
  5
218
100
AcDbSymbolTableRecord
100
AcDbBlockTableRecord
  2
_FILLED
  0
BLOCK_RECORD
  5
219
100
AcDbSymbolTableRecord
100
AcDbBlockTableRecord
  2
*D0
  0
BLOCK_RECORD
  5
21A
100
AcDbSymbolTableRecord
100
AcDbBlockTableRecord
  2
*D1
  0
BLOCK_RECORD
  5
21B
100
AcDbSymbolTableRecord
100
AcDbBlockTableRecord
  2
*D2
  0
BLOCK_RECORD
  5
21C
100
AcDbSymbolTableRecord
100
AcDbBlockTableRecord
  2
*D3
  0
BLOCK_RECORD
  5
21D
100
AcDbSymbolTableRecord
100
AcDbBlockTableRecord
  2
*D4
  0
BLOCK_RECORD
  5
21E
100
AcDbSymbolTableRecord
100
AcDbBlockTableRecord
  2
*D5
  0
BLOCK_RECORD
  5
21F
100
AcDbSymbolTableRecord
100
AcDbBlockTableRecord
  2
*D6
  0
BLOCK_RECORD
  5
220
100
AcDbSymbolTableRecord
100
AcDbBlockTableRecord
  2
*D7
  0
BLOCK_RECORD
  5
221
100
AcDbSymbolTableRecord
100
AcDbBlockTableRecord
  2
*D8
  0
BLOCK_RECORD
  5
222
100
AcDbSymbolTableRecord
100
AcDbBlockTableRecord
  2
*D9
  0
BLOCK_RECORD
  5
223
100
AcDbSymbolTableRecord
100
AcDbBlockTableRecord
  2
*D10
  0
BLOCK_RECORD
  5
224
100
AcDbSymbolTableRecord
100
AcDbBlockTableRecord
  2
*D11
  0
BLOCK_RECORD
  5
225
100
AcDbSymbolTableRecord
100
AcDbBlockTableRecord
  2
*D12
  0
BLOCK_RECORD
  5
226
100
AcDbSymbolTableRecord
100
AcDbBlockTableRecord
  2
*D13
  0
BLOCK_RECORD
  5
227
100
AcDbSymbolTableRecord
100
AcDbBlockTableRecord
  2
*D14
  0
BLOCK_RECORD
  5
228
100
AcDbSymbolTableRecord
100
AcDbBlockTableRecord
  2
*D15
  0
BLOCK_RECORD
  5
229
100
AcDbSymbolTableRecord
100
AcDbBlockTableRecord
  2
*D16
  0
BLOCK_RECORD
  5
22A
100
AcDbSymbolTableRecord
100
AcDbBlockTableRecord
  2
*D17
  0
ENDTAB
  0
TABLE
  2
DIMSTYLE
  5
A
100
AcDbSymbolTable
 70
1
100
AcDbDimStyleTable
 71
0
  0
DIMSTYLE
105
22B
100
AcDbSymbolTableRecord
100
AcDbDimStyleTableRecord
  2
STANDARD
 70
0
  3

  4

 40
1.0
 41
3.5
 42
1.0
 43
0.38
 44
1.5
 45
0.0
 46
0.0
 47
0.01
 48
0.01
140
3.5
141
0.09
142
0.0
143
25.4
144
1.0
145
0.0
146
1.0
147
0.625
 71
1.0
 72
0.0
 73
0
 74
0
 75
0
 76
0
 77
1
 78
8
 79
2
170
0
171
1
172
0
173
0
174
0
175
0
176
0
177
0
178
0
270
2
179
2
271
2
272
2
273
2
274
2
275
0
280
0
281
0
282
0
283
1
284
8
285
0
286
0
287
3
288
0
340
11
278
44
341
218
342
218
343
218
344
218
  0
DIMSTYLE
105
22C
100
AcDbSymbolTableRecord
100
AcDbDimStyleTableRecord
  2
DIMSTYLE_1
 70
0
  3

  4

 40
1.0
 41
3.5
 42
1.0
 43
0.38
 44
1.5
 45
0.0
 46
0.0
 47
0.01
 48
0.01
140
3.5
141
0.09
142
0.0
143
25.4
144
1.0
145
0.0
146
1.0
147
0.875
 71
0.0
 72
0.0
 73
0
 74
0
 75
0
 76
0
 77
1
 78
8
 79
2
170
0
171
1
172
0
173
0
174
0
175
0
176
0
177
0
178
0
270
2
179
2
271
2
272
2
273
2
274
2
275
0
280
0
281
0
282
0
283
1
284
8
285
0
286
0
287
3
288
0
340
11
278
44
341
218
342
218
343
218
344
218
  0
ENDTAB
  0
ENDSEC
  0
SECTION
  2
BLOCKS
  0
BLOCK
  5
20
100
AcDbEntity
  8
0
100
AcDbBlockBegin
  2
*Model_Space
 70
0
 10
0.0
 20
0.0
 30
0.0
  3
*Model_Space
  1

  0
ENDBLK
  5
21
100
AcDbEntity
  8
0
100
AcDbBlockEnd
  0
BLOCK
  5
1C
100
AcDbEntity
  8
0
100
AcDbBlockBegin
  2
*Paper_Space
 70
0
 10
0.0
 20
0.0
 30
0.0
  3
*Paper_Space
  1

  0
ENDBLK
  5
1D
100
AcDbEntity
  8
0
100
AcDbBlockEnd
  0
BLOCK
  5
22D
100
AcDbEntity
  8
0
100
AcDbBlockBegin
  2
_FILLED
 70
64
 10
0.0
 20
0.0
  3
_FILLED
  1

  0
SOLID
  5
22E
100
AcDbEntity
  8
0
  6
BYBLOCK
 62
0
100
AcDbTrace
 10
0.0
 20
0.0
 11
-1.0
 21
0.2142857143
 12
-1.0
 22
-0.2142857143
 13
-1.0
 23
-0.2142857143
  0
ENDBLK
  5
22F
100
AcDbEntity
  8
0
  6
BYBLOCK
 62
0
100
AcDbBlockEnd
  0
BLOCK
  5
230
100
AcDbEntity
  8
0
100
AcDbBlockBegin
 62
2
  6
CONTINUOUS
  2
*D0
 70
65
 10
0.0
 20
0.0
  3
*D0
  1

  0
MTEXT
  5
231
100
AcDbEntity
  8
0
100
AcDbMText
 62
2
  6
CONTINUOUS
  7
STANDARD
 71
2
 72
1
 10
97.0231423953
 20
143.5877225992
 30
0.0
 11
1.0
 21
0.0
 31
0.0
 73
2
 44
0.9
  1
97,5
 40
3.5
 41
11.9
  0
LINE
  5
232
100
AcDbEntity
  8
0
100
AcDbLine
 62
2
  6
CONTINUOUS
 10
48.2731423953
 20
149.1016479827
 11
48.2731423953
 21
137.7127225992
  0
LINE
  5
233
100
AcDbEntity
  8
0
100
AcDbLine
 62
2
  6
CONTINUOUS
 10
145.7731423953
 20
243.4127225992
 11
145.7731423953
 21
137.7127225992
  0
LINE
  5
234
100
AcDbEntity
  8
0
100
AcDbLine
 62
2
  6
CONTINUOUS
 10
48.2731423953
 20
139.2127225992
 11
97.0231423953
 21
139.2127225992
  0
LINE
  5
235
100
AcDbEntity
  8
0
100
AcDbLine
 62
2
  6
CONTINUOUS
 10
145.7731423953
 20
139.2127225992
 11
97.0231423953
 21
139.2127225992
  0
INSERT
  5
236
100
AcDbEntity
  8
0
100
AcDbBlockReference
 62
2
  6
CONTINUOUS
  2
_FILLED
 10
48.2731423953
 20
139.2127225992
 41
3.5
 42
3.5
 43
3.5
 50
180.0
  0
INSERT
  5
237
100
AcDbEntity
  8
0
100
AcDbBlockReference
 62
2
  6
CONTINUOUS
  2
_FILLED
 10
145.7731423953
 20
139.2127225992
 41
3.5
 42
3.5
 43
3.5
  0
ENDBLK
  5
238
100
AcDbEntity
  8
0
  6
BYBLOCK
 62
0
100
AcDbBlockEnd
  0
BLOCK
  5
239
100
AcDbEntity
  8
0
100
AcDbBlockBegin
 62
2
  6
CONTINUOUS
  2
*D1
 70
65
 10
0.0
 20
0.0
  3
*D1
  1

  0
MTEXT
  5
23A
100
AcDbEntity
  8
0
100
AcDbMText
 62
2
  6
CONTINUOUS
  7
STANDARD
 71
2
 72
1
 10
154.0981423953
 20
200.6627225992
 30
0.0
 11
0.0
 21
1.0
 31
0.0
 73
2
 44
0.9
  1
97,5
 40
3.5
 41
11.9
  0
LINE
  5
23B
100
AcDbEntity
  8
0
100
AcDbLine
 62
2
  6
CONTINUOUS
 10
54.2731423953
 20
151.9127225992
 11
159.9731423953
 21
151.9127225992
  0
LINE
  5
23C
100
AcDbEntity
  8
0
100
AcDbLine
 62
2
  6
CONTINUOUS
 10
150.931359575
 20
249.4127225992
 11
159.9731423953
 21
249.4127225992
  0
LINE
  5
23D
100
AcDbEntity
  8
0
100
AcDbLine
 62
2
  6
CONTINUOUS
 10
158.4731423953
 20
151.9127225992
 11
158.4731423953
 21
200.6627225992
  0
LINE
  5
23E
100
AcDbEntity
  8
0
100
AcDbLine
 62
2
  6
CONTINUOUS
 10
158.4731423953
 20
249.4127225992
 11
158.4731423953
 21
200.6627225992
  0
INSERT
  5
23F
100
AcDbEntity
  8
0
100
AcDbBlockReference
 62
2
  6
CONTINUOUS
  2
_FILLED
 10
158.4731423953
 20
151.9127225992
 41
3.5
 42
3.5
 43
3.5
 50
270.0
  0
INSERT
  5
240
100
AcDbEntity
  8
0
100
AcDbBlockReference
 62
2
  6
CONTINUOUS
  2
_FILLED
 10
158.4731423953
 20
249.4127225992
 41
3.5
 42
3.5
 43
3.5
 50
90.0
  0
ENDBLK
  5
241
100
AcDbEntity
  8
0
  6
BYBLOCK
 62
0
100
AcDbBlockEnd
  0
BLOCK
  5
242
100
AcDbEntity
  8
0
100
AcDbBlockBegin
 62
2
  6
CONTINUOUS
  2
*D2
 70
65
 10
0.0
 20
0.0
  3
*D2
  1

  0
MTEXT
  5
243
100
AcDbEntity
  8
0
100
AcDbMText
 62
2
  6
CONTINUOUS
  7
STANDARD
 71
1
 72
1
 10
34.1995871945
 20
266.5898662932
 30
0.0
 11
1.0
 21
0.0
 31
0.0
 73
2
 44
0.9
  1
7
 40
3.5
 41
2.975
  0
LINE
  5
244
100
AcDbEntity
  8
0
100
AcDbLine
 62
2
  6
CONTINUOUS
 10
21.8863360473
 20
255.1127225992
 11
21.8863360473
 21
263.7148662932
  0
LINE
  5
245
100
AcDbEntity
  8
0
100
AcDbLine
 62
2
  6
CONTINUOUS
 10
28.8863360473
 20
255.1127225992
 11
28.8863360473
 21
263.7148662932
  0
LINE
  5
246
100
AcDbEntity
  8
0
100
AcDbLine
 62
2
  6
CONTINUOUS
 10
21.8863360473
 20
262.2148662932
 11
16.8863360473
 21
262.2148662932
  0
LINE
  5
247
100
AcDbEntity
  8
0
100
AcDbLine
 62
2
  6
CONTINUOUS
 10
16.8863360473
 20
262.2148662932
 11
25.3863360473
 21
262.2148662932
  0
LINE
  5
248
100
AcDbEntity
  8
0
100
AcDbLine
 62
2
  6
CONTINUOUS
 10
28.8863360473
 20
262.2148662932
 11
37.1745871945
 21
262.2148662932
  0
LINE
  5
249
100
AcDbEntity
  8
0
100
AcDbLine
 62
2
  6
CONTINUOUS
 10
37.1745871945
 20
262.2148662932
 11
25.3863360473
 21
262.2148662932
  0
INSERT
  5
24A
100
AcDbEntity
  8
0
100
AcDbBlockReference
 62
2
  6
CONTINUOUS
  2
_FILLED
 10
21.8863360473
 20
262.2148662932
 41
3.5
 42
3.5
 43
3.5
  0
INSERT
  5
24B
100
AcDbEntity
  8
0
100
AcDbBlockReference
 62
2
  6
CONTINUOUS
  2
_FILLED
 10
28.8863360473
 20
262.2148662932
 41
3.5
 42
3.5
 43
3.5
 50
180.0
  0
ENDBLK
  5
24C
100
AcDbEntity
  8
0
  6
BYBLOCK
 62
0
100
AcDbBlockEnd
  0
BLOCK
  5
24D
100
AcDbEntity
  8
0
100
AcDbBlockBegin
 62
2
  6
CONTINUOUS
  2
*D3
 70
65
 10
0.0
 20
0.0
  3
*D3
  1

  0
MTEXT
  5
24E
100
AcDbEntity
  8
0
100
AcDbMText
 62
2
  6
CONTINUOUS
  7
STANDARD
 71
1
 72
1
 10
6.6011733713
 20
260.2377645992
 30
0.0
 11
0.0
 21
1.0
 31
0.0
 73
2
 44
0.9
  1
3/8" UNF
 40
3.5
 41
23.8
  0
LINE
  5
24F
100
AcDbEntity
  8
0
100
AcDbLine
 62
2
  6
CONTINUOUS
 10
20.8863360473
 20
254.1127225992
 11
10.1011733713
 21
254.1127225992
  0
LINE
  5
250
100
AcDbEntity
  8
0
100
AcDbLine
 62
2
  6
CONTINUOUS
 10
10.1011733713
 20
254.1127225992
 11
9.4761733713
 21
254.1127225992
  0
LINE
  5
251
100
AcDbEntity
  8
0
100
AcDbLine
 62
2
  6
CONTINUOUS
 10
20.8863360473
 20
244.7127225992
 11
10.1011733713
 21
244.7127225992
  0
LINE
  5
252
100
AcDbEntity
  8
0
100
AcDbLine
 62
2
  6
CONTINUOUS
 10
10.1011733713
 20
244.7127225992
 11
9.4761733713
 21
244.7127225992
  0
LINE
  5
253
100
AcDbEntity
  8
0
100
AcDbLine
 62
2
  6
CONTINUOUS
 10
10.9761733713
 20
254.1127225992
 11
10.9761733713
 21
284.0377645992
  0
LINE
  5
254
100
AcDbEntity
  8
0
100
AcDbLine
 62
2
  6
CONTINUOUS
 10
10.9761733713
 20
284.0377645992
 11
10.9761733713
 21
249.4127225992
  0
LINE
  5
255
100
AcDbEntity
  8
0
100
AcDbLine
 62
2
  6
CONTINUOUS
 10
10.9761733713
 20
244.7127225992
 11
10.9761733713
 21
239.7127225992
  0
LINE
  5
256
100
AcDbEntity
  8
0
100
AcDbLine
 62
2
  6
CONTINUOUS
 10
10.9761733713
 20
239.7127225992
 11
10.9761733713
 21
249.4127225992
  0
INSERT
  5
257
100
AcDbEntity
  8
0
100
AcDbBlockReference
 62
2
  6
CONTINUOUS
  2
_FILLED
 10
10.9761733713
 20
254.1127225992
 41
3.5
 42
3.5
 43
3.5
 50
270.0
  0
INSERT
  5
258
100
AcDbEntity
  8
0
100
AcDbBlockReference
 62
2
  6
CONTINUOUS
  2
_FILLED
 10
10.9761733713
 20
244.7127225992
 41
3.5
 42
3.5
 43
3.5
 50
90.0
  0
ENDBLK
  5
259
100
AcDbEntity
  8
0
  6
BYBLOCK
 62
0
100
AcDbBlockEnd
  0
BLOCK
  5
25A
100
AcDbEntity
  8
0
100
AcDbBlockBegin
 62
2
  6
CONTINUOUS
  2
*D4
 70
65
 10
0.0
 20
0.0
  3
*D4
  1

  0
MTEXT
  5
25B
100
AcDbEntity
  8
0
100
AcDbMText
 62
2
  6
CONTINUOUS
  7
STANDARD
 71
2
 72
1
 10
221.3006023826
 20
178.6105731702
 30
0.0
 11
0.0
 21
1.0
 31
0.0
 73
2
 44
0.9
  1
30
 40
3.5
 41
5.95
  0
LINE
  5
25C
100
AcDbEntity
  8
0
100
AcDbLine
 62
2
  6
CONTINUOUS
 10
246.6868083217
 20
193.6105731702
 11
224.1756023826
 21
193.6105731702
  0
LINE
  5
25D
100
AcDbEntity
  8
0
100
AcDbLine
 62
2
  6
CONTINUOUS
 10
246.6868083217
 20
163.6105731702
 11
224.1756023826
 21
163.6105731702
  0
LINE
  5
25E
100
AcDbEntity
  8
0
100
AcDbLine
 62
2
  6
CONTINUOUS
 10
225.6756023826
 20
193.6105731702
 11
225.6756023826
 21
178.6105731702
  0
LINE
  5
25F
100
AcDbEntity
  8
0
100
AcDbLine
 62
2
  6
CONTINUOUS
 10
225.6756023826
 20
163.6105731702
 11
225.6756023826
 21
178.6105731702
  0
INSERT
  5
260
100
AcDbEntity
  8
0
100
AcDbBlockReference
 62
2
  6
CONTINUOUS
  2
_FILLED
 10
225.6756023826
 20
193.6105731702
 41
3.5
 42
3.5
 43
3.5
 50
90.0
  0
INSERT
  5
261
100
AcDbEntity
  8
0
100
AcDbBlockReference
 62
2
  6
CONTINUOUS
  2
_FILLED
 10
225.6756023826
 20
163.6105731702
 41
3.5
 42
3.5
 43
3.5
 50
270.0
  0
ENDBLK
  5
262
100
AcDbEntity
  8
0
  6
BYBLOCK
 62
0
100
AcDbBlockEnd
  0
BLOCK
  5
263
100
AcDbEntity
  8
0
100
AcDbBlockBegin
 62
2
  6
CONTINUOUS
  2
*D5
 70
65
 10
0.0
 20
0.0
  3
*D5
  1

  0
MTEXT
  5
264
100
AcDbEntity
  8
0
100
AcDbMText
 62
2
  6
CONTINUOUS
  7
STANDARD
 71
2
 72
1
 10
231.6620237024
 20
186.1105731702
 30
0.0
 11
0.0
 21
1.0
 31
0.0
 73
2
 44
0.9
  1
15
 40
3.5
 41
5.95
  0
LINE
  5
265
100
AcDbEntity
  8
0
100
AcDbLine
 62
2
  6
CONTINUOUS
 10
246.6868083217
 20
193.6105731702
 11
234.5370237024
 21
193.6105731702
  0
LINE
  5
266
100
AcDbEntity
  8
0
100
AcDbLine
 62
2
  6
CONTINUOUS
 10
302.1868083217
 20
178.6105731702
 11
234.5370237024
 21
178.6105731702
  0
LINE
  5
267
100
AcDbEntity
  8
0
100
AcDbLine
 62
2
  6
CONTINUOUS
 10
236.0370237024
 20
193.6105731702
 11
236.0370237024
 21
198.6105731702
  0
LINE
  5
268
100
AcDbEntity
  8
0
100
AcDbLine
 62
2
  6
CONTINUOUS
 10
236.0370237024
 20
198.6105731702
 11
236.0370237024
 21
186.1105731702
  0
LINE
  5
269
100
AcDbEntity
  8
0
100
AcDbLine
 62
2
  6
CONTINUOUS
 10
236.0370237024
 20
178.6105731702
 11
236.0370237024
 21
173.6105731702
  0
LINE
  5
26A
100
AcDbEntity
  8
0
100
AcDbLine
 62
2
  6
CONTINUOUS
 10
236.0370237024
 20
173.6105731702
 11
236.0370237024
 21
186.1105731702
  0
INSERT
  5
26B
100
AcDbEntity
  8
0
100
AcDbBlockReference
 62
2
  6
CONTINUOUS
  2
_FILLED
 10
236.0370237024
 20
193.6105731702
 41
3.5
 42
3.5
 43
3.5
 50
270.0
  0
INSERT
  5
26C
100
AcDbEntity
  8
0
100
AcDbBlockReference
 62
2
  6
CONTINUOUS
  2
_FILLED
 10
236.0370237024
 20
178.6105731702
 41
3.5
 42
3.5
 43
3.5
 50
90.0
  0
ENDBLK
  5
26D
100
AcDbEntity
  8
0
  6
BYBLOCK
 62
0
100
AcDbBlockEnd
  0
BLOCK
  5
26E
100
AcDbEntity
  8
0
100
AcDbBlockBegin
 62
2
  6
CONTINUOUS
  2
*D6
 70
65
 10
0.0
 20
0.0
  3
*D6
  1

  0
MTEXT
  5
26F
100
AcDbEntity
  8
0
100
AcDbMText
 62
2
  6
CONTINUOUS
  7
STANDARD
 71
2
 72
1
 10
282.6868083217
 20
107.2855731702
 30
0.0
 11
1.0
 21
0.0
 31
0.0
 73
2
 44
0.9
  1
70
 40
3.5
 41
5.95
  0
LINE
  5
270
100
AcDbEntity
  8
0
100
AcDbLine
 62
2
  6
CONTINUOUS
 10
317.6868083217
 20
162.6105731702
 11
317.6868083217
 21
101.4105731702
  0
LINE
  5
271
100
AcDbEntity
  8
0
100
AcDbLine
 62
2
  6
CONTINUOUS
 10
247.6868083217
 20
162.6105731702
 11
247.6868083217
 21
101.4105731702
  0
LINE
  5
272
100
AcDbEntity
  8
0
100
AcDbLine
 62
2
  6
CONTINUOUS
 10
317.6868083217
 20
102.9105731702
 11
282.6868083217
 21
102.9105731702
  0
LINE
  5
273
100
AcDbEntity
  8
0
100
AcDbLine
 62
2
  6
CONTINUOUS
 10
247.6868083217
 20
102.9105731702
 11
282.6868083217
 21
102.9105731702
  0
INSERT
  5
274
100
AcDbEntity
  8
0
100
AcDbBlockReference
 62
2
  6
CONTINUOUS
  2
_FILLED
 10
317.6868083217
 20
102.9105731702
 41
3.5
 42
3.5
 43
3.5
  0
INSERT
  5
275
100
AcDbEntity
  8
0
100
AcDbBlockReference
 62
2
  6
CONTINUOUS
  2
_FILLED
 10
247.6868083217
 20
102.9105731702
 41
3.5
 42
3.5
 43
3.5
 50
180.0
  0
ENDBLK
  5
276
100
AcDbEntity
  8
0
  6
BYBLOCK
 62
0
100
AcDbBlockEnd
  0
BLOCK
  5
277
100
AcDbEntity
  8
0
100
AcDbBlockBegin
 62
2
  6
CONTINUOUS
  2
*D7
 70
65
 10
0.0
 20
0.0
  3
*D7
  1

  0
MTEXT
  5
278
100
AcDbEntity
  8
0
100
AcDbMText
 62
2
  6
CONTINUOUS
  7
STANDARD
 71
2
 72
1
 10
282.6868083217
 20
117.2855731702
 30
0.0
 11
1.0
 21
0.0
 31
0.0
 73
2
 44
0.9
  1
56
 40
3.5
 41
5.95
  0
LINE
  5
279
100
AcDbEntity
  8
0
100
AcDbLine
 62
2
  6
CONTINUOUS
 10
310.6868083217
 20
170.1105731702
 11
310.6868083217
 21
111.4105731702
  0
LINE
  5
27A
100
AcDbEntity
  8
0
100
AcDbLine
 62
2
  6
CONTINUOUS
 10
254.6868083217
 20
170.1105731702
 11
254.6868083217
 21
111.4105731702
  0
LINE
  5
27B
100
AcDbEntity
  8
0
100
AcDbLine
 62
2
  6
CONTINUOUS
 10
310.6868083217
 20
112.9105731702
 11
282.6868083217
 21
112.9105731702
  0
LINE
  5
27C
100
AcDbEntity
  8
0
100
AcDbLine
 62
2
  6
CONTINUOUS
 10
254.6868083217
 20
112.9105731702
 11
282.6868083217
 21
112.9105731702
  0
INSERT
  5
27D
100
AcDbEntity
  8
0
100
AcDbBlockReference
 62
2
  6
CONTINUOUS
  2
_FILLED
 10
310.6868083217
 20
112.9105731702
 41
3.5
 42
3.5
 43
3.5
  0
INSERT
  5
27E
100
AcDbEntity
  8
0
100
AcDbBlockReference
 62
2
  6
CONTINUOUS
  2
_FILLED
 10
254.6868083217
 20
112.9105731702
 41
3.5
 42
3.5
 43
3.5
 50
180.0
  0
ENDBLK
  5
27F
100
AcDbEntity
  8
0
  6
BYBLOCK
 62
0
100
AcDbBlockEnd
  0
BLOCK
  5
280
100
AcDbEntity
  8
0
100
AcDbBlockBegin
 62
2
  6
CONTINUOUS
  2
*D8
 70
65
 10
0.0
 20
0.0
  3
*D8
  1

  0
MTEXT
  5
281
100
AcDbEntity
  8
0
100
AcDbMText
 62
2
  6
CONTINUOUS
  7
STANDARD
 71
1
 72
1
 10
294.8868503217
 20
127.2855731702
 30
0.0
 11
1.0
 21
0.0
 31
0.0
 73
2
 44
0.9
  1
M16
 40
3.5
 41
8.925
  0
LINE
  5
282
100
AcDbEntity
  8
0
100
AcDbLine
 62
2
  6
CONTINUOUS
 10
274.6868083217
 20
142.3105731702
 11
274.6868083217
 21
123.7855731702
  0
LINE
  5
283
100
AcDbEntity
  8
0
100
AcDbLine
 62
2
  6
CONTINUOUS
 10
274.6868083217
 20
123.7855731702
 11
274.6868083217
 21
121.4105731702
  0
LINE
  5
284
100
AcDbEntity
  8
0
100
AcDbLine
 62
2
  6
CONTINUOUS
 10
290.6868083217
 20
142.3105731702
 11
290.6868083217
 21
123.7855731702
  0
LINE
  5
285
100
AcDbEntity
  8
0
100
AcDbLine
 62
2
  6
CONTINUOUS
 10
290.6868083217
 20
123.7855731702
 11
290.6868083217
 21
121.4105731702
  0
LINE
  5
286
100
AcDbEntity
  8
0
100
AcDbLine
 62
2
  6
CONTINUOUS
 10
274.6868083217
 20
122.9105731702
 11
282.6868083217
 21
122.9105731702
  0
LINE
  5
287
100
AcDbEntity
  8
0
100
AcDbLine
 62
2
  6
CONTINUOUS
 10
290.6868083217
 20
122.9105731702
 11
282.6868083217
 21
122.9105731702
  0
LINE
  5
288
100
AcDbEntity
  8
0
100
AcDbLine
 62
2
  6
CONTINUOUS
 10
282.6868083217
 20
122.9105731702
 11
303.8118503217
 21
122.9105731702
  0
INSERT
  5
289
100
AcDbEntity
  8
0
100
AcDbBlockReference
 62
2
  6
CONTINUOUS
  2
_FILLED
 10
274.6868083217
 20
122.9105731702
 41
3.5
 42
3.5
 43
3.5
 50
180.0
  0
INSERT
  5
28A
100
AcDbEntity
  8
0
100
AcDbBlockReference
 62
2
  6
CONTINUOUS
  2
_FILLED
 10
290.6868083217
 20
122.9105731702
 41
3.5
 42
3.5
 43
3.5
  0
ENDBLK
  5
28B
100
AcDbEntity
  8
0
  6
BYBLOCK
 62
0
100
AcDbBlockEnd
  0
BLOCK
  5
28C
100
AcDbEntity
  8
0
100
AcDbBlockBegin
 62
2
  6
CONTINUOUS
  2
*D9
 70
65
 10
0.0
 20
0.0
  3
*D9
  1

  0
MTEXT
  5
28D
100
AcDbEntity
  8
0
100
AcDbMText
 62
2
  6
CONTINUOUS
  7
STANDARD
 71
3
 72
1
 10
262.990839838
 20
137.048178622
 30
0.0
 11
0.0
 21
1.0
 31
0.0
 73
2
 44
0.9
  1
7,6
 40
3.5
 41
8.925
  0
LINE
  5
28E
100
AcDbEntity
  8
0
100
AcDbLine
 62
2
  6
CONTINUOUS
 10
273.8868083217
 20
143.1105731702
 11
265.865839838
 21
143.1105731702
  0
LINE
  5
28F
100
AcDbEntity
  8
0
100
AcDbLine
 62
2
  6
CONTINUOUS
 10
272.9368083217
 20
150.7105731702
 11
265.865839838
 21
150.7105731702
  0
LINE
  5
290
100
AcDbEntity
  8
0
100
AcDbLine
 62
2
  6
CONTINUOUS
 10
267.365839838
 20
143.1105731702
 11
267.365839838
 21
128.123178622
  0
LINE
  5
291
100
AcDbEntity
  8
0
100
AcDbLine
 62
2
  6
CONTINUOUS
 10
267.365839838
 20
128.123178622
 11
267.365839838
 21
146.9105731702
  0
LINE
  5
292
100
AcDbEntity
  8
0
100
AcDbLine
 62
2
  6
CONTINUOUS
 10
267.365839838
 20
150.7105731702
 11
267.365839838
 21
155.7105731702
  0
LINE
  5
293
100
AcDbEntity
  8
0
100
AcDbLine
 62
2
  6
CONTINUOUS
 10
267.365839838
 20
155.7105731702
 11
267.365839838
 21
146.9105731702
  0
INSERT
  5
294
100
AcDbEntity
  8
0
100
AcDbBlockReference
 62
2
  6
CONTINUOUS
  2
_FILLED
 10
267.365839838
 20
143.1105731702
 41
3.5
 42
3.5
 43
3.5
 50
90.0
  0
INSERT
  5
295
100
AcDbEntity
  8
0
100
AcDbBlockReference
 62
2
  6
CONTINUOUS
  2
_FILLED
 10
267.365839838
 20
150.7105731702
 41
3.5
 42
3.5
 43
3.5
 50
270.0
  0
ENDBLK
  5
296
100
AcDbEntity
  8
0
  6
BYBLOCK
 62
0
100
AcDbBlockEnd
  0
BLOCK
  5
297
100
AcDbEntity
  8
0
100
AcDbBlockBegin
 62
2
  6
CONTINUOUS
  2
*D10
 70
65
 10
0.0
 20
0.0
  3
*D10
  1

  0
MTEXT
  5
298
100
AcDbEntity
  8
0
100
AcDbMText
 62
2
  6
CONTINUOUS
  7
STANDARD
 71
2
 72
1
 10
337.1868083217
 20
290.2396604464
 30
0.0
 11
1.0
 21
0.0
 31
0.0
 73
2
 44
0.9
  1
30
 40
3.5
 41
5.95
  0
LINE
  5
299
100
AcDbEntity
  8
0
100
AcDbLine
 62
2
  6
CONTINUOUS
 10
322.1868083217
 20
269.1105731702
 11
322.1868083217
 21
287.3646604464
  0
LINE
  5
29A
100
AcDbEntity
  8
0
100
AcDbLine
 62
2
  6
CONTINUOUS
 10
352.1868083217
 20
269.1105731702
 11
352.1868083217
 21
287.3646604464
  0
LINE
  5
29B
100
AcDbEntity
  8
0
100
AcDbLine
 62
2
  6
CONTINUOUS
 10
322.1868083217
 20
285.8646604464
 11
337.1868083217
 21
285.8646604464
  0
LINE
  5
29C
100
AcDbEntity
  8
0
100
AcDbLine
 62
2
  6
CONTINUOUS
 10
352.1868083217
 20
285.8646604464
 11
337.1868083217
 21
285.8646604464
  0
INSERT
  5
29D
100
AcDbEntity
  8
0
100
AcDbBlockReference
 62
2
  6
CONTINUOUS
  2
_FILLED
 10
322.1868083217
 20
285.8646604464
 41
3.5
 42
3.5
 43
3.5
 50
180.0
  0
INSERT
  5
29E
100
AcDbEntity
  8
0
100
AcDbBlockReference
 62
2
  6
CONTINUOUS
  2
_FILLED
 10
352.1868083217
 20
285.8646604464
 41
3.5
 42
3.5
 43
3.5
  0
ENDBLK
  5
29F
100
AcDbEntity
  8
0
  6
BYBLOCK
 62
0
100
AcDbBlockEnd
  0
BLOCK
  5
2A0
100
AcDbEntity
  8
0
100
AcDbBlockBegin
 62
2
  6
CONTINUOUS
  2
*D11
 70
65
 10
0.0
 20
0.0
  3
*D11
  1

  0
MTEXT
  5
2A1
100
AcDbEntity
  8
0
100
AcDbMText
 62
2
  6
CONTINUOUS
  7
STANDARD
 71
2
 72
1
 10
344.6868083217
 20
281.6382128829
 30
0.0
 11
1.0
 21
0.0
 31
0.0
 73
2
 44
0.9
  1
15
 40
3.5
 41
5.95
  0
LINE
  5
2A2
100
AcDbEntity
  8
0
100
AcDbLine
 62
2
  6
CONTINUOUS
 10
337.1868083217
 20
269.6105731702
 11
337.1868083217
 21
278.7632128829
  0
LINE
  5
2A3
100
AcDbEntity
  8
0
100
AcDbLine
 62
2
  6
CONTINUOUS
 10
352.1868083217
 20
269.1105731702
 11
352.1868083217
 21
278.7632128829
  0
LINE
  5
2A4
100
AcDbEntity
  8
0
100
AcDbLine
 62
2
  6
CONTINUOUS
 10
337.1868083217
 20
277.2632128829
 11
332.1868083217
 21
277.2632128829
  0
LINE
  5
2A5
100
AcDbEntity
  8
0
100
AcDbLine
 62
2
  6
CONTINUOUS
 10
332.1868083217
 20
277.2632128829
 11
344.6868083217
 21
277.2632128829
  0
LINE
  5
2A6
100
AcDbEntity
  8
0
100
AcDbLine
 62
2
  6
CONTINUOUS
 10
352.1868083217
 20
277.2632128829
 11
357.1868083217
 21
277.2632128829
  0
LINE
  5
2A7
100
AcDbEntity
  8
0
100
AcDbLine
 62
2
  6
CONTINUOUS
 10
357.1868083217
 20
277.2632128829
 11
344.6868083217
 21
277.2632128829
  0
INSERT
  5
2A8
100
AcDbEntity
  8
0
100
AcDbBlockReference
 62
2
  6
CONTINUOUS
  2
_FILLED
 10
337.1868083217
 20
277.2632128829
 41
3.5
 42
3.5
 43
3.5
  0
INSERT
  5
2A9
100
AcDbEntity
  8
0
100
AcDbBlockReference
 62
2
  6
CONTINUOUS
  2
_FILLED
 10
352.1868083217
 20
277.2632128829
 41
3.5
 42
3.5
 43
3.5
 50
180.0
  0
ENDBLK
  5
2AA
100
AcDbEntity
  8
0
  6
BYBLOCK
 62
0
100
AcDbBlockEnd
  0
BLOCK
  5
2AB
100
AcDbEntity
  8
0
100
AcDbBlockBegin
 62
2
  6
CONTINUOUS
  2
*D12
 70
65
 10
0.0
 20
0.0
  3
*D12
  1

  0
MTEXT
  5
2AC
100
AcDbEntity
  8
0
100
AcDbMText
 62
2
  6
CONTINUOUS
  7
STANDARD
 71
2
 72
1
 10
398.5118083217
 20
233.1105731702
 30
0.0
 11
0.0
 21
1.0
 31
0.0
 73
2
 44
0.9
  1
70
 40
3.5
 41
5.95
  0
LINE
  5
2AD
100
AcDbEntity
  8
0
100
AcDbLine
 62
2
  6
CONTINUOUS
 10
353.1868083217
 20
268.1105731702
 11
404.3868083217
 21
268.1105731702
  0
LINE
  5
2AE
100
AcDbEntity
  8
0
100
AcDbLine
 62
2
  6
CONTINUOUS
 10
353.1868083217
 20
198.1105731702
 11
404.3868083217
 21
198.1105731702
  0
LINE
  5
2AF
100
AcDbEntity
  8
0
100
AcDbLine
 62
2
  6
CONTINUOUS
 10
402.8868083217
 20
268.1105731702
 11
402.8868083217
 21
233.1105731702
  0
LINE
  5
2B0
100
AcDbEntity
  8
0
100
AcDbLine
 62
2
  6
CONTINUOUS
 10
402.8868083217
 20
198.1105731702
 11
402.8868083217
 21
233.1105731702
  0
INSERT
  5
2B1
100
AcDbEntity
  8
0
100
AcDbBlockReference
 62
2
  6
CONTINUOUS
  2
_FILLED
 10
402.8868083217
 20
268.1105731702
 41
3.5
 42
3.5
 43
3.5
 50
90.0
  0
INSERT
  5
2B2
100
AcDbEntity
  8
0
100
AcDbBlockReference
 62
2
  6
CONTINUOUS
  2
_FILLED
 10
402.8868083217
 20
198.1105731702
 41
3.5
 42
3.5
 43
3.5
 50
270.0
  0
ENDBLK
  5
2B3
100
AcDbEntity
  8
0
  6
BYBLOCK
 62
0
100
AcDbBlockEnd
  0
BLOCK
  5
2B4
100
AcDbEntity
  8
0
100
AcDbBlockBegin
 62
2
  6
CONTINUOUS
  2
*D13
 70
65
 10
0.0
 20
0.0
  3
*D13
  1

  0
MTEXT
  5
2B5
100
AcDbEntity
  8
0
100
AcDbMText
 62
2
  6
CONTINUOUS
  7
STANDARD
 71
2
 72
1
 10
388.5118083217
 20
233.1105731702
 30
0.0
 11
0.0
 21
1.0
 31
0.0
 73
2
 44
0.9
  1
56
 40
3.5
 41
5.95
  0
LINE
  5
2B6
100
AcDbEntity
  8
0
100
AcDbLine
 62
2
  6
CONTINUOUS
 10
345.6868083217
 20
261.1105731702
 11
394.3868083217
 21
261.1105731702
  0
LINE
  5
2B7
100
AcDbEntity
  8
0
100
AcDbLine
 62
2
  6
CONTINUOUS
 10
345.6868083217
 20
205.1105731702
 11
394.3868083217
 21
205.1105731702
  0
LINE
  5
2B8
100
AcDbEntity
  8
0
100
AcDbLine
 62
2
  6
CONTINUOUS
 10
392.8868083217
 20
261.1105731702
 11
392.8868083217
 21
233.1105731702
  0
LINE
  5
2B9
100
AcDbEntity
  8
0
100
AcDbLine
 62
2
  6
CONTINUOUS
 10
392.8868083217
 20
205.1105731702
 11
392.8868083217
 21
233.1105731702
  0
INSERT
  5
2BA
100
AcDbEntity
  8
0
100
AcDbBlockReference
 62
2
  6
CONTINUOUS
  2
_FILLED
 10
392.8868083217
 20
261.1105731702
 41
3.5
 42
3.5
 43
3.5
 50
90.0
  0
INSERT
  5
2BB
100
AcDbEntity
  8
0
100
AcDbBlockReference
 62
2
  6
CONTINUOUS
  2
_FILLED
 10
392.8868083217
 20
205.1105731702
 41
3.5
 42
3.5
 43
3.5
 50
270.0
  0
ENDBLK
  5
2BC
100
AcDbEntity
  8
0
  6
BYBLOCK
 62
0
100
AcDbBlockEnd
  0
BLOCK
  5
2BD
100
AcDbEntity
  8
0
100
AcDbBlockBegin
 62
2
  6
CONTINUOUS
  2
*D14
 70
65
 10
0.0
 20
0.0
  3
*D14
  1

  0
MTEXT
  5
2BE
100
AcDbEntity
  8
0
100
AcDbMText
 62
2
  6
CONTINUOUS
  7
STANDARD
 71
3
 72
1
 10
379.5210521786
 20
220.450023556
 30
0.0
 11
0.0
 21
1.0
 31
0.0
 73
2
 44
0.9
  1
 M16
 40
3.5
 41
11.9
  0
LINE
  5
2BF
100
AcDbEntity
  8
0
100
AcDbLine
 62
2
  6
CONTINUOUS
 10
373.4868083217
 20
241.1105731702
 11
383.0210521786
 21
241.1105731702
  0
LINE
  5
2C0
100
AcDbEntity
  8
0
100
AcDbLine
 62
2
  6
CONTINUOUS
 10
383.0210521786
 20
241.1105731702
 11
385.3960521786
 21
241.1105731702
  0
LINE
  5
2C1
100
AcDbEntity
  8
0
100
AcDbLine
 62
2
  6
CONTINUOUS
 10
373.4868083217
 20
225.1105731702
 11
383.0210521786
 21
225.1105731702
  0
LINE
  5
2C2
100
AcDbEntity
  8
0
100
AcDbLine
 62
2
  6
CONTINUOUS
 10
383.0210521786
 20
225.1105731702
 11
385.3960521786
 21
225.1105731702
  0
LINE
  5
2C3
100
AcDbEntity
  8
0
100
AcDbLine
 62
2
  6
CONTINUOUS
 10
383.8960521786
 20
241.1105731702
 11
383.8960521786
 21
233.1105731702
  0
LINE
  5
2C4
100
AcDbEntity
  8
0
100
AcDbLine
 62
2
  6
CONTINUOUS
 10
383.8960521786
 20
225.1105731702
 11
383.8960521786
 21
233.1105731702
  0
LINE
  5
2C5
100
AcDbEntity
  8
0
100
AcDbLine
 62
2
  6
CONTINUOUS
 10
383.8960521786
 20
233.1105731702
 11
383.8960521786
 21
208.550023556
  0
INSERT
  5
2C6
100
AcDbEntity
  8
0
100
AcDbBlockReference
 62
2
  6
CONTINUOUS
  2
_FILLED
 10
383.8960521786
 20
241.1105731702
 41
3.5
 42
3.5
 43
3.5
 50
90.0
  0
INSERT
  5
2C7
100
AcDbEntity
  8
0
100
AcDbBlockReference
 62
2
  6
CONTINUOUS
  2
_FILLED
 10
383.8960521786
 20
225.1105731702
 41
3.5
 42
3.5
 43
3.5
 50
270.0
  0
ENDBLK
  5
2C8
100
AcDbEntity
  8
0
  6
BYBLOCK
 62
0
100
AcDbBlockEnd
  0
BLOCK
  5
2C9
100
AcDbEntity
  8
0
100
AcDbBlockBegin
 62
2
  6
CONTINUOUS
  2
*D15
 70
65
 10
0.0
 20
0.0
  3
*D15
  1

  0
MTEXT
  5
2CA
100
AcDbEntity
  8
0
100
AcDbMText
 62
2
  6
CONTINUOUS
  7
STANDARD
 71
1
 72
1
 10
378.99384754
 20
255.7050644327
 30
0.0
 11
1.0
 21
0.0
 31
0.0
 73
2
 44
0.9
  1
7,6
 40
3.5
 41
8.925
  0
LINE
  5
2CB
100
AcDbEntity
  8
0
100
AcDbLine
 62
2
  6
CONTINUOUS
 10
365.0868083217
 20
242.8605731702
 11
365.0868083217
 21
252.8300644327
  0
LINE
  5
2CC
100
AcDbEntity
  8
0
100
AcDbLine
 62
2
  6
CONTINUOUS
 10
372.6868083217
 20
241.9105731702
 11
372.6868083217
 21
252.8300644327
  0
LINE
  5
2CD
100
AcDbEntity
  8
0
100
AcDbLine
 62
2
  6
CONTINUOUS
 10
365.0868083217
 20
251.3300644327
 11
360.0868083217
 21
251.3300644327
  0
LINE
  5
2CE
100
AcDbEntity
  8
0
100
AcDbLine
 62
2
  6
CONTINUOUS
 10
360.0868083217
 20
251.3300644327
 11
368.8868083217
 21
251.3300644327
  0
LINE
  5
2CF
100
AcDbEntity
  8
0
100
AcDbLine
 62
2
  6
CONTINUOUS
 10
372.6868083217
 20
251.3300644327
 11
387.91884754
 21
251.3300644327
  0
LINE
  5
2D0
100
AcDbEntity
  8
0
100
AcDbLine
 62
2
  6
CONTINUOUS
 10
387.91884754
 20
251.3300644327
 11
368.8868083217
 21
251.3300644327
  0
INSERT
  5
2D1
100
AcDbEntity
  8
0
100
AcDbBlockReference
 62
2
  6
CONTINUOUS
  2
_FILLED
 10
365.0868083217
 20
251.3300644327
 41
3.5
 42
3.5
 43
3.5
  0
INSERT
  5
2D2
100
AcDbEntity
  8
0
100
AcDbBlockReference
 62
2
  6
CONTINUOUS
  2
_FILLED
 10
372.6868083217
 20
251.3300644327
 41
3.5
 42
3.5
 43
3.5
 50
180.0
  0
ENDBLK
  5
2D3
100
AcDbEntity
  8
0
  6
BYBLOCK
 62
0
100
AcDbBlockEnd
  0
BLOCK
  5
2D4
100
AcDbEntity
  8
0
100
AcDbBlockBegin
 62
2
  6
CONTINUOUS
  2
*D16
 70
65
 10
0.0
 20
0.0
  3
*D16
  1

  0
MTEXT
  5
2D5
100
AcDbEntity
  8
0
100
AcDbMText
 62
2
  6
CONTINUOUS
  7
STANDARD
 71
2
 72
1
 10
83.8297392213
 20
67.978125
 30
0.0
 11
1.0
 21
0.0
 31
0.0
 73
2
 44
0.9
  1
(124)
 40
3.5
 41
14.875
  0
LINE
  5
2D6
100
AcDbEntity
  8
0
100
AcDbLine
 62
2
  6
CONTINUOUS
 10
145.7731423953
 20
96.703125
 11
145.7731423953
 21
62.103125
  0
LINE
  5
2D7
100
AcDbEntity
  8
0
100
AcDbLine
 62
2
  6
CONTINUOUS
 10
21.8863360473
 20
97.003125
 11
21.8863360473
 21
62.103125
  0
LINE
  5
2D8
100
AcDbEntity
  8
0
100
AcDbLine
 62
2
  6
CONTINUOUS
 10
145.7731423953
 20
63.603125
 11
83.8297392213
 21
63.603125
  0
LINE
  5
2D9
100
AcDbEntity
  8
0
100
AcDbLine
 62
2
  6
CONTINUOUS
 10
21.8863360473
 20
63.603125
 11
83.8297392213
 21
63.603125
  0
INSERT
  5
2DA
100
AcDbEntity
  8
0
100
AcDbBlockReference
 62
2
  6
CONTINUOUS
  2
_FILLED
 10
145.7731423953
 20
63.603125
 41
3.5
 42
3.5
 43
3.5
  0
INSERT
  5
2DB
100
AcDbEntity
  8
0
100
AcDbBlockReference
 62
2
  6
CONTINUOUS
  2
_FILLED
 10
21.8863360473
 20
63.603125
 41
3.5
 42
3.5
 43
3.5
 50
180.0
  0
ENDBLK
  5
2DC
100
AcDbEntity
  8
0
  6
BYBLOCK
 62
0
100
AcDbBlockEnd
  0
BLOCK
  5
2DD
100
AcDbEntity
  8
0
100
AcDbBlockBegin
 62
2
  6
CONTINUOUS
  2
*D17
 70
65
 10
0.0
 20
0.0
  3
*D17
  1

  0
MTEXT
  5
2DE
100
AcDbEntity
  8
0
100
AcDbMText
 62
2
  6
CONTINUOUS
  7
STANDARD
 71
3
 72
1
 10
154.0981423953
 20
99.1938444213
 30
0.0
 11
0.0
 21
1.0
 31
0.0
 73
2
 44
0.9
  1
19,4
 40
3.5
 41
11.9
  0
LINE
  5
2DF
100
AcDbEntity
  8
0
100
AcDbLine
 62
2
  6
CONTINUOUS
 10
118.7731423953
 20
122.103125
 11
159.9731423953
 21
122.103125
  0
LINE
  5
2E0
100
AcDbEntity
  8
0
100
AcDbLine
 62
2
  6
CONTINUOUS
 10
152.8832452825
 20
102.703125
 11
159.9731423953
 21
102.703125
  0
LINE
  5
2E1
100
AcDbEntity
  8
0
100
AcDbLine
 62
2
  6
CONTINUOUS
 10
158.4731423953
 20
122.103125
 11
158.4731423953
 21
112.403125
  0
LINE
  5
2E2
100
AcDbEntity
  8
0
100
AcDbLine
 62
2
  6
CONTINUOUS
 10
158.4731423953
 20
102.703125
 11
158.4731423953
 21
112.403125
  0
LINE
  5
2E3
100
AcDbEntity
  8
0
100
AcDbLine
 62
2
  6
CONTINUOUS
 10
158.4731423953
 20
112.403125
 11
158.4731423953
 21
87.2938444213
  0
INSERT
  5
2E4
100
AcDbEntity
  8
0
100
AcDbBlockReference
 62
2
  6
CONTINUOUS
  2
_FILLED
 10
158.4731423953
 20
122.103125
 41
3.5
 42
3.5
 43
3.5
 50
90.0
  0
INSERT
  5
2E5
100
AcDbEntity
  8
0
100
AcDbBlockReference
 62
2
  6
CONTINUOUS
  2
_FILLED
 10
158.4731423953
 20
102.703125
 41
3.5
 42
3.5
 43
3.5
 50
270.0
  0
ENDBLK
  5
2E6
100
AcDbEntity
  8
0
  6
BYBLOCK
 62
0
100
AcDbBlockEnd
  0
ENDSEC
  0
SECTION
  2
ENTITIES
  0
DIMENSION
  5
2E7
100
AcDbEntity
  8
0
100
AcDbDimension
 62
2
  6
CONTINUOUS
  2
*D0
 10
145.7731423953
 20
139.2127225992
 11
97.116111145
 21
139.2127225992
 70
160
 71
2
 72
2
 41
0.9
 42
97.5
  3
DIMSTYLE_1
100
AcDbAlignedDimension
 13
48.2731423953
 23
150.1016479827
 14
145.7731423953
 24
244.4127225992
100
AcDbRotatedDimension
  0
DIMENSION
  5
2E8
100
AcDbEntity
  8
0
100
AcDbDimension
 62
2
  6
CONTINUOUS
  2
*D1
 10
158.4731423953
 20
249.4127225992
 11
158.4731423953
 21
200.7556959265
 70
160
 71
2
 72
2
 41
0.9
 42
97.5
  3
DIMSTYLE_1
100
AcDbAlignedDimension
 13
53.2731423953
 23
151.9127225992
 14
149.931359575
 24
249.4127225992
 50
90.0
100
AcDbRotatedDimension
  0
DIMENSION
  5
2E9
100
AcDbEntity
  8
0
100
AcDbDimension
 62
2
  6
CONTINUOUS
  2
*D2
 10
28.8863360473
 20
262.2148662932
 11
35.687088089
 21
262.2148662932
 70
160
 71
1
 72
2
 41
0.9
 42
7.0
  3
DIMSTYLE_1
100
AcDbAlignedDimension
 13
21.8863360473
 23
254.1127225992
 14
28.8863360473
 24
254.1127225992
 50
360.0
100
AcDbRotatedDimension
  0
DIMENSION
  5
2EA
100
AcDbEntity
  8
0
100
AcDbDimension
 62
2
  6
CONTINUOUS
  2
*D3
 10
10.9761733713
 20
244.7127225992
 11
10.9761733713
 21
272.1377638086
 70
160
 71
1
 72
2
 41
0.9
 42
9.4
  1
3/8" UNF
  3
DIMSTYLE_1
100
AcDbAlignedDimension
 13
21.8863360473
 23
254.1127225992
 14
21.8863360473
 24
244.7127225992
 50
270.0
100
AcDbRotatedDimension
  0
DIMENSION
  5
2EB
100
AcDbEntity
  8
0
100
AcDbDimension
 62
2
  6
CONTINUOUS
  2
*D4
 10
225.6756023826
 20
163.6105731702
 11
225.6756023826
 21
178.6105786978
 70
160
 71
2
 72
2
 41
0.9
 42
30.0
  3
DIMSTYLE_1
100
AcDbAlignedDimension
 13
247.6868083217
 23
193.6105731702
 14
247.6868083217
 24
163.6105731702
 50
270.0
100
AcDbRotatedDimension
  0
DIMENSION
  5
2EC
100
AcDbEntity
  8
0
100
AcDbDimension
 62
2
  6
CONTINUOUS
  2
*D5
 10
236.0370237024
 20
178.6105731702
 11
236.0370237024
 21
186.5754110401
 70
160
 71
2
 72
2
 41
0.9
 42
15.0
  3
DIMSTYLE_1
100
AcDbAlignedDimension
 13
247.6868083217
 23
193.6105731702
 14
303.1868083217
 24
178.6105731702
 50
270.0
100
AcDbRotatedDimension
  0
DIMENSION
  5
2ED
100
AcDbEntity
  8
0
100
AcDbDimension
 62
2
  6
CONTINUOUS
  2
*D6
 10
247.6868083217
 20
102.9105731702
 11
282.6868139648
 21
102.9105731702
 70
160
 71
2
 72
2
 41
0.9
 42
70.0
  3
DIMSTYLE_1
100
AcDbAlignedDimension
 13
317.6868083217
 23
163.6105731702
 14
247.6868083217
 24
163.6105731702
 50
180.0
100
AcDbRotatedDimension
  0
DIMENSION
  5
2EE
100
AcDbEntity
  8
0
100
AcDbDimension
 62
2
  6
CONTINUOUS
  2
*D7
 10
254.6868083217
 20
112.9105731702
 11
282.6868139648
 21
112.9105731702
 70
160
 71
2
 72
2
 41
0.9
 42
56.0
  3
DIMSTYLE_1
100
AcDbAlignedDimension
 13
310.6868083217
 23
171.1105731702
 14
254.6868083217
 24
171.1105731702
 50
180.0
100
AcDbRotatedDimension
  0
DIMENSION
  5
2EF
100
AcDbEntity
  8
0
100
AcDbDimension
 62
2
  6
CONTINUOUS
  2
*D8
 10
290.6868083217
 20
122.9105731702
 11
299.2563830566
 21
122.9105731702
 70
160
 71
1
 72
2
 41
0.9
 42
16.0
  1
M16
  3
DIMSTYLE_1
100
AcDbAlignedDimension
 13
274.6868083217
 23
143.3105731702
 14
290.6868083217
 24
143.3105731702
100
AcDbRotatedDimension
  0
DIMENSION
  5
2F0
100
AcDbEntity
  8
0
100
AcDbDimension
 62
2
  6
CONTINUOUS
  2
*D9
 10
267.365839838
 20
150.7105731702
 11
267.365839838
 21
132.5856719139
 70
160
 71
3
 72
2
 41
0.9
 42
7.6
  3
DIMSTYLE_1
100
AcDbAlignedDimension
 13
274.8868083217
 23
143.1105731702
 14
273.9368083217
 24
150.7105731702
 50
90.0
100
AcDbRotatedDimension
  0
DIMENSION
  5
2F1
100
AcDbEntity
  8
0
100
AcDbDimension
 62
2
  6
CONTINUOUS
  2
*D10
 10
352.1868083217
 20
285.8646604464
 11
337.1868127441
 21
285.8646604464
 70
160
 71
2
 72
2
 41
0.9
 42
30.0
  3
DIMSTYLE_1
100
AcDbAlignedDimension
 13
322.1868083217
 23
268.1105731702
 14
352.1868083217
 24
268.1105731702
100
AcDbRotatedDimension
  0
DIMENSION
  5
2F2
100
AcDbEntity
  8
0
100
AcDbDimension
 62
2
  6
CONTINUOUS
  2
*D11
 10
352.1868083217
 20
277.2632128829
 11
345.1516625977
 21
277.2632128829
 70
160
 71
2
 72
2
 41
0.9
 42
15.0
  3
DIMSTYLE_1
100
AcDbAlignedDimension
 13
337.1868083217
 23
268.6105731702
 14
352.1868083217
 24
268.1105731702
100
AcDbRotatedDimension
  0
DIMENSION
  5
2F3
100
AcDbEntity
  8
0
100
AcDbDimension
 62
2
  6
CONTINUOUS
  2
*D12
 10
402.8868083217
 20
198.1105731702
 11
402.8868083217
 21
233.1105849169
 70
160
 71
2
 72
2
 41
0.9
 42
70.0
  3
DIMSTYLE_1
100
AcDbAlignedDimension
 13
352.1868083217
 23
268.1105731702
 14
352.1868083217
 24
198.1105731702
 50
270.0
100
AcDbRotatedDimension
  0
DIMENSION
  5
2F4
100
AcDbEntity
  8
0
100
AcDbDimension
 62
2
  6
CONTINUOUS
  2
*D13
 10
392.8868083217
 20
205.1105731702
 11
392.8868083217
 21
233.1105653857
 70
160
 71
2
 72
2
 41
0.9
 42
56.0
  3
DIMSTYLE_1
100
AcDbAlignedDimension
 13
344.6868083217
 23
261.1105731702
 14
344.6868083217
 24
205.1105731702
 50
270.0
100
AcDbRotatedDimension
  0
DIMENSION
  5
2F5
100
AcDbEntity
  8
0
100
AcDbDimension
 62
2
  6
CONTINUOUS
  2
*D14
 10
383.8960521786
 20
225.1105731702
 11
383.8960521786
 21
215.8945542631
 70
160
 71
3
 72
2
 41
0.9
 42
16.0
  1
 M16
  3
DIMSTYLE_1
100
AcDbAlignedDimension
 13
372.4868083217
 23
241.1105731702
 14
372.4868083217
 24
225.1105731702
 50
270.0
100
AcDbRotatedDimension
  0
DIMENSION
  5
2F6
100
AcDbEntity
  8
0
100
AcDbDimension
 62
2
  6
CONTINUOUS
  2
*D15
 10
372.6868083217
 20
251.3300644327
 11
383.4563470459
 21
251.3300644327
 70
160
 71
1
 72
2
 41
0.9
 42
7.6
  3
DIMSTYLE_1
100
AcDbAlignedDimension
 13
365.0868083217
 23
241.8605731702
 14
372.6868083217
 24
240.9105731702
100
AcDbRotatedDimension
  0
DIMENSION
  5
2F7
100
AcDbEntity
  8
0
100
AcDbDimension
 62
2
  6
CONTINUOUS
  2
*D16
 10
21.8863360473
 20
63.603125
 11
83.8297392213
 21
63.603125
 70
160
 71
2
 72
2
 41
0.9
 42
123.886806348
  1
(<>)
  3
DIMSTYLE_1
100
AcDbAlignedDimension
 13
145.7731423953
 23
97.703125
 14
21.8863360473
 24
98.003125
 50
180.0
100
AcDbRotatedDimension
  0
DIMENSION
  5
2F8
100
AcDbEntity
  8
0
100
AcDbDimension
 62
2
  6
CONTINUOUS
  2
*D17
 10
158.4731423953
 20
102.703125
 11
158.4731423953
 21
93.7086884762
 70
160
 71
3
 72
2
 41
0.9
 42
19.4
  3
DIMSTYLE_1
100
AcDbAlignedDimension
 13
117.7731423953
 23
122.103125
 14
151.8832452825
 24
102.703125
 50
270.0
100
AcDbRotatedDimension
  0
MTEXT
  5
2F9
100
AcDbEntity
  8
0
100
AcDbMText
 62
2
  6
CONTINUOUS
  7
STANDARD
 71
1
 72
1
 10
323.6653315355
 20
43.105528236
 30
0.0
 11
1.0
 21
0.0
 31
0.0
 73
2
 44
0.9
  1
Sensoradapter Ø15 / 90°\PWerkstoff: 1.4435\P \PBlattmaßstab 1:1\P \PIndex: A vom 24.11.2017
 40
3.5
 41
68.425
  0
MTEXT
  5
2FA
100
AcDbEntity
  8
0
100
AcDbMText
 62
2
  6
CONTINUOUS
  7
STANDARD
 71
3
 72
1
 10
231.3017750095
 20
11.6826977895
 30
0.0
 11
1.0
 21
0.0
 31
0.0
 73
2
 44
0.9
  1
MASSSTAB 0,500
 40
3.5
 41
41.65
  0
LINE
  5
2FB
100
AcDbEntity
  8
0
100
AcDbLine
 62
7
  6
CONTINUOUS
 10
0.0
 20
0.0
 11
0.0
 21
297.0
  0
LINE
  5
2FC
100
AcDbEntity
  8
0
100
AcDbLine
 62
7
  6
CONTINUOUS
 10
0.0
 20
0.0
 11
420.0
 21
0.0
  0
LINE
  5
2FD
100
AcDbEntity
  8
0
100
AcDbLine
 62
7
  6
CONTINUOUS
 10
0.0
 20
297.0
 11
420.0
 21
297.0
  0
LINE
  5
2FE
100
AcDbEntity
  8
0
100
AcDbLine
 62
7
  6
CONTINUOUS
 10
420.0
 20
0.0
 11
420.0
 21
297.0
  0
LINE
  5
2FF
100
AcDbEntity
  8
0
100
AcDbLine
 62
7
  6
CONTINUOUS
 10
40.4731423954
 20
159.4127225991
 11
40.2731423954
 21
159.6127225991
  0
LINE
  5
300
100
AcDbEntity
  8
02___PRT_ALL_AXES
100
AcDbLine
 62
7
  6
CONTINUOUS
 10
13.2731423953
 20
179.9127225992
 11
13.2731423953
 21
209.9127225992
  0
LINE
  5
301
100
AcDbEntity
  8
02___PRT_ALL_AXES
100
AcDbLine
 62
7
  6
CONTINUOUS
 10
53.2731423953
 20
151.9127225992
 11
43.2731423953
 21
151.9127225992
  0
LINE
  5
302
100
AcDbEntity
  8
02___PRT_ALL_AXES
100
AcDbLine
 62
7
  6
CONTINUOUS
 10
53.9231423953
 20
155.4127225992
 11
42.6231423953
 21
155.4127225992
  0
LINE
  5
303
100
AcDbEntity
  8
0
100
AcDbLine
 62
7
  6
CONTINUOUS
 10
39.5231423954
 20
167.0127225991
 11
39.3231423954
 21
167.2127225991
  0
LINE
  5
304
100
AcDbEntity
  8
0
100
AcDbLine
 62
7
  6
CONTINUOUS
 10
28.3731423953
 20
179.9127225992
 11
27.7731423953
 21
180.5127225992
  0
LINE
  5
305
100
AcDbEntity
  8
02___PRT_ALL_AXES
100
AcDbLine
 62
7
  6
CENTER
 10
20.2731423953
 20
194.9127225992
 11
20.2731423953
 21
187.4127225992
  0
LINE
  5
306
100
AcDbEntity
  8
02___PRT_ALL_AXES
100
AcDbLine
 62
7
  6
CENTER
 10
20.2731423953
 20
194.9127225992
 11
20.2731423953
 21
202.4127225992
  0
LINE
  5
307
100
AcDbEntity
  8
02___PRT_ALL_AXES
100
AcDbLine
 62
7
  6
CONTINUOUS
 10
21.8863360473
 20
254.1127225992
 11
21.8863360473
 21
244.7127225992
  0
LINE
  5
308
100
AcDbEntity
  8
0
100
AcDbLine
 62
7
  6
CONTINUOUS
 10
40.4731423953
 20
159.4127225992
 11
56.0731423953
 21
159.4127225992
  0
LINE
  5
309
100
AcDbEntity
  8
0
100
AcDbLine
 62
7
  6
CONTINUOUS
 10
40.2731423953
 20
159.6127225992
 11
56.2731423953
 21
159.6127225992
  0
LINE
  5
30A
100
AcDbEntity
  8
0
100
AcDbLine
 62
7
  6
CONTINUOUS
 10
27.7731423953
 20
209.3127225992
 11
27.7731423953
 21
180.5127225992
  0
LINE
  5
30B
100
AcDbEntity
  8
0
100
AcDbLine
 62
7
  6
CONTINUOUS
 10
28.3731423953
 20
209.3127225992
 11
28.3731423953
 21
180.5127225992
  0
LINE
  5
30C
100
AcDbEntity
  8
02___PRT_ALL_AXES
100
AcDbLine
 62
7
  6
CONTINUOUS
 10
28.8863360473
 20
254.1127225992
 11
28.8863360473
 21
244.7127225992
  0
LINE
  5
30D
100
AcDbEntity
  8
0
100
AcDbLine
 62
7
  6
CONTINUOUS
 10
39.5231423953
 20
167.0127225992
 11
57.0231423953
 21
167.0127225992
  0
LINE
  5
30E
100
AcDbEntity
  8
0
100
AcDbLine
 62
7
  6
CONTINUOUS
 10
39.3231423953
 20
167.2127225992
 11
57.2231423953
 21
167.2127225992
  0
LINE
  5
30F
100
AcDbEntity
  8
02___PRT_ALL_AXES
100
AcDbLine
 62
7
  6
CENTER
 10
35.4231423953
 20
194.9127225992
 11
35.4231423953
 21
190.9126225992
  0
LINE
  5
310
100
AcDbEntity
  8
02___PRT_ALL_AXES
100
AcDbLine
 62
7
  6
CENTER
 10
35.4231423953
 20
194.9127225992
 11
35.4231423953
 21
198.9128225992
  0
LINE
  5
311
100
AcDbEntity
  8
0
100
AcDbLine
 62
7
  6
CONTINUOUS
 10
57.0231423952
 20
177.9127225993
 11
57.2231423952
 21
177.7127225993
  0
LINE
  5
312
100
AcDbEntity
  8
02___PRT_ALL_AXES
100
AcDbLine
 62
7
  6
CONTINUOUS
 10
43.2731423953
 20
151.9127225992
 11
42.6231423953
 21
155.4127225992
  0
LINE
  5
313
100
AcDbEntity
  8
0
100
AcDbLine
 62
7
  6
CONTINUOUS
 10
39.3231423953
 20
167.2127225992
 11
39.3231423953
 21
177.7127225992
  0
LINE
  5
314
100
AcDbEntity
  8
02___PRT_ALL_AXES
100
AcDbLine
 62
7
  6
CONTINUOUS
 10
39.3231423953
 20
167.2127225992
 11
39.3231423953
 21
177.7127225992
  0
LINE
  5
315
100
AcDbEntity
  8
0
100
AcDbLine
 62
7
  6
CONTINUOUS
 10
40.2731423953
 20
159.6127225992
 11
40.2731423953
 21
167.0127225992
  0
LINE
  5
316
100
AcDbEntity
  8
02___PRT_ALL_AXES
100
AcDbLine
 62
7
  6
CONTINUOUS
 10
40.2731423953
 20
159.6127225992
 11
40.2731423953
 21
167.0127225992
  0
LINE
  5
317
100
AcDbEntity
  8
0
100
AcDbLine
 62
7
  6
CONTINUOUS
 10
40.7731423953
 20
211.9127225992
 11
40.7731423953
 21
209.9127225992
  0
LINE
  5
318
100
AcDbEntity
  8
0
100
AcDbLine
 62
7
  6
CONTINUOUS
 10
40.7731423953
 20
179.9127225992
 11
40.7731423953
 21
177.9127225992
  0
LINE
  5
319
100
AcDbEntity
  8
0
100
AcDbLine
 62
7
  6
CONTINUOUS
 10
39.3231423953
 20
177.7127225992
 11
57.2231423953
 21
177.7127225992
  0
LINE
  5
31A
100
AcDbEntity
  8
0
100
AcDbLine
 62
7
  6
CONTINUOUS
 10
39.5231423953
 20
177.9127225992
 11
57.0231423953
 21
177.9127225992
  0
LINE
  5
31B
100
AcDbEntity
  8
02___PRT_ALL_AXES
100
AcDbLine
 62
7
  6
CONTINUOUS
 10
83.2731423953
 20
179.9127225992
 11
68.1731423953
 21
179.9127225992
  0
LINE
  5
31C
100
AcDbEntity
  8
02___PRT_ALL_AXES
100
AcDbLine
 62
7
  6
CONTINUOUS
 10
28.3731423953
 20
179.9127225992
 11
13.2731423953
 21
179.9127225992
  0
LINE
  5
31D
100
AcDbEntity
  8
0
100
AcDbLine
 62
7
  6
CONTINUOUS
 10
28.3731423953
 20
179.9127225992
 11
68.1731423953
 21
179.9127225992
  0
LINE
  5
31E
100
AcDbEntity
  8
0
100
AcDbLine
 62
7
  6
CONTINUOUS
 10
28.3731423953
 20
180.5127225992
 11
68.1731423953
 21
180.5127225992
  0
LINE
  5
31F
100
AcDbEntity
  8
0
100
AcDbLine
 62
7
  6
CONTINUOUS
 10
28.3731423953
 20
209.3127225992
 11
28.0731423953
 21
209.6127225992
  0
LINE
  5
320
100
AcDbEntity
  8
02___PRT_ALL_AXES
100
AcDbLine
 62
7
  6
CONTINUOUS
 10
43.0231423953
 20
155.4127225992
 11
43.0231423953
 21
159.4127225992
  0
LINE
  5
321
100
AcDbEntity
  8
02___PRT_ALL_AXES
100
AcDbLine
 62
7
  6
CENTER
 10
48.2731423953
 20
150.1016479827
 11
48.2731423953
 21
216.9127225992
  0
LINE
  5
322
100
AcDbEntity
  8
0
100
AcDbLine
 62
7
  6
CONTINUOUS
 10
72.1136494267
 20
254.7895024671
 11
53.2236755227
 21
242.9857367161
  0
LINE
  5
323
100
AcDbEntity
  8
0
100
AcDbLine
 62
7
  6
CONTINUOUS
 10
68.4731423953
 20
180.2127225992
 11
68.1731423953
 21
180.5127225992
  0
LINE
  5
324
100
AcDbEntity
  8
02___PRT_ALL_AXES
100
AcDbLine
 62
7
  6
CONTINUOUS
 10
53.5231423953
 20
155.4127225992
 11
53.5231423953
 21
159.4127225992
  0
LINE
  5
325
100
AcDbEntity
  8
0
100
AcDbLine
 62
7
  6
CONTINUOUS
 10
27.7731423953
 20
209.3127225992
 11
28.3731423953
 21
209.9127225992
  0
LINE
  5
326
100
AcDbEntity
  8
0
100
AcDbLine
 62
7
  6
CONTINUOUS
 10
87.7731423953
 20
269.3127225992
 11
88.3731423953
 21
269.9127225992
  0
LINE
  5
327
100
AcDbEntity
  8
0
100
AcDbLine
 62
7
  6
CONTINUOUS
 10
55.7731423953
 20
211.9127225992
 11
55.7731423953
 21
209.9127225992
  0
LINE
  5
328
100
AcDbEntity
  8
0
100
AcDbLine
 62
7
  6
CONTINUOUS
 10
55.7731423953
 20
179.9127225992
 11
55.7731423953
 21
177.9127225992
  0
LINE
  5
329
100
AcDbEntity
  8
0
100
AcDbLine
 62
7
  6
CONTINUOUS
 10
56.2731423953
 20
159.6127225992
 11
56.2731423953
 21
167.0127225992
  0
LINE
  5
32A
100
AcDbEntity
  8
02___PRT_ALL_AXES
100
AcDbLine
 62
7
  6
CONTINUOUS
 10
56.2731423953
 20
159.6127225992
 11
56.2731423953
 21
167.0127225992
  0
LINE
  5
32B
100
AcDbEntity
  8
0
100
AcDbLine
 62
7
  6
CONTINUOUS
 10
57.2231423953
 20
167.2127225992
 11
57.2231423953
 21
177.7127225992
  0
LINE
  5
32C
100
AcDbEntity
  8
02___PRT_ALL_AXES
100
AcDbLine
 62
7
  6
CONTINUOUS
 10
57.2231423953
 20
167.2127225992
 11
57.2231423953
 21
177.7127225992
  0
LINE
  5
32D
100
AcDbEntity
  8
02___PRT_ALL_AXES
100
AcDbLine
 62
7
  6
CENTER
 10
61.1231423953
 20
194.9127225992
 11
61.1231423953
 21
190.9126225992
  0
LINE
  5
32E
100
AcDbEntity
  8
02___PRT_ALL_AXES
100
AcDbLine
 62
7
  6
CENTER
 10
61.1231423953
 20
194.9127225992
 11
61.1231423953
 21
198.9128225992
  0
LINE
  5
32F
100
AcDbEntity
  8
02___PRT_ALL_AXES
100
AcDbLine
 62
7
  6
CENTER
 10
76.2731423953
 20
194.9127225992
 11
68.7731423953
 21
194.9127225992
  0
LINE
  5
330
100
AcDbEntity
  8
02___PRT_ALL_AXES
100
AcDbLine
 62
7
  6
CENTER
 10
61.1231423953
 20
194.9127225992
 11
57.1230423953
 21
194.9127225992
  0
LINE
  5
331
100
AcDbEntity
  8
02___PRT_ALL_AXES
100
AcDbLine
 62
7
  6
CENTER
 10
35.4231423953
 20
194.9127225992
 11
31.4230423953
 21
194.9127225992
  0
LINE
  5
332
100
AcDbEntity
  8
02___PRT_ALL_AXES
100
AcDbLine
 62
7
  6
CENTER
 10
20.2731423953
 20
194.9127225992
 11
12.7731423953
 21
194.9127225992
  0
LINE
  5
333
100
AcDbEntity
  8
02___PRT_ALL_AXES
100
AcDbLine
 62
7
  6
CENTER
 10
20.2731423953
 20
194.9127225992
 11
27.7731423953
 21
194.9127225992
  0
LINE
  5
334
100
AcDbEntity
  8
02___PRT_ALL_AXES
100
AcDbLine
 62
7
  6
CENTER
 10
35.4231423953
 20
194.9127225992
 11
39.4232423953
 21
194.9127225992
  0
LINE
  5
335
100
AcDbEntity
  8
02___PRT_ALL_AXES
100
AcDbLine
 62
7
  6
CENTER
 10
61.1231423953
 20
194.9127225992
 11
65.1232423953
 21
194.9127225992
  0
LINE
  5
336
100
AcDbEntity
  8
02___PRT_ALL_AXES
100
AcDbLine
 62
7
  6
CENTER
 10
76.2731423953
 20
194.9127225992
 11
83.7731423953
 21
194.9127225992
  0
LINE
  5
337
100
AcDbEntity
  8
02___PRT_ALL_AXES
100
AcDbLine
 62
7
  6
CONTINUOUS
 10
53.2731423953
 20
151.9127225992
 11
53.9231423953
 21
155.4127225992
  0
LINE
  5
338
100
AcDbEntity
  8
0
100
AcDbLine
 62
7
  6
CONTINUOUS
 10
68.1731423953
 20
209.9127225992
 11
68.7731423953
 21
209.3127225992
  0
LINE
  5
339
100
AcDbEntity
  8
0
100
AcDbLine
 62
7
  6
CONTINUOUS
 10
68.1731423953
 20
180.5127225992
 11
68.1731423953
 21
209.3127225992
  0
LINE
  5
33A
100
AcDbEntity
  8
0
100
AcDbLine
 62
7
  6
CONTINUOUS
 10
68.7731423953
 20
180.5127225992
 11
68.7731423953
 21
209.3127225992
  0
LINE
  5
33B
100
AcDbEntity
  8
0
100
AcDbLine
 62
7
  6
CONTINUOUS
 10
28.3731423953
 20
180.5127225992
 11
28.0731423953
 21
180.2127225992
  0
LINE
  5
33C
100
AcDbEntity
  8
0
100
AcDbLine
 62
7
  6
CONTINUOUS
 10
117.1731423953
 20
269.3127225992
 11
117.4731423953
 21
269.6127225992
  0
LINE
  5
33D
100
AcDbEntity
  8
0
100
AcDbLine
 62
7
  6
CONTINUOUS
 10
68.1731423953
 20
209.3127225992
 11
28.3731423953
 21
209.3127225992
  0
LINE
  5
33E
100
AcDbEntity
  8
0
100
AcDbLine
 62
7
  6
CONTINUOUS
 10
68.1731423953
 20
209.9127225992
 11
28.3731423953
 21
209.9127225992
  0
LINE
  5
33F
100
AcDbEntity
  8
02___PRT_ALL_AXES
100
AcDbLine
 62
7
  6
CONTINUOUS
 10
13.2731423953
 20
209.9127225992
 11
28.3731423953
 21
209.9127225992
  0
LINE
  5
340
100
AcDbEntity
  8
02___PRT_ALL_AXES
100
AcDbLine
 62
7
  6
CONTINUOUS
 10
68.1731423953
 20
209.9127225992
 11
83.2731423953
 21
209.9127225992
  0
LINE
  5
341
100
AcDbEntity
  8
0
100
AcDbLine
 62
7
  6
CONTINUOUS
 10
55.7731423953
 20
211.9127225992
 11
40.7731423953
 21
211.9127225992
  0
LINE
  5
342
100
AcDbEntity
  8
02___PRT_ALL_AXES
100
AcDbLine
 62
7
  6
CENTER
 10
76.2731423953
 20
194.9127225992
 11
76.2731423953
 21
187.4127225992
  0
LINE
  5
343
100
AcDbEntity
  8
02___PRT_ALL_AXES
100
AcDbLine
 62
7
  6
CENTER
 10
76.2731423953
 20
194.9127225992
 11
76.2731423953
 21
202.4127225992
  0
LINE
  5
344
100
AcDbEntity
  8
0
100
AcDbLine
 62
7
  6
CONTINUOUS
 10
68.1731423953
 20
209.3127225992
 11
68.4731423953
 21
209.6127225992
  0
LINE
  5
345
100
AcDbEntity
  8
0
100
AcDbLine
 62
7
  6
CONTINUOUS
 10
88.0731423953
 20
229.2127225992
 11
88.3731423953
 21
229.5127225992
  0
LINE
  5
346
100
AcDbEntity
  8
0
100
AcDbLine
 62
7
  6
CONTINUOUS
 10
39.5231423955
 20
177.9127225994
 11
39.3231423955
 21
177.7127225994
  0
LINE
  5
347
100
AcDbEntity
  8
0
100
AcDbLine
 62
7
  6
CONTINUOUS
 10
119.7731423952
 20
258.1627225991
 11
119.9731423952
 21
258.3627225991
  0
LINE
  5
348
100
AcDbEntity
  8
02___PRT_ALL_AXES
100
AcDbLine
 62
7
  6
CONTINUOUS
 10
117.7731423953
 20
214.4127225992
 11
87.7731423953
 21
214.4127225992
  0
LINE
  5
349
100
AcDbEntity
  8
02___PRT_ALL_AXES
100
AcDbLine
 62
7
  6
CONTINUOUS
 10
83.2731423953
 20
209.9127225992
 11
83.2731423953
 21
179.9127225992
  0
LINE
  5
34A
100
AcDbEntity
  8
0
100
AcDbLine
 62
7
  6
CONTINUOUS
 10
85.7731423953
 20
241.9127225992
 11
85.7731423953
 21
256.9127225992
  0
LINE
  5
34B
100
AcDbEntity
  8
02___PRT_ALL_AXES
100
AcDbLine
 62
7
  6
CENTER
 10
102.7731423953
 20
221.4127225992
 11
95.2731423953
 21
221.4127225992
  0
LINE
  5
34C
100
AcDbEntity
  8
02___PRT_ALL_AXES
100
AcDbLine
 62
7
  6
CENTER
 10
102.7731423953
 20
221.4127225992
 11
110.2731423953
 21
221.4127225992
  0
LINE
  5
34D
100
AcDbEntity
  8
0
100
AcDbLine
 62
7
  6
CONTINUOUS
 10
87.7731423953
 20
269.3127225992
 11
87.7731423953
 21
229.5127225992
  0
LINE
  5
34E
100
AcDbEntity
  8
02___PRT_ALL_AXES
100
AcDbLine
 62
7
  6
CONTINUOUS
 10
87.7731423953
 20
214.4127225992
 11
87.7731423953
 21
229.5127225992
  0
LINE
  5
34F
100
AcDbEntity
  8
02___PRT_ALL_AXES
100
AcDbLine
 62
7
  6
CONTINUOUS
 10
87.7731423953
 20
269.3127225992
 11
87.7731423953
 21
284.4127225992
  0
LINE
  5
350
100
AcDbEntity
  8
0
100
AcDbLine
 62
7
  6
CONTINUOUS
 10
88.3731423953
 20
269.3127225992
 11
88.3731423953
 21
229.5127225992
  0
LINE
  5
351
100
AcDbEntity
  8
0
100
AcDbLine
 62
7
  6
CONTINUOUS
 10
88.3731423953
 20
228.9127225992
 11
117.1731423953
 21
228.9127225992
  0
LINE
  5
352
100
AcDbEntity
  8
0
100
AcDbLine
 62
7
  6
CONTINUOUS
 10
88.3731423953
 20
229.5127225992
 11
117.1731423953
 21
229.5127225992
  0
LINE
  5
353
100
AcDbEntity
  8
0
100
AcDbLine
 62
7
  6
CONTINUOUS
 10
117.7731423953
 20
229.5127225992
 11
117.1731423953
 21
228.9127225992
  0
LINE
  5
354
100
AcDbEntity
  8
0
100
AcDbLine
 62
7
  6
CONTINUOUS
 10
68.1731423953
 20
179.9127225992
 11
68.7731423953
 21
180.5127225992
  0
LINE
  5
355
100
AcDbEntity
  8
02___PRT_ALL_AXES
100
AcDbLine
 62
7
  6
CONTINUOUS
 10
145.7731423953
 20
244.4127225992
 11
142.2731423953
 21
243.7627225992
  0
LINE
  5
356
100
AcDbEntity
  8
02___PRT_ALL_AXES
100
AcDbLine
 62
7
  6
CENTER
 10
102.7731423953
 20
236.5627225992
 11
98.7730423953
 21
236.5627225992
  0
LINE
  5
357
100
AcDbEntity
  8
02___PRT_ALL_AXES
100
AcDbLine
 62
7
  6
CENTER
 10
102.7731423953
 20
236.5627225992
 11
106.7732423953
 21
236.5627225992
  0
LINE
  5
358
100
AcDbEntity
  8
0
100
AcDbLine
 62
7
  6
CONTINUOUS
 10
88.3731423953
 20
228.9127225992
 11
87.7731423953
 21
229.5127225992
  0
LINE
  5
359
100
AcDbEntity
  8
02___PRT_ALL_AXES
100
AcDbLine
 62
7
  6
CENTER
 10
102.7731423953
 20
277.4127225992
 11
102.7731423953
 21
269.9127225992
  0
LINE
  5
35A
100
AcDbEntity
  8
02___PRT_ALL_AXES
100
AcDbLine
 62
7
  6
CENTER
 10
102.7731423953
 20
262.2627225992
 11
102.7731423953
 21
258.2626225992
  0
LINE
  5
35B
100
AcDbEntity
  8
02___PRT_ALL_AXES
100
AcDbLine
 62
7
  6
CENTER
 10
102.7731423953
 20
236.5627225992
 11
102.7731423953
 21
232.5626225992
  0
LINE
  5
35C
100
AcDbEntity
  8
02___PRT_ALL_AXES
100
AcDbLine
 62
7
  6
CENTER
 10
102.7731423953
 20
221.4127225992
 11
102.7731423953
 21
213.9127225992
  0
LINE
  5
35D
100
AcDbEntity
  8
02___PRT_ALL_AXES
100
AcDbLine
 62
7
  6
CENTER
 10
102.7731423953
 20
221.4127225992
 11
102.7731423953
 21
228.9127225992
  0
LINE
  5
35E
100
AcDbEntity
  8
02___PRT_ALL_AXES
100
AcDbLine
 62
7
  6
CENTER
 10
102.7731423953
 20
236.5627225992
 11
102.7731423953
 21
240.5628225992
  0
LINE
  5
35F
100
AcDbEntity
  8
02___PRT_ALL_AXES
100
AcDbLine
 62
7
  6
CENTER
 10
102.7731423953
 20
262.2627225992
 11
102.7731423953
 21
266.2628225992
  0
LINE
  5
360
100
AcDbEntity
  8
02___PRT_ALL_AXES
100
AcDbLine
 62
7
  6
CENTER
 10
102.7731423953
 20
277.4127225992
 11
102.7731423953
 21
284.9127225992
  0
LINE
  5
361
100
AcDbEntity
  8
0
100
AcDbLine
 62
7
  6
CONTINUOUS
 10
130.6731423954
 20
240.6627225993
 11
130.4731423954
 21
240.4627225993
  0
LINE
  5
362
100
AcDbEntity
  8
0
100
AcDbLine
 62
7
  6
CONTINUOUS
 10
57.0231423952
 20
167.0127225991
 11
57.2231423952
 21
167.2127225991
  0
LINE
  5
363
100
AcDbEntity
  8
0
100
AcDbLine
 62
7
  6
CONTINUOUS
 10
138.2731423954
 20
241.6127225993
 11
138.0731423954
 21
241.4127225993
  0
LINE
  5
364
100
AcDbEntity
  8
0
100
AcDbLine
 62
7
  6
CONTINUOUS
 10
56.0731423952
 20
159.4127225991
 11
56.2731423952
 21
159.6127225991
  0
LINE
  5
365
100
AcDbEntity
  8
0
100
AcDbLine
 62
7
  6
CONTINUOUS
 10
130.4731423953
 20
240.4627225992
 11
119.9731423953
 21
240.4627225992
  0
LINE
  5
366
100
AcDbEntity
  8
02___PRT_ALL_AXES
100
AcDbLine
 62
7
  6
CONTINUOUS
 10
130.4731423953
 20
240.4627225992
 11
119.9731423953
 21
240.4627225992
  0
LINE
  5
367
100
AcDbEntity
  8
0
100
AcDbLine
 62
7
  6
CONTINUOUS
 10
138.0731423953
 20
241.4127225992
 11
130.6731423953
 21
241.4127225992
  0
LINE
  5
368
100
AcDbEntity
  8
02___PRT_ALL_AXES
100
AcDbLine
 62
7
  6
CONTINUOUS
 10
138.0731423953
 20
241.4127225992
 11
130.6731423953
 21
241.4127225992
  0
LINE
  5
369
100
AcDbEntity
  8
0
100
AcDbLine
 62
7
  6
CONTINUOUS
 10
119.7731423953
 20
241.9127225992
 11
117.7731423953
 21
241.9127225992
  0
LINE
  5
36A
100
AcDbEntity
  8
0
100
AcDbLine
 62
7
  6
CONTINUOUS
 10
87.7731423953
 20
241.9127225992
 11
85.7731423953
 21
241.9127225992
  0
LINE
  5
36B
100
AcDbEntity
  8
02___PRT_ALL_AXES
100
AcDbLine
 62
7
  6
CONTINUOUS
 10
142.2731423953
 20
244.1627225992
 11
138.2731423953
 21
244.1627225992
  0
LINE
  5
36C
100
AcDbEntity
  8
02___PRT_ALL_AXES
100
AcDbLine
 62
7
  6
CONTINUOUS
 10
28.8863360473
 20
244.7127225992
 11
21.8863360473
 21
244.7127225992
  0
LINE
  5
36D
100
AcDbEntity
  8
02___PRT_ALL_AXES
100
AcDbLine
 62
7
  6
CONTINUOUS
 10
57.1316698508
 20
245.4277225992
 11
28.8863360473
 21
245.4277225992
  0
LINE
  5
36E
100
AcDbEntity
  8
0
100
AcDbLine
 62
7
  6
CONTINUOUS
 10
57.1316698508
 20
245.4277225992
 11
28.8863360473
 21
245.4277225992
  0
LINE
  5
36F
100
AcDbEntity
  8
02___PRT_ALL_AXES
100
AcDbLine
 62
7
  6
CENTER
 10
16.0085774129
 20
249.4127225992
 11
149.931359575
 21
249.4127225992
  0
LINE
  5
370
100
AcDbEntity
  8
0
100
AcDbLine
 62
7
  6
CONTINUOUS
 10
117.1731423953
 20
229.5127225992
 11
117.1731423953
 21
269.3127225992
  0
LINE
  5
371
100
AcDbEntity
  8
02___PRT_ALL_AXES
100
AcDbLine
 62
7
  6
CONTINUOUS
 10
117.7731423953
 20
284.4127225992
 11
117.7731423953
 21
269.3127225992
  0
LINE
  5
372
100
AcDbEntity
  8
02___PRT_ALL_AXES
100
AcDbLine
 62
7
  6
CONTINUOUS
 10
117.7731423953
 20
229.5127225992
 11
117.7731423953
 21
214.4127225992
  0
LINE
  5
373
100
AcDbEntity
  8
0
100
AcDbLine
 62
7
  6
CONTINUOUS
 10
117.7731423953
 20
229.5127225992
 11
117.7731423953
 21
269.3127225992
  0
LINE
  5
374
100
AcDbEntity
  8
02___PRT_ALL_AXES
100
AcDbLine
 62
7
  6
CONTINUOUS
 10
69.8863360473
 20
253.3977225992
 11
28.8863360473
 21
253.3977225992
  0
LINE
  5
375
100
AcDbEntity
  8
0
100
AcDbLine
 62
7
  6
CONTINUOUS
 10
69.8863360473
 20
253.3977225992
 11
28.8863360473
 21
253.3977225992
  0
LINE
  5
376
100
AcDbEntity
  8
02___PRT_ALL_AXES
100
AcDbLine
 62
7
  6
CONTINUOUS
 10
28.8863360473
 20
254.1127225992
 11
21.8863360473
 21
254.1127225992
  0
LINE
  5
377
100
AcDbEntity
  8
02___PRT_ALL_AXES
100
AcDbLine
 62
7
  6
CONTINUOUS
 10
142.2731423953
 20
254.6627225992
 11
138.2731423953
 21
254.6627225992
  0
LINE
  5
378
100
AcDbEntity
  8
0
100
AcDbLine
 62
7
  6
CONTINUOUS
 10
117.1731423953
 20
229.5127225992
 11
117.4731423953
 21
229.2127225992
  0
LINE
  5
379
100
AcDbEntity
  8
0
100
AcDbLine
 62
7
  6
CONTINUOUS
 10
119.7731423953
 20
240.6627225992
 11
119.7731423953
 21
258.1627225991
  0
LINE
  5
37A
100
AcDbEntity
  8
0
100
AcDbLine
 62
7
  6
CONTINUOUS
 10
119.9731423953
 20
240.4627225992
 11
119.9731423953
 21
258.3627225992
  0
LINE
  5
37B
100
AcDbEntity
  8
0
100
AcDbLine
 62
7
  6
CONTINUOUS
 10
119.7731423953
 20
256.9127225992
 11
117.7731423953
 21
256.9127225992
  0
LINE
  5
37C
100
AcDbEntity
  8
0
100
AcDbLine
 62
7
  6
CONTINUOUS
 10
87.7731423953
 20
256.9127225992
 11
85.7731423953
 21
256.9127225992
  0
LINE
  5
37D
100
AcDbEntity
  8
0
100
AcDbLine
 62
7
  6
CONTINUOUS
 10
138.0731423953
 20
257.4127225992
 11
130.6731423953
 21
257.4127225992
  0
LINE
  5
37E
100
AcDbEntity
  8
02___PRT_ALL_AXES
100
AcDbLine
 62
7
  6
CONTINUOUS
 10
138.0731423953
 20
257.4127225992
 11
130.6731423953
 21
257.4127225992
  0
LINE
  5
37F
100
AcDbEntity
  8
0
100
AcDbLine
 62
7
  6
CONTINUOUS
 10
130.4731423953
 20
258.3627225992
 11
119.9731423953
 21
258.3627225992
  0
LINE
  5
380
100
AcDbEntity
  8
02___PRT_ALL_AXES
100
AcDbLine
 62
7
  6
CONTINUOUS
 10
130.4731423953
 20
258.3627225992
 11
119.9731423953
 21
258.3627225992
  0
LINE
  5
381
100
AcDbEntity
  8
02___PRT_ALL_AXES
100
AcDbLine
 62
7
  6
CENTER
 10
102.7731423953
 20
262.2627225992
 11
98.7730423953
 21
262.2627225992
  0
LINE
  5
382
100
AcDbEntity
  8
02___PRT_ALL_AXES
100
AcDbLine
 62
7
  6
CENTER
 10
102.7731423953
 20
262.2627225992
 11
106.7732423953
 21
262.2627225992
  0
LINE
  5
383
100
AcDbEntity
  8
0
100
AcDbLine
 62
7
  6
CONTINUOUS
 10
88.3731423953
 20
269.3127225992
 11
88.0731423953
 21
269.6127225992
  0
LINE
  5
384
100
AcDbEntity
  8
0
100
AcDbLine
 62
7
  6
CONTINUOUS
 10
119.7731423951
 20
240.6627225994
 11
119.9731423951
 21
240.4627225994
  0
LINE
  5
385
100
AcDbEntity
  8
02___PRT_ALL_AXES
100
AcDbLine
 62
7
  6
CONTINUOUS
 10
145.7731423953
 20
254.4127225992
 11
142.2731423953
 21
255.0627225992
  0
LINE
  5
386
100
AcDbEntity
  8
0
100
AcDbLine
 62
7
  6
CONTINUOUS
 10
130.4731423953
 20
240.4627225992
 11
130.4731423953
 21
258.3627225992
  0
LINE
  5
387
100
AcDbEntity
  8
0
100
AcDbLine
 62
7
  6
CONTINUOUS
 10
130.6731423953
 20
240.6627225992
 11
130.6731423953
 21
258.1627225991
  0
LINE
  5
388
100
AcDbEntity
  8
0
100
AcDbLine
 62
7
  6
CONTINUOUS
 10
117.1731423953
 20
269.3127225992
 11
88.3731423953
 21
269.3127225992
  0
LINE
  5
389
100
AcDbEntity
  8
0
100
AcDbLine
 62
7
  6
CONTINUOUS
 10
117.1731423953
 20
269.9127225992
 11
88.3731423953
 21
269.9127225992
  0
LINE
  5
38A
100
AcDbEntity
  8
0
100
AcDbLine
 62
7
  6
CONTINUOUS
 10
138.0731423953
 20
241.4127225992
 11
138.0731423953
 21
257.4127225992
  0
LINE
  5
38B
100
AcDbEntity
  8
0
100
AcDbLine
 62
7
  6
CONTINUOUS
 10
138.2731423953
 20
241.6127225992
 11
138.2731423953
 21
257.2127225991
  0
LINE
  5
38C
100
AcDbEntity
  8
02___PRT_ALL_AXES
100
AcDbLine
 62
7
  6
CONTINUOUS
 10
142.2731423953
 20
255.0627225992
 11
142.2731423953
 21
243.7627225992
  0
LINE
  5
38D
100
AcDbEntity
  8
02___PRT_ALL_AXES
100
AcDbLine
 62
7
  6
CENTER
 10
102.7731423953
 20
277.4127225992
 11
95.2731423953
 21
277.4127225992
  0
LINE
  5
38E
100
AcDbEntity
  8
02___PRT_ALL_AXES
100
AcDbLine
 62
7
  6
CENTER
 10
102.7731423953
 20
277.4127225992
 11
110.2731423953
 21
277.4127225992
  0
LINE
  5
38F
100
AcDbEntity
  8
0
100
AcDbLine
 62
7
  6
CONTINUOUS
 10
117.1731423953
 20
269.9127225992
 11
117.7731423953
 21
269.3127225992
  0
LINE
  5
390
100
AcDbEntity
  8
02___PRT_ALL_AXES
100
AcDbLine
 62
7
  6
CONTINUOUS
 10
145.7731423953
 20
254.4127225992
 11
145.7731423953
 21
244.4127225992
  0
LINE
  5
391
100
AcDbEntity
  8
02___PRT_ALL_AXES
100
AcDbLine
 62
7
  6
CONTINUOUS
 10
87.7731423953
 20
284.4127225992
 11
117.7731423953
 21
284.4127225992
  0
LINE
  5
392
100
AcDbEntity
  8
0
100
AcDbLine
 62
7
  6
CONTINUOUS
 10
130.6731423954
 20
258.1627225991
 11
130.4731423954
 21
258.3627225991
  0
LINE
  5
393
100
AcDbEntity
  8
0
100
AcDbLine
 62
7
  6
CONTINUOUS
 10
138.2731423954
 20
257.2127225991
 11
138.0731423954
 21
257.4127225991
  0
LINE
  5
394
100
AcDbEntity
  8
02___PRT_ALL_AXES
100
AcDbLine
 62
7
  6
CONTINUOUS
 10
192.9489038166
 20
151.9127225992
 11
202.9489038166
 21
151.9127225992
  0
LINE
  5
395
100
AcDbEntity
  8
02___PRT_ALL_AXES
100
AcDbLine
 62
7
  6
CONTINUOUS
 10
192.2990025708
 20
155.4127225992
 11
203.5988050625
 21
155.4127225992
  0
LINE
  5
396
100
AcDbEntity
  8
0
100
AcDbLine
 62
7
  6
CONTINUOUS
 10
190.1489952054
 20
159.4127225992
 11
205.7488124279
 21
159.4127225992
  0
LINE
  5
397
100
AcDbEntity
  8
0
100
AcDbLine
 62
7
  6
CONTINUOUS
 10
189.9489038166
 20
159.6127225992
 11
205.9489038166
 21
159.6127225992
  0
LINE
  5
398
100
AcDbEntity
  8
0
100
AcDbLine
 62
7
  6
CONTINUOUS
 10
189.1990063563
 20
167.0127225992
 11
206.698801277
 21
167.0127225992
  0
LINE
  5
399
100
AcDbEntity
  8
0
100
AcDbLine
 62
7
  6
CONTINUOUS
 10
188.9989038166
 20
167.2127225992
 11
206.8989038166
 21
167.2127225992
  0
LINE
  5
39A
100
AcDbEntity
  8
0
100
AcDbLine
 62
7
  6
CONTINUOUS
 10
181.5489038166
 20
269.3127225992
 11
182.1489038166
 21
269.9127225992
  0
LINE
  5
39B
100
AcDbEntity
  8
0
100
AcDbLine
 62
7
  6
CONTINUOUS
 10
190.1489038166
 20
159.4127225992
 11
189.9489038166
 21
159.6127225992
  0
LINE
  5
39C
100
AcDbEntity
  8
0
100
AcDbLine
 62
7
  6
CONTINUOUS
 10
189.1989038166
 20
167.0127225992
 11
188.9989038166
 21
167.2127225992
  0
LINE
  5
39D
100
AcDbEntity
  8
0
100
AcDbLine
 62
7
  6
CONTINUOUS
 10
188.9989038166
 20
177.7127225992
 11
206.8989038166
 21
177.7127225992
  0
LINE
  5
39E
100
AcDbEntity
  8
0
100
AcDbLine
 62
7
  6
CONTINUOUS
 10
189.1990063562
 20
177.9127225992
 11
206.698801277
 21
177.9127225992
  0
LINE
  5
39F
100
AcDbEntity
  8
0
100
AcDbLine
 62
7
  6
CONTINUOUS
 10
213.7489038166
 20
179.9127225992
 11
198.9489038166
 21
179.9127225992
  0
LINE
  5
3A0
100
AcDbEntity
  8
02___PRT_ALL_AXES
100
AcDbLine
 62
7
  6
CONTINUOUS
 10
181.5489038166
 20
179.9127225992
 11
178.5489038166
 21
179.9127225992
  0
LINE
  5
3A1
100
AcDbEntity
  8
0
100
AcDbLine
 62
7
  6
CONTINUOUS
 10
182.1489038166
 20
179.9127225992
 11
196.9489038166
 21
179.9127225992
  0
LINE
  5
3A2
100
AcDbEntity
  8
0
100
AcDbLine
 62
7
  6
CONTINUOUS
 10
213.7489038166
 20
180.5127225992
 11
198.9489038166
 21
180.5127225992
  0
LINE
  5
3A3
100
AcDbEntity
  8
0
100
AcDbLine
 62
7
  6
CONTINUOUS
 10
182.1489038166
 20
180.5127225992
 11
196.9489038166
 21
180.5127225992
  0
LINE
  5
3A4
100
AcDbEntity
  8
0
100
AcDbLine
 62
7
  6
CONTINUOUS
 10
182.1489038166
 20
179.9127225992
 11
181.5489038166
 21
180.5127225992
  0
LINE
  5
3A5
100
AcDbEntity
  8
0
100
AcDbLine
 62
7
  6
CONTINUOUS
 10
196.9489038166
 20
269.3127225992
 11
197.2489038166
 21
269.6127225992
  0
LINE
  5
3A6
100
AcDbEntity
  8
0
100
AcDbLine
 62
7
  6
CONTINUOUS
 10
198.9489038166
 20
269.9127225992
 11
198.3489038166
 21
269.3127225992
  0
LINE
  5
3A7
100
AcDbEntity
  8
0
100
AcDbLine
 62
7
  6
CONTINUOUS
 10
213.7489038166
 20
269.3127225992
 11
214.0489038166
 21
269.6127225992
  0
LINE
  5
3A8
100
AcDbEntity
  8
0
100
AcDbLine
 62
7
  6
CONTINUOUS
 10
197.2489038166
 20
180.2127225992
 11
196.9489038166
 21
180.5127225992
  0
LINE
  5
3A9
100
AcDbEntity
  8
0
100
AcDbLine
 62
7
  6
CONTINUOUS
 10
198.9489038166
 20
179.9127225992
 11
198.3489038166
 21
180.5127225992
  0
LINE
  5
3AA
100
AcDbEntity
  8
02___PRT_ALL_AXES
100
AcDbLine
 62
7
  6
CONTINUOUS
 10
178.5489038166
 20
179.9127225992
 11
178.5489038166
 21
209.9127225992
  0
LINE
  5
3AB
100
AcDbEntity
  8
02___PRT_ALL_AXES
100
AcDbLine
 62
7
  6
CONTINUOUS
 10
178.5489038166
 20
214.4127225992
 11
178.5489038166
 21
284.4127225992
  0
LINE
  5
3AC
100
AcDbEntity
  8
0
100
AcDbLine
 62
7
  6
CONTINUOUS
 10
182.1489038166
 20
229.5127225992
 11
181.8489038166
 21
229.2127225992
  0
LINE
  5
3AD
100
AcDbEntity
  8
0
100
AcDbLine
 62
7
  6
CONTINUOUS
 10
206.6989038166
 20
177.9127225992
 11
206.8989038166
 21
177.7127225992
  0
LINE
  5
3AE
100
AcDbEntity
  8
02___PRT_ALL_AXES
100
AcDbLine
 62
7
  6
CONTINUOUS
 10
181.5489038166
 20
179.9127225992
 11
181.5489038166
 21
209.9127225992
  0
LINE
  5
3AF
100
AcDbEntity
  8
02___PRT_ALL_AXES
100
AcDbLine
 62
7
  6
CONTINUOUS
 10
181.5489038166
 20
214.4127225992
 11
181.5489038166
 21
284.4127225992
  0
LINE
  5
3B0
100
AcDbEntity
  8
0
100
AcDbLine
 62
7
  6
CONTINUOUS
 10
182.1489038166
 20
180.5127225992
 11
182.1489038166
 21
209.3127225992
  0
LINE
  5
3B1
100
AcDbEntity
  8
0
100
AcDbLine
 62
7
  6
CONTINUOUS
 10
182.1489038166
 20
229.5127225992
 11
182.1489038166
 21
269.3127225992
  0
LINE
  5
3B2
100
AcDbEntity
  8
0
100
AcDbLine
 62
7
  6
CONTINUOUS
 10
181.8489038166
 20
209.6127225992
 11
182.1489038166
 21
209.3127225992
  0
LINE
  5
3B3
100
AcDbEntity
  8
0
100
AcDbLine
 62
7
  6
CONTINUOUS
 10
214.0489038166
 20
180.2127225992
 11
213.7489038166
 21
180.5127225992
  0
LINE
  5
3B4
100
AcDbEntity
  8
02___PRT_ALL_AXES
100
AcDbLine
 62
7
  6
CONTINUOUS
 10
192.9489038166
 20
151.9127225992
 11
192.2989038166
 21
155.4127225992
  0
LINE
  5
3B5
100
AcDbEntity
  8
0
100
AcDbLine
 62
7
  6
CONTINUOUS
 10
213.7489038166
 20
209.3127225992
 11
198.9489038166
 21
209.3127225992
  0
LINE
  5
3B6
100
AcDbEntity
  8
0
100
AcDbLine
 62
7
  6
CONTINUOUS
 10
182.1489038166
 20
209.3127225992
 11
196.9489038166
 21
209.3127225992
  0
LINE
  5
3B7
100
AcDbEntity
  8
02___PRT_ALL_AXES
100
AcDbLine
 62
7
  6
CONTINUOUS
 10
188.9989038166
 20
167.2127225992
 11
188.9989038166
 21
177.7127225992
  0
LINE
  5
3B8
100
AcDbEntity
  8
02___PRT_ALL_AXES
100
AcDbLine
 62
7
  6
CONTINUOUS
 10
189.9489038166
 20
159.6127225992
 11
189.9489038166
 21
167.0127225992
  0
LINE
  5
3B9
100
AcDbEntity
  8
0
100
AcDbLine
 62
7
  6
CONTINUOUS
 10
190.4489038166
 20
249.4127225992
 11
190.4489038166
 21
209.9127225992
  0
LINE
  5
3BA
100
AcDbEntity
  8
0
100
AcDbLine
 62
7
  6
CONTINUOUS
 10
190.4489038166
 20
179.9127225992
 11
190.4489038166
 21
177.9127225992
  0
LINE
  5
3BB
100
AcDbEntity
  8
0
100
AcDbLine
 62
7
  6
CONTINUOUS
 10
181.5489038166
 20
209.3127225992
 11
182.1489038166
 21
209.9127225992
  0
LINE
  5
3BC
100
AcDbEntity
  8
0
100
AcDbLine
 62
7
  6
CONTINUOUS
 10
213.7489038166
 20
209.9127225992
 11
198.9489038166
 21
209.9127225992
  0
LINE
  5
3BD
100
AcDbEntity
  8
02___PRT_ALL_AXES
100
AcDbLine
 62
7
  6
CONTINUOUS
 10
181.5489038166
 20
209.9127225992
 11
178.5489038166
 21
209.9127225992
  0
LINE
  5
3BE
100
AcDbEntity
  8
0
100
AcDbLine
 62
7
  6
CONTINUOUS
 10
182.1489038166
 20
209.9127225992
 11
196.9489038166
 21
209.9127225992
  0
LINE
  5
3BF
100
AcDbEntity
  8
0
100
AcDbLine
 62
7
  6
CONTINUOUS
 10
205.4489038166
 20
211.9127225992
 11
190.4489038166
 21
211.9127225992
  0
LINE
  5
3C0
100
AcDbEntity
  8
0
100
AcDbLine
 62
7
  6
CONTINUOUS
 10
196.9489038166
 20
209.9127225992
 11
197.5489038166
 21
209.3127225992
  0
LINE
  5
3C1
100
AcDbEntity
  8
0
100
AcDbLine
 62
7
  6
CONTINUOUS
 10
198.9489038166
 20
209.3127225992
 11
198.6489038166
 21
209.6127225992
  0
LINE
  5
3C2
100
AcDbEntity
  8
02___PRT_ALL_AXES
100
AcDbLine
 62
7
  6
CONTINUOUS
 10
192.6989038166
 20
155.4127225992
 11
192.6989038166
 21
159.4127225992
  0
LINE
  5
3C3
100
AcDbEntity
  8
0
100
AcDbLine
 62
7
  6
CONTINUOUS
 10
196.9489038166
 20
269.3127225992
 11
196.9489038166
 21
257.4507571848
  0
LINE
  5
3C4
100
AcDbEntity
  8
0
100
AcDbLine
 62
7
  6
CONTINUOUS
 10
196.9489038166
 20
209.3127225992
 11
196.9489038166
 21
180.5127225992
  0
LINE
  5
3C5
100
AcDbEntity
  8
02___PRT_ALL_AXES
100
AcDbLine
 62
7
  6
CONTINUOUS
 10
181.5489038166
 20
214.4127225992
 11
178.5489038166
 21
214.4127225992
  0
LINE
  5
3C6
100
AcDbEntity
  8
0
100
AcDbLine
 62
7
  6
CONTINUOUS
 10
181.5489038166
 20
229.5127225992
 11
182.1489038166
 21
228.9127225992
  0
LINE
  5
3C7
100
AcDbEntity
  8
0
100
AcDbLine
 62
7
  6
CONTINUOUS
 10
197.5489038166
 20
269.3127225992
 11
197.5489038166
 21
256.9020483365
  0
LINE
  5
3C8
100
AcDbEntity
  8
0
100
AcDbLine
 62
7
  6
CONTINUOUS
 10
197.5489038166
 20
209.3127225992
 11
197.5489038166
 21
180.5127225992
  0
LINE
  5
3C9
100
AcDbEntity
  8
03___PRT_ALL_CURVES
100
AcDbLine
 62
4
  6
CONTINUOUS
 10
197.9489038166
 20
249.4127225992
 11
197.9489038166
 21
247.0418760317
  0
LINE
  5
3CA
100
AcDbEntity
  8
02___PRT_ALL_AXES
100
AcDbLine
 62
7
  6
CENTER
 10
197.9489038166
 20
249.4127225992
 11
197.9489038166
 21
245.4126225992
  0
LINE
  5
3CB
100
AcDbEntity
  8
02___PRT_ALL_AXES
100
AcDbLine
 62
7
  6
CENTER
 10
197.9489038166
 20
143.7580194334
 11
197.9489038166
 21
216.9127225992
  0
LINE
  5
3CC
100
AcDbEntity
  8
02___PRT_ALL_AXES
100
AcDbLine
 62
7
  6
CENTER
 10
197.9489038166
 20
249.4127225992
 11
197.9489038166
 21
253.4128225992
  0
LINE
  5
3CD
100
AcDbEntity
  8
0
100
AcDbLine
 62
7
  6
CONTINUOUS
 10
198.3489038166
 20
180.5127225992
 11
198.3489038166
 21
209.3127225992
  0
LINE
  5
3CE
100
AcDbEntity
  8
0
100
AcDbLine
 62
7
  6
CONTINUOUS
 10
198.3489038166
 20
256.9020483365
 11
198.3489038166
 21
269.3127225992
  0
LINE
  5
3CF
100
AcDbEntity
  8
0
100
AcDbLine
 62
7
  6
CONTINUOUS
 10
198.9489038166
 20
180.5127225992
 11
198.9489038166
 21
209.3127225992
  0
LINE
  5
3D0
100
AcDbEntity
  8
0
100
AcDbLine
 62
7
  6
CONTINUOUS
 10
198.9489038166
 20
257.4507571848
 11
198.9489038166
 21
269.3127225992
  0
LINE
  5
3D1
100
AcDbEntity
  8
0
100
AcDbLine
 62
7
  6
CONTINUOUS
 10
213.7489038166
 20
228.9127225992
 11
214.3489038166
 21
229.5127225992
  0
LINE
  5
3D2
100
AcDbEntity
  8
02___PRT_ALL_AXES
100
AcDbLine
 62
7
  6
CENTER
 10
173.5489038166
 20
221.4127225992
 11
186.5489038166
 21
221.4127225992
  0
LINE
  5
3D3
100
AcDbEntity
  8
02___PRT_ALL_AXES
100
AcDbLine
 62
7
  6
CONTINUOUS
 10
203.1989038166
 20
155.4127225992
 11
203.1989038166
 21
159.4127225992
  0
LINE
  5
3D4
100
AcDbEntity
  8
0
100
AcDbLine
 62
7
  6
CONTINUOUS
 10
205.4489038166
 20
249.4127225992
 11
205.4489038166
 21
209.9127225992
  0
LINE
  5
3D5
100
AcDbEntity
  8
0
100
AcDbLine
 62
7
  6
CONTINUOUS
 10
205.4489038166
 20
179.9127225992
 11
205.4489038166
 21
177.9127225992
  0
LINE
  5
3D6
100
AcDbEntity
  8
02___PRT_ALL_AXES
100
AcDbLine
 62
7
  6
CONTINUOUS
 10
205.9489038166
 20
159.6127225992
 11
205.9489038166
 21
167.0127225992
  0
LINE
  5
3D7
100
AcDbEntity
  8
0
100
AcDbLine
 62
7
  6
CONTINUOUS
 10
196.9489038166
 20
209.3127225992
 11
197.2489038166
 21
209.6127225992
  0
LINE
  5
3D8
100
AcDbEntity
  8
0
100
AcDbLine
 62
7
  6
CONTINUOUS
 10
198.9489038166
 20
209.9127225992
 11
198.3489038166
 21
209.3127225992
  0
LINE
  5
3D9
100
AcDbEntity
  8
0
100
AcDbLine
 62
7
  6
CONTINUOUS
 10
214.3489038166
 20
209.3127225992
 11
213.7489038166
 21
209.9127225992
  0
LINE
  5
3DA
100
AcDbEntity
  8
02___PRT_ALL_AXES
100
AcDbLine
 62
7
  6
CONTINUOUS
 10
206.8989038166
 20
167.2127225992
 11
206.8989038166
 21
177.7127225992
  0
LINE
  5
3DB
100
AcDbEntity
  8
0
100
AcDbLine
 62
7
  6
CONTINUOUS
 10
213.7489038166
 20
228.9127225992
 11
205.4489038166
 21
228.9127225992
  0
LINE
  5
3DC
100
AcDbEntity
  8
0
100
AcDbLine
 62
7
  6
CONTINUOUS
 10
182.1489038166
 20
228.9127225992
 11
190.4489038166
 21
228.9127225992
  0
LINE
  5
3DD
100
AcDbEntity
  8
0
100
AcDbLine
 62
7
  6
CONTINUOUS
 10
213.7489038166
 20
229.5127225992
 11
205.4489038166
 21
229.5127225992
  0
LINE
  5
3DE
100
AcDbEntity
  8
0
100
AcDbLine
 62
7
  6
CONTINUOUS
 10
182.1489038166
 20
229.5127225992
 11
190.4489038166
 21
229.5127225992
  0
LINE
  5
3DF
100
AcDbEntity
  8
0
100
AcDbLine
 62
7
  6
CONTINUOUS
 10
213.7489038166
 20
269.3127225992
 11
213.7489038166
 21
229.5127225992
  0
LINE
  5
3E0
100
AcDbEntity
  8
0
100
AcDbLine
 62
7
  6
CONTINUOUS
 10
213.7489038166
 20
209.3127225992
 11
213.7489038166
 21
180.5127225992
  0
LINE
  5
3E1
100
AcDbEntity
  8
0
100
AcDbLine
 62
7
  6
CONTINUOUS
 10
214.3489038166
 20
269.3127225992
 11
214.3489038166
 21
229.5127225992
  0
LINE
  5
3E2
100
AcDbEntity
  8
0
100
AcDbLine
 62
7
  6
CONTINUOUS
 10
214.3489038166
 20
209.3127225992
 11
214.3489038166
 21
180.5127225992
  0
LINE
  5
3E3
100
AcDbEntity
  8
02___PRT_ALL_AXES
100
AcDbLine
 62
7
  6
CONTINUOUS
 10
202.9489038166
 20
151.9127225992
 11
203.5989038166
 21
155.4127225992
  0
LINE
  5
3E4
100
AcDbEntity
  8
0
100
AcDbLine
 62
7
  6
CONTINUOUS
 10
182.1489038166
 20
180.5127225992
 11
181.8489038166
 21
180.2127225992
  0
LINE
  5
3E5
100
AcDbEntity
  8
0
100
AcDbLine
 62
7
  6
CONTINUOUS
 10
213.7489038166
 20
209.3127225992
 11
214.0489038166
 21
209.6127225992
  0
LINE
  5
3E6
100
AcDbEntity
  8
02___PRT_ALL_AXES
100
AcDbLine
 62
7
  6
CENTER
 10
219.3489038166
 20
236.5627225992
 11
181.0738025045
 21
236.5627225992
  0
LINE
  5
3E7
100
AcDbEntity
  8
0
100
AcDbLine
 62
7
  6
CONTINUOUS
 10
189.1989038166
 20
177.9127225992
 11
188.9989038166
 21
177.7127225992
  0
LINE
  5
3E8
100
AcDbEntity
  8
0
100
AcDbLine
 62
7
  6
CONTINUOUS
 10
213.7489038166
 20
229.5127225992
 11
214.0489038166
 21
229.2127225992
  0
LINE
  5
3E9
100
AcDbEntity
  8
0
100
AcDbLine
 62
7
  6
CONTINUOUS
 10
196.9489038166
 20
179.9127225992
 11
197.5489038166
 21
180.5127225992
  0
LINE
  5
3EA
100
AcDbEntity
  8
0
100
AcDbLine
 62
7
  6
CONTINUOUS
 10
181.8489038166
 20
269.6127225992
 11
182.1489038166
 21
269.3127225992
  0
LINE
  5
3EB
100
AcDbEntity
  8
0
100
AcDbLine
 62
7
  6
CONTINUOUS
 10
198.9489038166
 20
180.5127225992
 11
198.6489038166
 21
180.2127225992
  0
LINE
  5
3EC
100
AcDbEntity
  8
02___PRT_ALL_AXES
100
AcDbLine
 62
7
  6
CENTER
 10
197.9489038166
 20
249.4127225992
 11
193.9488038166
 21
249.4127225992
  0
LINE
  5
3ED
100
AcDbEntity
  8
02___PRT_ALL_AXES
100
AcDbLine
 62
7
  6
CENTER
 10
197.9489038166
 20
249.4127225992
 11
201.9490038166
 21
249.4127225992
  0
LINE
  5
3EE
100
AcDbEntity
  8
0
100
AcDbLine
 62
7
  6
CONTINUOUS
 10
196.9489038166
 20
269.9127225992
 11
197.5489038166
 21
269.3127225992
  0
LINE
  5
3EF
100
AcDbEntity
  8
0
100
AcDbLine
 62
7
  6
CONTINUOUS
 10
213.7489038166
 20
179.9127225992
 11
214.3489038166
 21
180.5127225992
  0
LINE
  5
3F0
100
AcDbEntity
  8
0
100
AcDbLine
 62
7
  6
CONTINUOUS
 10
198.9489038166
 20
269.3127225992
 11
198.6489038166
 21
269.6127225992
  0
LINE
  5
3F1
100
AcDbEntity
  8
0
100
AcDbLine
 62
7
  6
CONTINUOUS
 10
206.6989038166
 20
167.0127225992
 11
206.8989038166
 21
167.2127225992
  0
LINE
  5
3F2
100
AcDbEntity
  8
02___PRT_ALL_AXES
100
AcDbLine
 62
7
  6
CENTER
 10
219.3489038166
 20
262.2627225992
 11
179.121916797
 21
262.2627225992
  0
LINE
  5
3F3
100
AcDbEntity
  8
0
100
AcDbLine
 62
7
  6
CONTINUOUS
 10
205.7489038166
 20
159.4127225992
 11
205.9489038166
 21
159.6127225992
  0
LINE
  5
3F4
100
AcDbEntity
  8
0
100
AcDbLine
 62
7
  6
CONTINUOUS
 10
214.3489038166
 20
269.3127225992
 11
213.7489038166
 21
269.9127225992
  0
LINE
  5
3F5
100
AcDbEntity
  8
0
100
AcDbLine
 62
7
  6
CONTINUOUS
 10
213.7489038166
 20
269.3127225992
 11
198.9489038166
 21
269.3127225992
  0
LINE
  5
3F6
100
AcDbEntity
  8
0
100
AcDbLine
 62
7
  6
CONTINUOUS
 10
182.1489038166
 20
269.3127225992
 11
196.9489038166
 21
269.3127225992
  0
LINE
  5
3F7
100
AcDbEntity
  8
0
100
AcDbLine
 62
7
  6
CONTINUOUS
 10
213.7489038166
 20
269.9127225992
 11
198.9489038166
 21
269.9127225992
  0
LINE
  5
3F8
100
AcDbEntity
  8
0
100
AcDbLine
 62
7
  6
CONTINUOUS
 10
182.1489038166
 20
269.9127225992
 11
196.9489038166
 21
269.9127225992
  0
LINE
  5
3F9
100
AcDbEntity
  8
02___PRT_ALL_AXES
100
AcDbLine
 62
7
  6
CENTER
 10
173.5489038166
 20
277.4127225992
 11
186.5489038166
 21
277.4127225992
  0
LINE
  5
3FA
100
AcDbEntity
  8
02___PRT_ALL_AXES
100
AcDbLine
 62
7
  6
CONTINUOUS
 10
181.5489038166
 20
284.4127225992
 11
178.5489038166
 21
284.4127225992
  0
LINE
  5
3FB
100
AcDbEntity
  8
02___PRT_ALL_AXES
100
AcDbLine
 62
7
  6
CONTINUOUS
 10
13.2731423953
 20
119.103125
 11
13.2731423953
 21
122.103125
  0
LINE
  5
3FC
100
AcDbEntity
  8
02___PRT_ALL_AXES
100
AcDbLine
 62
7
  6
CENTER
 10
20.2731423953
 20
127.103125
 11
20.2731423953
 21
114.103125
  0
LINE
  5
3FD
100
AcDbEntity
  8
02___PRT_ALL_AXES
100
AcDbLine
 62
7
  6
CONTINUOUS
 10
21.8863360473
 20
98.003125
 11
21.8863360473
 21
107.403125
  0
LINE
  5
3FE
100
AcDbEntity
  8
0
100
AcDbLine
 62
7
  6
CONTINUOUS
 10
27.7731423953
 20
118.503125
 11
27.7731423953
 21
107.403125
  0
LINE
  5
3FF
100
AcDbEntity
  8
0
100
AcDbLine
 62
7
  6
CONTINUOUS
 10
27.7731423953
 20
86.903125
 11
27.7731423953
 21
98.003125
  0
LINE
  5
400
100
AcDbEntity
  8
0
100
AcDbLine
 62
7
  6
CONTINUOUS
 10
28.3731423953
 20
118.503125
 11
28.3731423953
 21
107.403125
  0
LINE
  5
401
100
AcDbEntity
  8
0
100
AcDbLine
 62
7
  6
CONTINUOUS
 10
28.3731423953
 20
86.903125
 11
28.3731423953
 21
98.003125
  0
LINE
  5
402
100
AcDbEntity
  8
02___PRT_ALL_AXES
100
AcDbLine
 62
7
  6
CONTINUOUS
 10
28.8863360473
 20
98.003125
 11
28.8863360473
 21
107.403125
  0
LINE
  5
403
100
AcDbEntity
  8
0
100
AcDbLine
 62
7
  6
CONTINUOUS
 10
28.3731423953
 20
119.103125
 11
27.7731423953
 21
118.503125
  0
LINE
  5
404
100
AcDbEntity
  8
0
100
AcDbLine
 62
7
  6
CONTINUOUS
 10
28.3731423953
 20
86.303125
 11
27.7731423953
 21
86.903125
  0
LINE
  5
405
100
AcDbEntity
  8
02___PRT_ALL_AXES
100
AcDbLine
 62
7
  6
CENTER
 10
35.4231423953
 20
81.303125
 11
35.4231423953
 21
121.0571701127
  0
LINE
  5
406
100
AcDbEntity
  8
02___PRT_ALL_AXES
100
AcDbLine
 62
7
  6
CENTER
 10
48.2731423953
 20
102.703125
 11
48.2731423953
 21
98.703025
  0
LINE
  5
407
100
AcDbEntity
  8
02___PRT_ALL_AXES
100
AcDbLine
 62
7
  6
CENTER
 10
48.2731423953
 20
102.703125
 11
48.2731423953
 21
106.703225
  0
LINE
  5
408
100
AcDbEntity
  8
0
100
AcDbLine
 62
7
  6
CONTINUOUS
 10
28.0731423953
 20
86.603125
 11
28.3731423953
 21
86.903125
  0
LINE
  5
409
100
AcDbEntity
  8
0
100
AcDbLine
 62
7
  6
CONTINUOUS
 10
28.3731423953
 20
118.503125
 11
28.0731423953
 21
118.803125
  0
LINE
  5
40A
100
AcDbEntity
  8
02___PRT_ALL_AXES
100
AcDbLine
 62
7
  6
CENTER
 10
61.1231423953
 20
81.303125
 11
61.1231423953
 21
121.3070114833
  0
LINE
  5
40B
100
AcDbEntity
  8
0
100
AcDbLine
 62
7
  6
CONTINUOUS
 10
68.4731423953
 20
118.803125
 11
68.1731423953
 21
118.503125
  0
LINE
  5
40C
100
AcDbEntity
  8
02___PRT_ALL_AXES
100
AcDbLine
 62
7
  6
CONTINUOUS
 10
145.7731423953
 20
97.703125
 11
142.2731423953
 21
97.053125
  0
LINE
  5
40D
100
AcDbEntity
  8
0
100
AcDbLine
 62
7
  6
CONTINUOUS
 10
117.1731423953
 20
86.303125
 11
88.3731423953
 21
86.303125
  0
LINE
  5
40E
100
AcDbEntity
  8
0
100
AcDbLine
 62
7
  6
CONTINUOUS
 10
68.1731423953
 20
86.303125
 11
28.3731423953
 21
86.303125
  0
LINE
  5
40F
100
AcDbEntity
  8
0
100
AcDbLine
 62
7
  6
CONTINUOUS
 10
68.1731423953
 20
86.903125
 11
68.4731423953
 21
86.603125
  0
LINE
  5
410
100
AcDbEntity
  8
0
100
AcDbLine
 62
7
  6
CONTINUOUS
 10
117.1731423953
 20
86.903125
 11
88.3731423953
 21
86.903125
  0
LINE
  5
411
100
AcDbEntity
  8
0
100
AcDbLine
 62
7
  6
CONTINUOUS
 10
68.1731423953
 20
86.903125
 11
28.3731423953
 21
86.903125
  0
LINE
  5
412
100
AcDbEntity
  8
0
100
AcDbLine
 62
7
  6
CONTINUOUS
 10
68.1731423953
 20
118.503125
 11
68.1731423953
 21
110.203125
  0
LINE
  5
413
100
AcDbEntity
  8
0
100
AcDbLine
 62
7
  6
CONTINUOUS
 10
68.1731423953
 20
86.903125
 11
68.1731423953
 21
95.203125
  0
LINE
  5
414
100
AcDbEntity
  8
0
100
AcDbLine
 62
7
  6
CONTINUOUS
 10
68.7731423953
 20
118.503125
 11
68.7731423953
 21
110.203125
  0
LINE
  5
415
100
AcDbEntity
  8
0
100
AcDbLine
 62
7
  6
CONTINUOUS
 10
68.7731423953
 20
86.903125
 11
68.7731423953
 21
95.203125
  0
LINE
  5
416
100
AcDbEntity
  8
02___PRT_ALL_AXES
100
AcDbLine
 62
7
  6
CONTINUOUS
 10
130.4731423953
 20
93.753125
 11
119.9731423953
 21
93.753125
  0
LINE
  5
417
100
AcDbEntity
  8
02___PRT_ALL_AXES
100
AcDbLine
 62
7
  6
CONTINUOUS
 10
138.0731423953
 20
94.703125
 11
130.6731423953
 21
94.703125
  0
LINE
  5
418
100
AcDbEntity
  8
0
100
AcDbLine
 62
7
  6
CONTINUOUS
 10
119.7731423953
 20
95.203125
 11
117.7731423953
 21
95.203125
  0
LINE
  5
419
100
AcDbEntity
  8
0
100
AcDbLine
 62
7
  6
CONTINUOUS
 10
87.7731423953
 20
95.203125
 11
48.2731423953
 21
95.203125
  0
LINE
  5
41A
100
AcDbEntity
  8
0
100
AcDbLine
 62
7
  6
CONTINUOUS
 10
88.3731423953
 20
119.103125
 11
87.7731423953
 21
118.503125
  0
LINE
  5
41B
100
AcDbEntity
  8
02___PRT_ALL_AXES
100
AcDbLine
 62
7
  6
CONTINUOUS
 10
142.2731423953
 20
97.453125
 11
138.2731423953
 21
97.453125
  0
LINE
  5
41C
100
AcDbEntity
  8
02___PRT_ALL_AXES
100
AcDbLine
 62
7
  6
CONTINUOUS
 10
28.8863360473
 20
98.003125
 11
21.8863360473
 21
98.003125
  0
LINE
  5
41D
100
AcDbEntity
  8
02___PRT_ALL_AXES
100
AcDbLine
 62
7
  6
CONTINUOUS
 10
63.5090009077
 20
98.718125
 11
28.8863360473
 21
98.718125
  0
LINE
  5
41E
100
AcDbEntity
  8
0
100
AcDbLine
 62
7
  6
CONTINUOUS
 10
88.3731423953
 20
86.303125
 11
87.7731423953
 21
86.903125
  0
LINE
  5
41F
100
AcDbEntity
  8
02___PRT_ALL_AXES
100
AcDbLine
 62
7
  6
CENTER
 10
76.2731423953
 20
127.103125
 11
76.2731423953
 21
114.103125
  0
LINE
  5
420
100
AcDbEntity
  8
0
100
AcDbLine
 62
7
  6
CONTINUOUS
 10
88.3731423953
 20
101.703125
 11
117.1731423953
 21
101.703125
  0
LINE
  5
421
100
AcDbEntity
  8
0
100
AcDbLine
 62
7
  6
CONTINUOUS
 10
88.3731423953
 20
102.303125
 11
117.1731423953
 21
102.303125
  0
LINE
  5
422
100
AcDbEntity
  8
02___PRT_ALL_AXES
100
AcDbLine
 62
7
  6
CENTER
 10
48.2731423953
 20
102.703125
 11
44.2730423953
 21
102.703125
  0
LINE
  5
423
100
AcDbEntity
  8
02___PRT_ALL_AXES
100
AcDbLine
 62
7
  6
CENTER
 10
48.2731423953
 20
102.703125
 11
52.2732423953
 21
102.703125
  0
LINE
  5
424
100
AcDbEntity
  8
02___PRT_ALL_AXES
100
AcDbLine
 62
7
  6
CENTER
 10
80.7731423953
 20
102.703125
 11
151.8832452825
 21
102.703125
  0
LINE
  5
425
100
AcDbEntity
  8
0
100
AcDbLine
 62
7
  6
CONTINUOUS
 10
117.1731423953
 20
103.103125
 11
88.3731423953
 21
103.103125
  0
LINE
  5
426
100
AcDbEntity
  8
0
100
AcDbLine
 62
7
  6
CONTINUOUS
 10
117.1731423953
 20
103.703125
 11
88.3731423953
 21
103.703125
  0
LINE
  5
427
100
AcDbEntity
  8
02___PRT_ALL_AXES
100
AcDbLine
 62
7
  6
CONTINUOUS
 10
83.2731423953
 20
119.103125
 11
83.2731423953
 21
122.103125
  0
LINE
  5
428
100
AcDbEntity
  8
0
100
AcDbLine
 62
7
  6
CONTINUOUS
 10
68.1731423953
 20
86.303125
 11
68.7731423953
 21
86.903125
  0
LINE
  5
429
100
AcDbEntity
  8
02___PRT_ALL_AXES
100
AcDbLine
 62
7
  6
CONTINUOUS
 10
63.5090049904
 20
106.688125
 11
28.8863360473
 21
106.688125
  0
LINE
  5
42A
100
AcDbEntity
  8
02___PRT_ALL_AXES
100
AcDbLine
 62
7
  6
CONTINUOUS
 10
28.8863360473
 20
107.403125
 11
21.8863360473
 21
107.403125
  0
LINE
  5
42B
100
AcDbEntity
  8
02___PRT_ALL_AXES
100
AcDbLine
 62
7
  6
CONTINUOUS
 10
142.2731423953
 20
107.953125
 11
138.2731423953
 21
107.953125
  0
LINE
  5
42C
100
AcDbEntity
  8
0
100
AcDbLine
 62
7
  6
CONTINUOUS
 10
68.7731423953
 20
118.503125
 11
68.1731423953
 21
119.103125
  0
LINE
  5
42D
100
AcDbEntity
  8
0
100
AcDbLine
 62
7
  6
CONTINUOUS
 10
88.3731423953
 20
101.703125
 11
88.0731423953
 21
102.003125
  0
LINE
  5
42E
100
AcDbEntity
  8
0
100
AcDbLine
 62
7
  6
CONTINUOUS
 10
85.7731423953
 20
95.203125
 11
85.7731423953
 21
110.203125
  0
LINE
  5
42F
100
AcDbEntity
  8
0
100
AcDbLine
 62
7
  6
CONTINUOUS
 10
87.7731423953
 20
118.503125
 11
87.7731423953
 21
103.703125
  0
LINE
  5
430
100
AcDbEntity
  8
0
100
AcDbLine
 62
7
  6
CONTINUOUS
 10
87.7731423953
 20
86.903125
 11
87.7731423953
 21
101.703125
  0
LINE
  5
431
100
AcDbEntity
  8
02___PRT_ALL_AXES
100
AcDbLine
 62
7
  6
CONTINUOUS
 10
87.7731423953
 20
119.103125
 11
87.7731423953
 21
122.103125
  0
LINE
  5
432
100
AcDbEntity
  8
0
100
AcDbLine
 62
7
  6
CONTINUOUS
 10
88.3731423953
 20
118.503125
 11
88.3731423953
 21
103.703125
  0
LINE
  5
433
100
AcDbEntity
  8
0
100
AcDbLine
 62
7
  6
CONTINUOUS
 10
88.3731423953
 20
86.903125
 11
88.3731423953
 21
101.703125
  0
LINE
  5
434
100
AcDbEntity
  8
0
100
AcDbLine
 62
7
  6
CONTINUOUS
 10
88.3731423953
 20
103.703125
 11
88.0731423953
 21
103.403125
  0
LINE
  5
435
100
AcDbEntity
  8
0
100
AcDbLine
 62
7
  6
CONTINUOUS
 10
87.7731423953
 20
101.703125
 11
88.3731423953
 21
102.303125
  0
LINE
  5
436
100
AcDbEntity
  8
0
100
AcDbLine
 62
7
  6
CONTINUOUS
 10
119.7731423953
 20
110.203125
 11
117.7731423953
 21
110.203125
  0
LINE
  5
437
100
AcDbEntity
  8
0
100
AcDbLine
 62
7
  6
CONTINUOUS
 10
87.7731423953
 20
110.203125
 11
48.2731423953
 21
110.203125
  0
LINE
  5
438
100
AcDbEntity
  8
02___PRT_ALL_AXES
100
AcDbLine
 62
7
  6
CONTINUOUS
 10
138.0731423953
 20
110.703125
 11
130.6731423953
 21
110.703125
  0
LINE
  5
439
100
AcDbEntity
  8
02___PRT_ALL_AXES
100
AcDbLine
 62
7
  6
CONTINUOUS
 10
130.4731423953
 20
111.653125
 11
119.9731423953
 21
111.653125
  0
LINE
  5
43A
100
AcDbEntity
  8
0
100
AcDbLine
 62
7
  6
CONTINUOUS
 10
87.7731423953
 20
103.703125
 11
88.3731423953
 21
103.103125
  0
LINE
  5
43B
100
AcDbEntity
  8
0
100
AcDbLine
 62
7
  6
CONTINUOUS
 10
28.3731423953
 20
118.503125
 11
68.1731423953
 21
118.503125
  0
LINE
  5
43C
100
AcDbEntity
  8
0
100
AcDbLine
 62
7
  6
CONTINUOUS
 10
88.3731423953
 20
118.503125
 11
117.1731423953
 21
118.503125
  0
LINE
  5
43D
100
AcDbEntity
  8
0
100
AcDbLine
 62
7
  6
CONTINUOUS
 10
117.4731423953
 20
118.803125
 11
117.1731423953
 21
118.503125
  0
LINE
  5
43E
100
AcDbEntity
  8
0
100
AcDbLine
 62
7
  6
CONTINUOUS
 10
88.0731423953
 20
86.603125
 11
88.3731423953
 21
86.903125
  0
LINE
  5
43F
100
AcDbEntity
  8
02___PRT_ALL_AXES
100
AcDbLine
 62
7
  6
CONTINUOUS
 10
13.2731423953
 20
119.103125
 11
83.2731423953
 21
119.103125
  0
LINE
  5
440
100
AcDbEntity
  8
02___PRT_ALL_AXES
100
AcDbLine
 62
7
  6
CONTINUOUS
 10
87.7731423953
 20
119.103125
 11
117.7731423953
 21
119.103125
  0
LINE
  5
441
100
AcDbEntity
  8
02___PRT_ALL_AXES
100
AcDbLine
 62
7
  6
CONTINUOUS
 10
13.2731423953
 20
122.103125
 11
83.2731423953
 21
122.103125
  0
LINE
  5
442
100
AcDbEntity
  8
02___PRT_ALL_AXES
100
AcDbLine
 62
7
  6
CONTINUOUS
 10
87.7731423953
 20
122.103125
 11
117.7731423953
 21
122.103125
  0
LINE
  5
443
100
AcDbEntity
  8
02___PRT_ALL_AXES
100
AcDbLine
 62
7
  6
CONTINUOUS
 10
145.7731423953
 20
107.703125
 11
142.2731423953
 21
108.353125
  0
LINE
  5
444
100
AcDbEntity
  8
0
100
AcDbLine
 62
7
  6
CONTINUOUS
 10
117.1731423953
 20
86.903125
 11
117.4731423953
 21
86.603125
  0
LINE
  5
445
100
AcDbEntity
  8
0
100
AcDbLine
 62
7
  6
CONTINUOUS
 10
88.3731423953
 20
118.503125
 11
88.0731423953
 21
118.803125
  0
LINE
  5
446
100
AcDbEntity
  8
02___PRT_ALL_AXES
100
AcDbLine
 62
7
  6
CENTER
 10
102.7731423953
 20
127.103125
 11
102.7731423953
 21
114.103125
  0
LINE
  5
447
100
AcDbEntity
  8
02___PRT_ALL_AXES
100
AcDbLine
 62
7
  6
CENTER
 10
102.7731423953
 20
81.303125
 11
102.7731423953
 21
107.303125
  0
LINE
  5
448
100
AcDbEntity
  8
0
100
AcDbLine
 62
7
  6
CONTINUOUS
 10
119.7731423953
 20
111.453125
 11
119.9731423953
 21
111.653125
  0
LINE
  5
449
100
AcDbEntity
  8
0
100
AcDbLine
 62
7
  6
CONTINUOUS
 10
119.7731423953
 20
93.953125
 11
119.9731423953
 21
93.753125
  0
LINE
  5
44A
100
AcDbEntity
  8
0
100
AcDbLine
 62
7
  6
CONTINUOUS
 10
117.7731423953
 20
103.703125
 11
117.1731423953
 21
103.103125
  0
LINE
  5
44B
100
AcDbEntity
  8
0
100
AcDbLine
 62
7
  6
CONTINUOUS
 10
117.7731423953
 20
101.703125
 11
117.1731423953
 21
102.303125
  0
LINE
  5
44C
100
AcDbEntity
  8
0
100
AcDbLine
 62
7
  6
CONTINUOUS
 10
117.1731423953
 20
103.703125
 11
117.4731423953
 21
103.403125
  0
LINE
  5
44D
100
AcDbEntity
  8
0
100
AcDbLine
 62
7
  6
CONTINUOUS
 10
117.1731423953
 20
101.703125
 11
117.4731423953
 21
102.003125
  0
LINE
  5
44E
100
AcDbEntity
  8
0
100
AcDbLine
 62
7
  6
CONTINUOUS
 10
117.7731423953
 20
118.503125
 11
117.1731423953
 21
119.103125
  0
LINE
  5
44F
100
AcDbEntity
  8
0
100
AcDbLine
 62
7
  6
CONTINUOUS
 10
117.1731423953
 20
118.503125
 11
117.1731423953
 21
103.703125
  0
LINE
  5
450
100
AcDbEntity
  8
0
100
AcDbLine
 62
7
  6
CONTINUOUS
 10
117.1731423953
 20
86.903125
 11
117.1731423953
 21
101.703125
  0
LINE
  5
451
100
AcDbEntity
  8
0
100
AcDbLine
 62
7
  6
CONTINUOUS
 10
117.7731423953
 20
118.503125
 11
117.7731423953
 21
103.703125
  0
LINE
  5
452
100
AcDbEntity
  8
0
100
AcDbLine
 62
7
  6
CONTINUOUS
 10
117.7731423953
 20
86.903125
 11
117.7731423953
 21
101.703125
  0
LINE
  5
453
100
AcDbEntity
  8
02___PRT_ALL_AXES
100
AcDbLine
 62
7
  6
CONTINUOUS
 10
117.7731423953
 20
119.103125
 11
117.7731423953
 21
122.103125
  0
LINE
  5
454
100
AcDbEntity
  8
0
100
AcDbLine
 62
7
  6
CONTINUOUS
 10
119.7731423953
 20
93.9532275396
 11
119.7731423953
 21
111.4530224604
  0
LINE
  5
455
100
AcDbEntity
  8
0
100
AcDbLine
 62
7
  6
CONTINUOUS
 10
119.9731423953
 20
93.753125
 11
119.9731423953
 21
111.653125
  0
LINE
  5
456
100
AcDbEntity
  8
0
100
AcDbLine
 62
7
  6
CONTINUOUS
 10
117.1731423953
 20
86.303125
 11
117.7731423953
 21
86.903125
  0
LINE
  5
457
100
AcDbEntity
  8
0
100
AcDbLine
 62
7
  6
CONTINUOUS
 10
130.6731423953
 20
111.453125
 11
130.4731423953
 21
111.653125
  0
LINE
  5
458
100
AcDbEntity
  8
0
100
AcDbLine
 62
7
  6
CONTINUOUS
 10
130.6731423953
 20
93.953125
 11
130.4731423953
 21
93.753125
  0
LINE
  5
459
100
AcDbEntity
  8
0
100
AcDbLine
 62
7
  6
CONTINUOUS
 10
138.2731423953
 20
110.503125
 11
138.0731423953
 21
110.703125
  0
LINE
  5
45A
100
AcDbEntity
  8
0
100
AcDbLine
 62
7
  6
CONTINUOUS
 10
138.2731423953
 20
94.903125
 11
138.0731423953
 21
94.703125
  0
LINE
  5
45B
100
AcDbEntity
  8
0
100
AcDbLine
 62
7
  6
CONTINUOUS
 10
130.4731423953
 20
93.753125
 11
130.4731423953
 21
111.653125
  0
LINE
  5
45C
100
AcDbEntity
  8
0
100
AcDbLine
 62
7
  6
CONTINUOUS
 10
130.6731423953
 20
93.9532275396
 11
130.6731423953
 21
111.4530224604
  0
LINE
  5
45D
100
AcDbEntity
  8
0
100
AcDbLine
 62
7
  6
CONTINUOUS
 10
138.0731423953
 20
94.703125
 11
138.0731423953
 21
110.703125
  0
LINE
  5
45E
100
AcDbEntity
  8
0
100
AcDbLine
 62
7
  6
CONTINUOUS
 10
138.2731423953
 20
94.9032163888
 11
138.2731423953
 21
110.5030336112
  0
LINE
  5
45F
100
AcDbEntity
  8
02___PRT_ALL_AXES
100
AcDbLine
 62
7
  6
CONTINUOUS
 10
142.2731423953
 20
97.0532237541
 11
142.2731423953
 21
108.3530262459
  0
LINE
  5
460
100
AcDbEntity
  8
02___PRT_ALL_AXES
100
AcDbLine
 62
7
  6
CONTINUOUS
 10
145.7731423953
 20
97.703125
 11
145.7731423953
 21
107.703125
  0
LINE
  5
461
100
AcDbEntity
  8
0
100
AcDbLine
 62
7
  6
CONTINUOUS
 10
274.8868083218
 20
143.1105731701
 11
274.6868083218
 21
143.3105731701
  0
LINE
  5
462
100
AcDbEntity
  8
02___PRT_ALL_AXES
100
AcDbLine
 62
7
  6
CONTINUOUS
 10
247.6868083217
 20
163.6105731702
 11
247.6868083217
 21
193.6105731702
  0
LINE
  5
463
100
AcDbEntity
  8
02___PRT_ALL_AXES
100
AcDbLine
 62
7
  6
CONTINUOUS
 10
287.6868083217
 20
135.6105731702
 11
277.6868083217
 21
135.6105731702
  0
LINE
  5
464
100
AcDbEntity
  8
02___PRT_ALL_AXES
100
AcDbLine
 62
7
  6
CONTINUOUS
 10
288.3368083217
 20
139.1105731702
 11
277.0368083217
 21
139.1105731702
  0
LINE
  5
465
100
AcDbEntity
  8
0
100
AcDbLine
 62
7
  6
CONTINUOUS
 10
273.9368083218
 20
150.7105731701
 11
273.7368083218
 21
150.9105731701
  0
LINE
  5
466
100
AcDbEntity
  8
0
100
AcDbLine
 62
7
  6
CONTINUOUS
 10
262.7868083217
 20
163.6105731702
 11
262.1868083217
 21
164.2105731702
  0
LINE
  5
467
100
AcDbEntity
  8
02___PRT_ALL_AXES
100
AcDbLine
 62
7
  6
CENTER
 10
254.6868083217
 20
178.6105731702
 11
254.6868083217
 21
171.1105731702
  0
LINE
  5
468
100
AcDbEntity
  8
02___PRT_ALL_AXES
100
AcDbLine
 62
7
  6
CENTER
 10
254.6868083217
 20
178.6105731702
 11
254.6868083217
 21
186.1105731702
  0
LINE
  5
469
100
AcDbEntity
  8
02___PRT_ALL_AXES
100
AcDbLine
 62
7
  6
CONTINUOUS
 10
256.3000019737
 20
237.8105731702
 11
256.3000019737
 21
228.4105731702
  0
LINE
  5
46A
100
AcDbEntity
  8
0
100
AcDbLine
 62
7
  6
CONTINUOUS
 10
274.8868083217
 20
143.1105731702
 11
290.4868083217
 21
143.1105731702
  0
LINE
  5
46B
100
AcDbEntity
  8
0
100
AcDbLine
 62
7
  6
CONTINUOUS
 10
274.6868083217
 20
143.3105731702
 11
290.6868083217
 21
143.3105731702
  0
LINE
  5
46C
100
AcDbEntity
  8
0
100
AcDbLine
 62
7
  6
CONTINUOUS
 10
262.1868083217
 20
193.0105731702
 11
262.1868083217
 21
164.2105731702
  0
LINE
  5
46D
100
AcDbEntity
  8
0
100
AcDbLine
 62
7
  6
CONTINUOUS
 10
262.7868083217
 20
193.0105731702
 11
262.7868083217
 21
164.2105731702
  0
LINE
  5
46E
100
AcDbEntity
  8
02___PRT_ALL_AXES
100
AcDbLine
 62
7
  6
CONTINUOUS
 10
263.3000019737
 20
237.8105731702
 11
263.3000019737
 21
228.4105731702
  0
LINE
  5
46F
100
AcDbEntity
  8
0
100
AcDbLine
 62
7
  6
CONTINUOUS
 10
273.9368083217
 20
150.7105731702
 11
291.4368083217
 21
150.7105731702
  0
LINE
  5
470
100
AcDbEntity
  8
0
100
AcDbLine
 62
7
  6
CONTINUOUS
 10
273.7368083217
 20
150.9105731702
 11
291.6368083217
 21
150.9105731702
  0
LINE
  5
471
100
AcDbEntity
  8
02___PRT_ALL_AXES
100
AcDbLine
 62
7
  6
CENTER
 10
269.8368083217
 20
178.6105731702
 11
269.8368083217
 21
174.6104731702
  0
LINE
  5
472
100
AcDbEntity
  8
02___PRT_ALL_AXES
100
AcDbLine
 62
7
  6
CENTER
 10
269.8368083217
 20
178.6105731702
 11
269.8368083217
 21
182.6106731702
  0
LINE
  5
473
100
AcDbEntity
  8
0
100
AcDbLine
 62
7
  6
CONTINUOUS
 10
291.4368083216
 20
161.6105731703
 11
291.6368083216
 21
161.4105731703
  0
LINE
  5
474
100
AcDbEntity
  8
02___PRT_ALL_AXES
100
AcDbLine
 62
7
  6
CONTINUOUS
 10
277.6868083217
 20
135.6105731702
 11
277.0368083217
 21
139.1105731702
  0
LINE
  5
475
100
AcDbEntity
  8
0
100
AcDbLine
 62
7
  6
CONTINUOUS
 10
273.7368083217
 20
150.9105731702
 11
273.7368083217
 21
161.4105731702
  0
LINE
  5
476
100
AcDbEntity
  8
02___PRT_ALL_AXES
100
AcDbLine
 62
7
  6
CONTINUOUS
 10
273.7368083217
 20
150.9105731702
 11
273.7368083217
 21
161.4105731702
  0
LINE
  5
477
100
AcDbEntity
  8
0
100
AcDbLine
 62
7
  6
CONTINUOUS
 10
274.6868083217
 20
143.3105731702
 11
274.6868083217
 21
150.7105731702
  0
LINE
  5
478
100
AcDbEntity
  8
02___PRT_ALL_AXES
100
AcDbLine
 62
7
  6
CONTINUOUS
 10
274.6868083217
 20
143.3105731702
 11
274.6868083217
 21
150.7105731702
  0
LINE
  5
479
100
AcDbEntity
  8
0
100
AcDbLine
 62
7
  6
CONTINUOUS
 10
275.1868083217
 20
195.6105731702
 11
275.1868083217
 21
193.6105731702
  0
LINE
  5
47A
100
AcDbEntity
  8
0
100
AcDbLine
 62
7
  6
CONTINUOUS
 10
275.1868083217
 20
163.6105731702
 11
275.1868083217
 21
161.6105731702
  0
LINE
  5
47B
100
AcDbEntity
  8
0
100
AcDbLine
 62
7
  6
CONTINUOUS
 10
273.7368083217
 20
161.4105731702
 11
291.6368083217
 21
161.4105731702
  0
LINE
  5
47C
100
AcDbEntity
  8
0
100
AcDbLine
 62
7
  6
CONTINUOUS
 10
273.9368083217
 20
161.6105731702
 11
291.4368083217
 21
161.6105731702
  0
LINE
  5
47D
100
AcDbEntity
  8
02___PRT_ALL_AXES
100
AcDbLine
 62
7
  6
CONTINUOUS
 10
317.6868083217
 20
163.6105731702
 11
302.5868083217
 21
163.6105731702
  0
LINE
  5
47E
100
AcDbEntity
  8
02___PRT_ALL_AXES
100
AcDbLine
 62
7
  6
CONTINUOUS
 10
262.7868083217
 20
163.6105731702
 11
247.6868083217
 21
163.6105731702
  0
LINE
  5
47F
100
AcDbEntity
  8
0
100
AcDbLine
 62
7
  6
CONTINUOUS
 10
262.7868083217
 20
163.6105731702
 11
302.5868083217
 21
163.6105731702
  0
LINE
  5
480
100
AcDbEntity
  8
0
100
AcDbLine
 62
7
  6
CONTINUOUS
 10
262.7868083217
 20
164.2105731702
 11
302.5868083217
 21
164.2105731702
  0
LINE
  5
481
100
AcDbEntity
  8
0
100
AcDbLine
 62
7
  6
CONTINUOUS
 10
262.7868083217
 20
193.0105731702
 11
262.4868083217
 21
193.3105731702
  0
LINE
  5
482
100
AcDbEntity
  8
02___PRT_ALL_AXES
100
AcDbLine
 62
7
  6
CONTINUOUS
 10
277.4368083217
 20
139.1105731702
 11
277.4368083217
 21
143.1105731702
  0
LINE
  5
483
100
AcDbEntity
  8
02___PRT_ALL_AXES
100
AcDbLine
 62
7
  6
CENTER
 10
282.6868083217
 20
132.0953958647
 11
282.6868083217
 21
200.6105731702
  0
LINE
  5
484
100
AcDbEntity
  8
0
100
AcDbLine
 62
7
  6
CONTINUOUS
 10
306.5273153531
 20
238.4873530382
 11
287.6373414491
 21
226.6835872872
  0
LINE
  5
485
100
AcDbEntity
  8
0
100
AcDbLine
 62
7
  6
CONTINUOUS
 10
302.8868083217
 20
163.9105731702
 11
302.5868083217
 21
164.2105731702
  0
LINE
  5
486
100
AcDbEntity
  8
02___PRT_ALL_AXES
100
AcDbLine
 62
7
  6
CONTINUOUS
 10
287.9368083217
 20
139.1105731702
 11
287.9368083217
 21
143.1105731702
  0
LINE
  5
487
100
AcDbEntity
  8
0
100
AcDbLine
 62
7
  6
CONTINUOUS
 10
262.1868083217
 20
193.0105731702
 11
262.7868083217
 21
193.6105731702
  0
LINE
  5
488
100
AcDbEntity
  8
0
100
AcDbLine
 62
7
  6
CONTINUOUS
 10
322.1868083217
 20
253.0105731702
 11
322.7868083217
 21
253.6105731702
  0
LINE
  5
489
100
AcDbEntity
  8
0
100
AcDbLine
 62
7
  6
CONTINUOUS
 10
290.1868083217
 20
195.6105731702
 11
290.1868083217
 21
193.6105731702
  0
LINE
  5
48A
100
AcDbEntity
  8
0
100
AcDbLine
 62
7
  6
CONTINUOUS
 10
290.1868083217
 20
163.6105731702
 11
290.1868083217
 21
161.6105731702
  0
LINE
  5
48B
100
AcDbEntity
  8
0
100
AcDbLine
 62
7
  6
CONTINUOUS
 10
290.6868083217
 20
143.3105731702
 11
290.6868083217
 21
150.7105731702
  0
LINE
  5
48C
100
AcDbEntity
  8
02___PRT_ALL_AXES
100
AcDbLine
 62
7
  6
CONTINUOUS
 10
290.6868083217
 20
143.3105731702
 11
290.6868083217
 21
150.7105731702
  0
LINE
  5
48D
100
AcDbEntity
  8
0
100
AcDbLine
 62
7
  6
CONTINUOUS
 10
291.6368083217
 20
150.9105731702
 11
291.6368083217
 21
161.4105731702
  0
LINE
  5
48E
100
AcDbEntity
  8
02___PRT_ALL_AXES
100
AcDbLine
 62
7
  6
CONTINUOUS
 10
291.6368083217
 20
150.9105731702
 11
291.6368083217
 21
161.4105731702
  0
LINE
  5
48F
100
AcDbEntity
  8
02___PRT_ALL_AXES
100
AcDbLine
 62
7
  6
CENTER
 10
295.5368083217
 20
178.6105731702
 11
295.5368083217
 21
174.6104731702
  0
LINE
  5
490
100
AcDbEntity
  8
02___PRT_ALL_AXES
100
AcDbLine
 62
7
  6
CENTER
 10
295.5368083217
 20
178.6105731702
 11
295.5368083217
 21
182.6106731702
  0
LINE
  5
491
100
AcDbEntity
  8
02___PRT_ALL_AXES
100
AcDbLine
 62
7
  6
CENTER
 10
310.6868083217
 20
178.6105731702
 11
303.1868083217
 21
178.6105731702
  0
LINE
  5
492
100
AcDbEntity
  8
02___PRT_ALL_AXES
100
AcDbLine
 62
7
  6
CENTER
 10
295.5368083217
 20
178.6105731702
 11
291.5367083217
 21
178.6105731702
  0
LINE
  5
493
100
AcDbEntity
  8
02___PRT_ALL_AXES
100
AcDbLine
 62
7
  6
CENTER
 10
269.8368083217
 20
178.6105731702
 11
265.8367083217
 21
178.6105731702
  0
LINE
  5
494
100
AcDbEntity
  8
02___PRT_ALL_AXES
100
AcDbLine
 62
7
  6
CENTER
 10
254.6868083217
 20
178.6105731702
 11
247.1868083217
 21
178.6105731702
  0
LINE
  5
495
100
AcDbEntity
  8
02___PRT_ALL_AXES
100
AcDbLine
 62
7
  6
CENTER
 10
254.6868083217
 20
178.6105731702
 11
262.1868083217
 21
178.6105731702
  0
LINE
  5
496
100
AcDbEntity
  8
02___PRT_ALL_AXES
100
AcDbLine
 62
7
  6
CENTER
 10
269.8368083217
 20
178.6105731702
 11
273.8369083217
 21
178.6105731702
  0
LINE
  5
497
100
AcDbEntity
  8
02___PRT_ALL_AXES
100
AcDbLine
 62
7
  6
CENTER
 10
295.5368083217
 20
178.6105731702
 11
299.5369083217
 21
178.6105731702
  0
LINE
  5
498
100
AcDbEntity
  8
02___PRT_ALL_AXES
100
AcDbLine
 62
7
  6
CENTER
 10
310.6868083217
 20
178.6105731702
 11
318.1868083217
 21
178.6105731702
  0
LINE
  5
499
100
AcDbEntity
  8
02___PRT_ALL_AXES
100
AcDbLine
 62
7
  6
CONTINUOUS
 10
287.6868083217
 20
135.6105731702
 11
288.3368083217
 21
139.1105731702
  0
LINE
  5
49A
100
AcDbEntity
  8
0
100
AcDbLine
 62
7
  6
CONTINUOUS
 10
302.5868083217
 20
193.6105731702
 11
303.1868083217
 21
193.0105731702
  0
LINE
  5
49B
100
AcDbEntity
  8
0
100
AcDbLine
 62
7
  6
CONTINUOUS
 10
302.5868083217
 20
164.2105731702
 11
302.5868083217
 21
193.0105731702
  0
LINE
  5
49C
100
AcDbEntity
  8
0
100
AcDbLine
 62
7
  6
CONTINUOUS
 10
303.1868083217
 20
164.2105731702
 11
303.1868083217
 21
193.0105731702
  0
LINE
  5
49D
100
AcDbEntity
  8
0
100
AcDbLine
 62
7
  6
CONTINUOUS
 10
262.7868083217
 20
164.2105731702
 11
262.4868083217
 21
163.9105731702
  0
LINE
  5
49E
100
AcDbEntity
  8
0
100
AcDbLine
 62
7
  6
CONTINUOUS
 10
351.5868083217
 20
253.0105731702
 11
351.8868083217
 21
253.3105731702
  0
LINE
  5
49F
100
AcDbEntity
  8
0
100
AcDbLine
 62
7
  6
CONTINUOUS
 10
302.5868083217
 20
193.0105731702
 11
262.7868083217
 21
193.0105731702
  0
LINE
  5
4A0
100
AcDbEntity
  8
0
100
AcDbLine
 62
7
  6
CONTINUOUS
 10
302.5868083217
 20
193.6105731702
 11
262.7868083217
 21
193.6105731702
  0
LINE
  5
4A1
100
AcDbEntity
  8
02___PRT_ALL_AXES
100
AcDbLine
 62
7
  6
CONTINUOUS
 10
247.6868083217
 20
193.6105731702
 11
262.7868083217
 21
193.6105731702
  0
LINE
  5
4A2
100
AcDbEntity
  8
02___PRT_ALL_AXES
100
AcDbLine
 62
7
  6
CONTINUOUS
 10
302.5868083217
 20
193.6105731702
 11
317.6868083217
 21
193.6105731702
  0
LINE
  5
4A3
100
AcDbEntity
  8
0
100
AcDbLine
 62
7
  6
CONTINUOUS
 10
290.1868083217
 20
195.6105731702
 11
275.1868083217
 21
195.6105731702
  0
LINE
  5
4A4
100
AcDbEntity
  8
02___PRT_ALL_AXES
100
AcDbLine
 62
7
  6
CENTER
 10
310.6868083217
 20
178.6105731702
 11
310.6868083217
 21
171.1105731702
  0
LINE
  5
4A5
100
AcDbEntity
  8
02___PRT_ALL_AXES
100
AcDbLine
 62
7
  6
CENTER
 10
310.6868083217
 20
178.6105731702
 11
310.6868083217
 21
186.1105731702
  0
LINE
  5
4A6
100
AcDbEntity
  8
0
100
AcDbLine
 62
7
  6
CONTINUOUS
 10
302.5868083217
 20
193.0105731702
 11
302.8868083217
 21
193.3105731702
  0
LINE
  5
4A7
100
AcDbEntity
  8
0
100
AcDbLine
 62
7
  6
CONTINUOUS
 10
322.4868083217
 20
212.9105731702
 11
322.7868083217
 21
213.2105731702
  0
LINE
  5
4A8
100
AcDbEntity
  8
0
100
AcDbLine
 62
7
  6
CONTINUOUS
 10
273.9368083219
 20
161.6105731704
 11
273.7368083219
 21
161.4105731704
  0
LINE
  5
4A9
100
AcDbEntity
  8
0
100
AcDbLine
 62
7
  6
CONTINUOUS
 10
354.1868083216
 20
241.8605731701
 11
354.3868083216
 21
242.0605731701
  0
LINE
  5
4AA
100
AcDbEntity
  8
02___PRT_ALL_AXES
100
AcDbLine
 62
7
  6
CONTINUOUS
 10
352.1868083217
 20
198.1105731702
 11
322.1868083217
 21
198.1105731702
  0
LINE
  5
4AB
100
AcDbEntity
  8
02___PRT_ALL_AXES
100
AcDbLine
 62
7
  6
CONTINUOUS
 10
317.6868083217
 20
193.6105731702
 11
317.6868083217
 21
163.6105731702
  0
LINE
  5
4AC
100
AcDbEntity
  8
0
100
AcDbLine
 62
7
  6
CONTINUOUS
 10
320.1868083217
 20
225.6105731702
 11
320.1868083217
 21
240.6105731702
  0
LINE
  5
4AD
100
AcDbEntity
  8
02___PRT_ALL_AXES
100
AcDbLine
 62
7
  6
CENTER
 10
337.1868083217
 20
205.1105731702
 11
329.6868083217
 21
205.1105731702
  0
LINE
  5
4AE
100
AcDbEntity
  8
02___PRT_ALL_AXES
100
AcDbLine
 62
7
  6
CENTER
 10
337.1868083217
 20
205.1105731702
 11
344.6868083217
 21
205.1105731702
  0
LINE
  5
4AF
100
AcDbEntity
  8
0
100
AcDbLine
 62
7
  6
CONTINUOUS
 10
322.1868083217
 20
253.0105731702
 11
322.1868083217
 21
213.2105731702
  0
LINE
  5
4B0
100
AcDbEntity
  8
02___PRT_ALL_AXES
100
AcDbLine
 62
7
  6
CONTINUOUS
 10
322.1868083217
 20
198.1105731702
 11
322.1868083217
 21
213.2105731702
  0
LINE
  5
4B1
100
AcDbEntity
  8
02___PRT_ALL_AXES
100
AcDbLine
 62
7
  6
CONTINUOUS
 10
322.1868083217
 20
253.0105731702
 11
322.1868083217
 21
268.1105731702
  0
LINE
  5
4B2
100
AcDbEntity
  8
0
100
AcDbLine
 62
7
  6
CONTINUOUS
 10
322.7868083217
 20
253.0105731702
 11
322.7868083217
 21
213.2105731702
  0
LINE
  5
4B3
100
AcDbEntity
  8
0
100
AcDbLine
 62
7
  6
CONTINUOUS
 10
322.7868083217
 20
212.6105731702
 11
351.5868083217
 21
212.6105731702
  0
LINE
  5
4B4
100
AcDbEntity
  8
0
100
AcDbLine
 62
7
  6
CONTINUOUS
 10
322.7868083217
 20
213.2105731702
 11
351.5868083217
 21
213.2105731702
  0
LINE
  5
4B5
100
AcDbEntity
  8
0
100
AcDbLine
 62
7
  6
CONTINUOUS
 10
352.1868083217
 20
213.2105731702
 11
351.5868083217
 21
212.6105731702
  0
LINE
  5
4B6
100
AcDbEntity
  8
0
100
AcDbLine
 62
7
  6
CONTINUOUS
 10
302.5868083217
 20
163.6105731702
 11
303.1868083217
 21
164.2105731702
  0
LINE
  5
4B7
100
AcDbEntity
  8
02___PRT_ALL_AXES
100
AcDbLine
 62
7
  6
CONTINUOUS
 10
380.1868083217
 20
228.1105731702
 11
376.6868083217
 21
227.4605731702
  0
LINE
  5
4B8
100
AcDbEntity
  8
02___PRT_ALL_AXES
100
AcDbLine
 62
7
  6
CENTER
 10
337.1868083217
 20
220.2605731702
 11
333.1867083217
 21
220.2605731702
  0
LINE
  5
4B9
100
AcDbEntity
  8
02___PRT_ALL_AXES
100
AcDbLine
 62
7
  6
CENTER
 10
337.1868083217
 20
220.2605731702
 11
341.1869083217
 21
220.2605731702
  0
LINE
  5
4BA
100
AcDbEntity
  8
0
100
AcDbLine
 62
7
  6
CONTINUOUS
 10
322.1868083217
 20
213.2105731702
 11
322.7868083217
 21
212.6105731702
  0
LINE
  5
4BB
100
AcDbEntity
  8
02___PRT_ALL_AXES
100
AcDbLine
 62
7
  6
CENTER
 10
337.1868083217
 20
261.1105731702
 11
337.1868083217
 21
253.6105731702
  0
LINE
  5
4BC
100
AcDbEntity
  8
02___PRT_ALL_AXES
100
AcDbLine
 62
7
  6
CENTER
 10
337.1868083217
 20
245.9605731702
 11
337.1868083217
 21
241.9604731702
  0
LINE
  5
4BD
100
AcDbEntity
  8
02___PRT_ALL_AXES
100
AcDbLine
 62
7
  6
CENTER
 10
337.1868083217
 20
220.2605731702
 11
337.1868083217
 21
216.2604731702
  0
LINE
  5
4BE
100
AcDbEntity
  8
02___PRT_ALL_AXES
100
AcDbLine
 62
7
  6
CENTER
 10
337.1868083217
 20
205.1105731702
 11
337.1868083217
 21
197.6105731702
  0
LINE
  5
4BF
100
AcDbEntity
  8
02___PRT_ALL_AXES
100
AcDbLine
 62
7
  6
CENTER
 10
337.1868083217
 20
205.1105731702
 11
337.1868083217
 21
212.6105731702
  0
LINE
  5
4C0
100
AcDbEntity
  8
02___PRT_ALL_AXES
100
AcDbLine
 62
7
  6
CENTER
 10
337.1868083217
 20
220.2605731702
 11
337.1868083217
 21
224.2606731702
  0
LINE
  5
4C1
100
AcDbEntity
  8
02___PRT_ALL_AXES
100
AcDbLine
 62
7
  6
CENTER
 10
337.1868083217
 20
245.9605731702
 11
337.1868083217
 21
249.9606731702
  0
LINE
  5
4C2
100
AcDbEntity
  8
02___PRT_ALL_AXES
100
AcDbLine
 62
7
  6
CENTER
 10
337.1868083217
 20
261.1105731702
 11
337.1868083217
 21
268.6105731702
  0
LINE
  5
4C3
100
AcDbEntity
  8
0
100
AcDbLine
 62
7
  6
CONTINUOUS
 10
365.0868083218
 20
224.3605731703
 11
364.8868083218
 21
224.1605731703
  0
LINE
  5
4C4
100
AcDbEntity
  8
0
100
AcDbLine
 62
7
  6
CONTINUOUS
 10
291.4368083216
 20
150.7105731701
 11
291.6368083216
 21
150.9105731701
  0
LINE
  5
4C5
100
AcDbEntity
  8
0
100
AcDbLine
 62
7
  6
CONTINUOUS
 10
372.6868083218
 20
225.3105731703
 11
372.4868083218
 21
225.1105731703
  0
LINE
  5
4C6
100
AcDbEntity
  8
0
100
AcDbLine
 62
7
  6
CONTINUOUS
 10
290.4868083216
 20
143.1105731701
 11
290.6868083216
 21
143.3105731701
  0
LINE
  5
4C7
100
AcDbEntity
  8
0
100
AcDbLine
 62
7
  6
CONTINUOUS
 10
364.8868083217
 20
224.1605731702
 11
354.3868083217
 21
224.1605731702
  0
LINE
  5
4C8
100
AcDbEntity
  8
02___PRT_ALL_AXES
100
AcDbLine
 62
7
  6
CONTINUOUS
 10
364.8868083217
 20
224.1605731702
 11
354.3868083217
 21
224.1605731702
  0
LINE
  5
4C9
100
AcDbEntity
  8
0
100
AcDbLine
 62
7
  6
CONTINUOUS
 10
372.4868083217
 20
225.1105731702
 11
365.0868083217
 21
225.1105731702
  0
LINE
  5
4CA
100
AcDbEntity
  8
02___PRT_ALL_AXES
100
AcDbLine
 62
7
  6
CONTINUOUS
 10
372.4868083217
 20
225.1105731702
 11
365.0868083217
 21
225.1105731702
  0
LINE
  5
4CB
100
AcDbEntity
  8
0
100
AcDbLine
 62
7
  6
CONTINUOUS
 10
354.1868083217
 20
225.6105731702
 11
352.1868083217
 21
225.6105731702
  0
LINE
  5
4CC
100
AcDbEntity
  8
0
100
AcDbLine
 62
7
  6
CONTINUOUS
 10
322.1868083217
 20
225.6105731702
 11
320.1868083217
 21
225.6105731702
  0
LINE
  5
4CD
100
AcDbEntity
  8
02___PRT_ALL_AXES
100
AcDbLine
 62
7
  6
CONTINUOUS
 10
376.6868083217
 20
227.8605731702
 11
372.6868083217
 21
227.8605731702
  0
LINE
  5
4CE
100
AcDbEntity
  8
02___PRT_ALL_AXES
100
AcDbLine
 62
7
  6
CONTINUOUS
 10
263.3000019737
 20
228.4105731702
 11
256.3000019737
 21
228.4105731702
  0
LINE
  5
4CF
100
AcDbEntity
  8
02___PRT_ALL_AXES
100
AcDbLine
 62
7
  6
CONTINUOUS
 10
291.5453357772
 20
229.1255731702
 11
263.3000019737
 21
229.1255731702
  0
LINE
  5
4D0
100
AcDbEntity
  8
0
100
AcDbLine
 62
7
  6
CONTINUOUS
 10
291.5453357772
 20
229.1255731702
 11
263.3000019737
 21
229.1255731702
  0
LINE
  5
4D1
100
AcDbEntity
  8
02___PRT_ALL_AXES
100
AcDbLine
 62
7
  6
CENTER
 10
252.0084521317
 20
233.1105731702
 11
384.95529144
 21
233.1105731702
  0
LINE
  5
4D2
100
AcDbEntity
  8
0
100
AcDbLine
 62
7
  6
CONTINUOUS
 10
351.5868083217
 20
213.2105731702
 11
351.5868083217
 21
253.0105731702
  0
LINE
  5
4D3
100
AcDbEntity
  8
02___PRT_ALL_AXES
100
AcDbLine
 62
7
  6
CONTINUOUS
 10
352.1868083217
 20
268.1105731702
 11
352.1868083217
 21
253.0105731702
  0
LINE
  5
4D4
100
AcDbEntity
  8
02___PRT_ALL_AXES
100
AcDbLine
 62
7
  6
CONTINUOUS
 10
352.1868083217
 20
213.2105731702
 11
352.1868083217
 21
198.1105731702
  0
LINE
  5
4D5
100
AcDbEntity
  8
0
100
AcDbLine
 62
7
  6
CONTINUOUS
 10
352.1868083217
 20
213.2105731702
 11
352.1868083217
 21
253.0105731702
  0
LINE
  5
4D6
100
AcDbEntity
  8
02___PRT_ALL_AXES
100
AcDbLine
 62
7
  6
CONTINUOUS
 10
304.3000019737
 20
237.0955731702
 11
263.3000019737
 21
237.0955731702
  0
LINE
  5
4D7
100
AcDbEntity
  8
0
100
AcDbLine
 62
7
  6
CONTINUOUS
 10
304.3000019737
 20
237.0955731702
 11
263.3000019737
 21
237.0955731702
  0
LINE
  5
4D8
100
AcDbEntity
  8
02___PRT_ALL_AXES
100
AcDbLine
 62
7
  6
CONTINUOUS
 10
263.3000019737
 20
237.8105731702
 11
256.3000019737
 21
237.8105731702
  0
LINE
  5
4D9
100
AcDbEntity
  8
02___PRT_ALL_AXES
100
AcDbLine
 62
7
  6
CONTINUOUS
 10
376.6868083217
 20
238.3605731702
 11
372.6868083217
 21
238.3605731702
  0
LINE
  5
4DA
100
AcDbEntity
  8
0
100
AcDbLine
 62
7
  6
CONTINUOUS
 10
351.5868083217
 20
213.2105731702
 11
351.8868083217
 21
212.9105731702
  0
LINE
  5
4DB
100
AcDbEntity
  8
0
100
AcDbLine
 62
7
  6
CONTINUOUS
 10
354.1868083217
 20
224.3605731703
 11
354.1868083217
 21
241.8605731702
  0
LINE
  5
4DC
100
AcDbEntity
  8
0
100
AcDbLine
 62
7
  6
CONTINUOUS
 10
354.3868083217
 20
224.1605731702
 11
354.3868083217
 21
242.0605731702
  0
LINE
  5
4DD
100
AcDbEntity
  8
0
100
AcDbLine
 62
7
  6
CONTINUOUS
 10
354.1868083217
 20
240.6105731702
 11
352.1868083217
 21
240.6105731702
  0
LINE
  5
4DE
100
AcDbEntity
  8
0
100
AcDbLine
 62
7
  6
CONTINUOUS
 10
322.1868083217
 20
240.6105731702
 11
320.1868083217
 21
240.6105731702
  0
LINE
  5
4DF
100
AcDbEntity
  8
0
100
AcDbLine
 62
7
  6
CONTINUOUS
 10
372.4868083217
 20
241.1105731702
 11
365.0868083217
 21
241.1105731702
  0
LINE
  5
4E0
100
AcDbEntity
  8
02___PRT_ALL_AXES
100
AcDbLine
 62
7
  6
CONTINUOUS
 10
372.4868083217
 20
241.1105731702
 11
365.0868083217
 21
241.1105731702
  0
LINE
  5
4E1
100
AcDbEntity
  8
0
100
AcDbLine
 62
7
  6
CONTINUOUS
 10
364.8868083217
 20
242.0605731702
 11
354.3868083217
 21
242.0605731702
  0
LINE
  5
4E2
100
AcDbEntity
  8
02___PRT_ALL_AXES
100
AcDbLine
 62
7
  6
CONTINUOUS
 10
364.8868083217
 20
242.0605731702
 11
354.3868083217
 21
242.0605731702
  0
LINE
  5
4E3
100
AcDbEntity
  8
02___PRT_ALL_AXES
100
AcDbLine
 62
7
  6
CENTER
 10
337.1868083217
 20
245.9605731702
 11
333.1867083217
 21
245.9605731702
  0
LINE
  5
4E4
100
AcDbEntity
  8
02___PRT_ALL_AXES
100
AcDbLine
 62
7
  6
CENTER
 10
337.1868083217
 20
245.9605731702
 11
341.1869083217
 21
245.9605731702
  0
LINE
  5
4E5
100
AcDbEntity
  8
0
100
AcDbLine
 62
7
  6
CONTINUOUS
 10
322.7868083217
 20
253.0105731702
 11
322.4868083217
 21
253.3105731702
  0
LINE
  5
4E6
100
AcDbEntity
  8
0
100
AcDbLine
 62
7
  6
CONTINUOUS
 10
354.1868083215
 20
224.3605731704
 11
354.3868083215
 21
224.1605731704
  0
LINE
  5
4E7
100
AcDbEntity
  8
02___PRT_ALL_AXES
100
AcDbLine
 62
7
  6
CONTINUOUS
 10
380.1868083217
 20
238.1105731702
 11
376.6868083217
 21
238.7605731702
  0
LINE
  5
4E8
100
AcDbEntity
  8
0
100
AcDbLine
 62
7
  6
CONTINUOUS
 10
364.8868083217
 20
224.1605731702
 11
364.8868083217
 21
242.0605731702
  0
LINE
  5
4E9
100
AcDbEntity
  8
0
100
AcDbLine
 62
7
  6
CONTINUOUS
 10
365.0868083217
 20
224.3605731703
 11
365.0868083217
 21
241.8605731702
  0
LINE
  5
4EA
100
AcDbEntity
  8
0
100
AcDbLine
 62
7
  6
CONTINUOUS
 10
351.5868083217
 20
253.0105731702
 11
322.7868083217
 21
253.0105731702
  0
LINE
  5
4EB
100
AcDbEntity
  8
0
100
AcDbLine
 62
7
  6
CONTINUOUS
 10
351.5868083217
 20
253.6105731702
 11
322.7868083217
 21
253.6105731702
  0
LINE
  5
4EC
100
AcDbEntity
  8
0
100
AcDbLine
 62
7
  6
CONTINUOUS
 10
372.4868083217
 20
225.1105731702
 11
372.4868083217
 21
241.1105731702
  0
LINE
  5
4ED
100
AcDbEntity
  8
0
100
AcDbLine
 62
7
  6
CONTINUOUS
 10
372.6868083217
 20
225.3105731703
 11
372.6868083217
 21
240.9105731702
  0
LINE
  5
4EE
100
AcDbEntity
  8
02___PRT_ALL_AXES
100
AcDbLine
 62
7
  6
CONTINUOUS
 10
376.6868083217
 20
238.7605731702
 11
376.6868083217
 21
227.4605731702
  0
LINE
  5
4EF
100
AcDbEntity
  8
02___PRT_ALL_AXES
100
AcDbLine
 62
7
  6
CENTER
 10
337.1868083217
 20
261.1105731702
 11
329.6868083217
 21
261.1105731702
  0
LINE
  5
4F0
100
AcDbEntity
  8
02___PRT_ALL_AXES
100
AcDbLine
 62
7
  6
CENTER
 10
337.1868083217
 20
261.1105731702
 11
344.6868083217
 21
261.1105731702
  0
LINE
  5
4F1
100
AcDbEntity
  8
0
100
AcDbLine
 62
7
  6
CONTINUOUS
 10
351.5868083217
 20
253.6105731702
 11
352.1868083217
 21
253.0105731702
  0
LINE
  5
4F2
100
AcDbEntity
  8
02___PRT_ALL_AXES
100
AcDbLine
 62
7
  6
CONTINUOUS
 10
380.1868083217
 20
238.1105731702
 11
380.1868083217
 21
228.1105731702
  0
LINE
  5
4F3
100
AcDbEntity
  8
02___PRT_ALL_AXES
100
AcDbLine
 62
7
  6
CONTINUOUS
 10
322.1868083217
 20
268.1105731702
 11
352.1868083217
 21
268.1105731702
  0
LINE
  5
4F4
100
AcDbEntity
  8
0
100
AcDbLine
 62
7
  6
CONTINUOUS
 10
365.0868083218
 20
241.8605731701
 11
364.8868083218
 21
242.0605731701
  0
LINE
  5
4F5
100
AcDbEntity
  8
0
100
AcDbLine
 62
7
  6
CONTINUOUS
 10
372.6868083218
 20
240.9105731701
 11
372.4868083218
 21
241.1105731701
  0
LINE
  5
4F6
100
AcDbEntity
  8
02___PRT_ALL_AXES
100
AcDbLine
 62
7
  6
CONTINUOUS
 10
207.3447344621
 20
23.9994020162
 11
206.3823910697
 21
24.3975471526
  0
LINE
  5
4F7
100
AcDbEntity
  8
0
100
AcDbLine
 62
7
  6
CONTINUOUS
 10
223.3435687341
 20
22.8114161275
 11
218.5960079985
 21
24.7755988003
  0
LINE
  5
4F8
100
AcDbEntity
  8
0
100
AcDbLine
 62
7
  6
CONTINUOUS
 10
213.2068850014
 20
27.0052115641
 11
217.954445737
 21
25.0410288912
  0
LINE
  5
4F9
100
AcDbEntity
  8
0
100
AcDbLine
 62
7
  6
CONTINUOUS
 10
223.071354597
 20
22.9507861598
 11
218.3237938615
 21
24.9149688326
  0
LINE
  5
4FA
100
AcDbEntity
  8
0
100
AcDbLine
 62
7
  6
CONTINUOUS
 10
212.9346708644
 20
27.1445815963
 11
217.6822315999
 21
25.1803989235
  0
LINE
  5
4FB
100
AcDbEntity
  8
0
100
AcDbLine
 62
7
  6
CONTINUOUS
 10
213.2068850014
 20
27.0052115641
 11
212.9745435937
 21
27.1147110938
  0
LINE
  5
4FC
100
AcDbEntity
  8
0
100
AcDbLine
 62
7
  6
CONTINUOUS
 10
217.9145730077
 20
25.0708993937
 11
217.6822315999
 21
25.1803989235
  0
LINE
  5
4FD
100
AcDbEntity
  8
0
100
AcDbLine
 62
7
  6
CONTINUOUS
 10
218.5960079985
 20
24.7755988003
 11
218.3636665908
 21
24.8850983301
  0
LINE
  5
4FE
100
AcDbEntity
  8
0
100
AcDbLine
 62
7
  6
CONTINUOUS
 10
223.3036960048
 20
22.84128663
 11
223.071354597
 21
22.9507861598
  0
LINE
  5
4FF
100
AcDbEntity
  8
0
100
AcDbLine
 62
7
  6
CONTINUOUS
 10
212.9346708644
 20
27.1445815963
 11
212.9745435937
 21
27.1147110938
  0
LINE
  5
500
100
AcDbEntity
  8
0
100
AcDbLine
 62
7
  6
CONTINUOUS
 10
217.954445737
 20
25.0410288912
 11
217.9145730077
 21
25.0708993937
  0
LINE
  5
501
100
AcDbEntity
  8
02___PRT_ALL_AXES
100
AcDbLine
 62
7
  6
CONTINUOUS
 10
226.1818981699
 20
85.2468899135
 11
237.4461667677
 21
91.3769003276
  0
LINE
  5
502
100
AcDbEntity
  8
02___PRT_ALL_AXES
100
AcDbLine
 62
7
  6
CONTINUOUS
 10
227.1442415623
 20
84.8487447772
 11
238.40851016
 21
90.9787551912
  0
LINE
  5
503
100
AcDbEntity
  8
0
100
AcDbLine
 62
7
  6
CONTINUOUS
 10
218.3237938615
 20
24.9149688326
 11
218.3636665908
 21
24.8850983301
  0
LINE
  5
504
100
AcDbEntity
  8
0
100
AcDbLine
 62
7
  6
CONTINUOUS
 10
223.3435687341
 20
22.8114161275
 11
223.3036960048
 21
22.84128663
  0
LINE
  5
505
100
AcDbEntity
  8
02___PRT_ALL_AXES
100
AcDbLine
 62
7
  6
CONTINUOUS
 10
206.3823910697
 20
24.3975471526
 11
204.0359528159
 21
37.4960591811
  0
LINE
  5
506
100
AcDbEntity
  8
02___PRT_ALL_AXES
100
AcDbLine
 62
7
  6
CONTINUOUS
 10
207.3447344621
 20
23.9994020162
 11
204.9982962082
 21
37.0979140448
  0
LINE
  5
507
100
AcDbEntity
  8
02___PRT_ALL_AXES
100
AcDbLine
 62
7
  6
CONTINUOUS
 10
204.9982962082
 20
37.0979140448
 11
204.0359528159
 21
37.4960591811
  0
LINE
  5
508
100
AcDbEntity
  8
0
100
AcDbLine
 62
7
  6
CONTINUOUS
 10
228.6961074354
 20
78.5607684777
 11
239.5098052893
 21
84.4455784752
  0
LINE
  5
509
100
AcDbEntity
  8
0
100
AcDbLine
 62
7
  6
CONTINUOUS
 10
212.9346708644
 20
27.1445815963
 11
210.6820901407
 21
39.7191531437
  0
LINE
  5
50A
100
AcDbEntity
  8
0
100
AcDbLine
 62
7
  6
CONTINUOUS
 10
210.6750341049
 20
39.9512528818
 11
210.6820901407
 21
39.7191531437
  0
LINE
  5
50B
100
AcDbEntity
  8
0
100
AcDbLine
 62
7
  6
CONTINUOUS
 10
228.6961074354
 20
78.5607684777
 11
228.5106947927
 21
78.4082977669
  0
LINE
  5
50C
100
AcDbEntity
  8
0
100
AcDbLine
 62
7
  6
CONTINUOUS
 10
244.2573660248
 20
82.4813958024
 11
233.4436681709
 21
76.5965858049
  0
LINE
  5
50D
100
AcDbEntity
  8
0
100
AcDbLine
 62
7
  6
CONTINUOUS
 10
244.4967634683
 20
82.1397965346
 11
233.6830656145
 21
76.2549865371
  0
LINE
  5
50E
100
AcDbEntity
  8
0
100
AcDbLine
 62
7
  6
CONTINUOUS
 10
234.0852304325
 20
76.331155714
 11
244.8989282864
 21
82.2159657115
  0
LINE
  5
50F
100
AcDbEntity
  8
02___PRT_ALL_AXES
100
AcDbLine
 62
7
  6
CONTINUOUS
 10
255.8610963645
 20
81.4937305926
 11
254.4092548055
 21
81.0712910508
  0
LINE
  5
510
100
AcDbEntity
  8
0
100
AcDbLine
 62
7
  6
CONTINUOUS
 10
220.8187738733
 20
35.5253577072
 11
216.0712131378
 21
37.48954038
  0
LINE
  5
511
100
AcDbEntity
  8
0
100
AcDbLine
 62
7
  6
CONTINUOUS
 10
210.6820901407
 20
39.7191531437
 11
215.4296508762
 21
37.7549704709
  0
LINE
  5
512
100
AcDbEntity
  8
0
100
AcDbLine
 62
7
  6
CONTINUOUS
 10
220.9971304802
 20
35.909928156
 11
216.2495697447
 21
37.8741108288
  0
LINE
  5
513
100
AcDbEntity
  8
0
100
AcDbLine
 62
7
  6
CONTINUOUS
 10
210.8604467476
 20
40.1037235926
 11
215.6080074831
 21
38.1395409198
  0
LINE
  5
514
100
AcDbEntity
  8
0
100
AcDbLine
 62
7
  6
CONTINUOUS
 10
215.6150635189
 20
37.9074411817
 11
215.8474049266
 21
37.7979416519
  0
LINE
  5
515
100
AcDbEntity
  8
0
100
AcDbLine
 62
7
  6
CONTINUOUS
 10
221.2365279237
 20
35.5683288882
 11
221.004186516
 21
35.677828418
  0
LINE
  5
516
100
AcDbEntity
  8
02___PRT_ALL_AXES
100
AcDbLine
 62
7
  6
CONTINUOUS
 10
225.5075407995
 20
16.2007875966
 11
224.9179338774
 21
17.6576438156
  0
LINE
  5
517
100
AcDbEntity
  8
0
100
AcDbLine
 62
7
  6
CONTINUOUS
 10
215.4296508762
 20
37.7549704709
 11
217.6822315999
 21
25.1803989235
  0
LINE
  5
518
100
AcDbEntity
  8
0
100
AcDbLine
 62
7
  6
CONTINUOUS
 10
215.6080074831
 20
38.1395409198
 11
215.6150635189
 21
37.9074411817
  0
LINE
  5
519
100
AcDbEntity
  8
0
100
AcDbLine
 62
7
  6
CONTINUOUS
 10
216.0712131378
 20
37.48954038
 11
216.064157102
 21
37.7216401181
  0
LINE
  5
51A
100
AcDbEntity
  8
0
100
AcDbLine
 62
7
  6
CONTINUOUS
 10
233.265311564
 20
76.2120153561
 11
233.4507242067
 21
76.3644860669
  0
LINE
  5
51B
100
AcDbEntity
  8
0
100
AcDbLine
 62
7
  6
CONTINUOUS
 10
234.0852304325
 20
76.331155714
 11
233.8998177898
 21
76.1786850032
  0
LINE
  5
51C
100
AcDbEntity
  8
0
100
AcDbLine
 62
7
  6
CONTINUOUS
 10
215.8474049266
 20
37.7979416519
 11
218.0999856504
 21
25.2233701045
  0
LINE
  5
51D
100
AcDbEntity
  8
0
100
AcDbLine
 62
7
  6
CONTINUOUS
 10
218.3237938615
 20
24.9149688326
 11
216.0712131378
 21
37.48954038
  0
LINE
  5
51E
100
AcDbEntity
  8
0
100
AcDbLine
 62
7
  6
CONTINUOUS
 10
249.6464890219
 20
80.2517830387
 11
238.832791168
 21
74.3669730412
  0
LINE
  5
51F
100
AcDbEntity
  8
02___PRT_ALL_AXES
100
AcDbLine
 62
7
  6
CONTINUOUS
 10
252.1169776207
 20
81.1820389825
 11
250.167511533
 21
80.1211403262
  0
LINE
  5
520
100
AcDbEntity
  8
0
100
AcDbLine
 62
7
  6
CONTINUOUS
 10
249.8858864654
 20
79.9101837708
 11
239.0721886116
 21
74.0253737733
  0
LINE
  5
521
100
AcDbEntity
  8
0
100
AcDbLine
 62
7
  6
CONTINUOUS
 10
233.5753400814
 20
70.807065524
 11
232.5991032901
 21
70.2757978571
  0
LINE
  5
522
100
AcDbEntity
  8
0
100
AcDbLine
 62
7
  6
CONTINUOUS
 10
234.8073506512
 20
70.9198574097
 11
234.6537616427
 21
70.8362743334
  0
LINE
  5
523
100
AcDbEntity
  8
02___PRT_ALL_AXES
100
AcDbLine
 62
7
  6
CONTINUOUS
 10
254.3512284779
 20
80.8324974377
 11
254.1582936885
 21
80.7275024033
  0
LINE
  5
524
100
AcDbEntity
  8
02___PRT_ALL_AXES
100
AcDbLine
 62
7
  6
CONTINUOUS
 10
211.9086977237
 20
57.4222053794
 11
209.2803683842
 21
55.9918696161
  0
LINE
  5
525
100
AcDbEntity
  8
02___PRT_ALL_AXES
100
AcDbLine
 62
7
  6
CONTINUOUS
 10
227.0920767428
 20
65.2779849104
 11
212.6447940711
 21
57.415779525
  0
LINE
  5
526
100
AcDbEntity
  8
0
100
AcDbLine
 62
7
  6
CONTINUOUS
 10
238.4729110498
 20
31.096367321
 11
238.4330383205
 21
31.1262378235
  0
LINE
  5
527
100
AcDbEntity
  8
02___PRT_ALL_AXES
100
AcDbLine
 62
7
  6
CONTINUOUS
 10
222.3356362057
 20
22.6404367579
 11
222.2218744234
 21
23.275488659
  0
LINE
  5
528
100
AcDbEntity
  8
02___PRT_ALL_AXES
100
AcDbLine
 62
7
  6
CONTINUOUS
 10
223.3976244339
 20
19.4059041996
 11
222.9658190287
 21
21.8163696298
  0
LINE
  5
529
100
AcDbEntity
  8
0
100
AcDbLine
 62
7
  6
CONTINUOUS
 10
219.5530831502
 20
42.2850595494
 11
219.7564412287
 21
41.1498546352
  0
LINE
  5
52A
100
AcDbEntity
  8
0
100
AcDbLine
 62
7
  6
CONTINUOUS
 10
220.8187738733
 20
35.5253577072
 11
223.071354597
 21
22.9507861598
  0
LINE
  5
52B
100
AcDbEntity
  8
0
100
AcDbLine
 62
7
  6
CONTINUOUS
 10
221.2365279237
 20
35.5683288882
 11
223.4891086475
 21
22.9937573408
  0
LINE
  5
52C
100
AcDbEntity
  8
0
100
AcDbLine
 62
7
  6
CONTINUOUS
 10
220.5306009766
 20
40.2038462934
 11
220.5073105391
 21
40.3338604011
  0
LINE
  5
52D
100
AcDbEntity
  8
02___PRT_ALL_AXES
100
AcDbLine
 62
7
  6
CONTINUOUS
 10
225.0795808533
 20
17.8145674395
 11
225.0003202856
 21
18.2570233612
  0
LINE
  5
52E
100
AcDbEntity
  8
0
100
AcDbLine
 62
7
  6
CONTINUOUS
 10
221.004186516
 20
35.677828418
 11
220.9971304802
 21
35.909928156
  0
LINE
  5
52F
100
AcDbEntity
  8
0
100
AcDbLine
 62
7
  6
CONTINUOUS
 10
238.6544345611
 20
73.9824025923
 11
238.8398472038
 21
74.1348733031
  0
LINE
  5
530
100
AcDbEntity
  8
02___PRT_ALL_AXES
100
AcDbLine
 62
7
  6
CONTINUOUS
 10
224.9718644626
 20
59.5872945867
 11
214.544188286
 21
53.9125574298
  0
LINE
  5
531
100
AcDbEntity
  8
02___PRT_ALL_AXES
100
AcDbLine
 62
7
  6
CONTINUOUS
 10
214.1553088448
 20
53.2939202063
 11
211.5269795053
 21
51.8635844431
  0
LINE
  5
532
100
AcDbEntity
  8
02___PRT_ALL_AXES
100
AcDbLine
 62
7
  6
CONTINUOUS
 10
256.8607409005
 20
76.2211150635
 11
256.6667851357
 21
76.1155644147
  0
LINE
  5
533
100
AcDbEntity
  8
0
100
AcDbLine
 62
7
  6
CONTINUOUS
 10
237.160357469
 20
64.2193762226
 11
236.1841210366
 21
63.6881087511
  0
LINE
  5
534
100
AcDbEntity
  8
02___PRT_ALL_AXES
100
AcDbLine
 62
7
  6
CONTINUOUS
 10
255.9409965503
 20
74.1551706027
 11
253.9972133785
 21
73.097364587
  0
LINE
  5
535
100
AcDbEntity
  8
02___PRT_ALL_AXES
100
AcDbLine
 62
7
  6
CONTINUOUS
 10
253.3144329628
 20
72.1850143211
 11
251.5142897217
 21
71.2053770975
  0
LINE
  5
536
100
AcDbEntity
  8
0
100
AcDbLine
 62
7
  6
CONTINUOUS
 10
235.9410601533
 20
44.0424086387
 11
231.1934994177
 21
46.0065913115
  0
LINE
  5
537
100
AcDbEntity
  8
0
100
AcDbLine
 62
7
  6
CONTINUOUS
 10
226.7657402146
 20
47.8384642228
 11
230.5519371562
 21
46.2720214024
  0
LINE
  5
538
100
AcDbEntity
  8
0
100
AcDbLine
 62
7
  6
CONTINUOUS
 10
230.5519371562
 20
46.2720214024
 11
230.7842785639
 21
46.1625218726
  0
LINE
  5
539
100
AcDbEntity
  8
0
100
AcDbLine
 62
7
  6
CONTINUOUS
 10
235.9410601533
 20
44.0424086387
 11
236.173401561
 21
43.9329091089
  0
LINE
  5
53A
100
AcDbEntity
  8
0
100
AcDbLine
 62
7
  6
CONTINUOUS
 10
230.8241512932
 20
46.1326513701
 11
230.7842785639
 21
46.1625218726
  0
LINE
  5
53B
100
AcDbEntity
  8
02___PRT_ALL_AXES
100
AcDbLine
 62
7
  6
CONTINUOUS
 10
230.2473183699
 20
18.7403044215
 11
230.1682253579
 21
19.1818249971
  0
LINE
  5
53C
100
AcDbEntity
  8
0
100
AcDbLine
 62
7
  6
CONTINUOUS
 10
226.9355653167
 20
43.6075409523
 11
227.1389232023
 21
42.4723371148
  0
LINE
  5
53D
100
AcDbEntity
  8
0
100
AcDbLine
 62
7
  6
CONTINUOUS
 10
236.173401561
 20
43.9329091089
 11
236.2132742903
 21
43.9030386064
  0
LINE
  5
53E
100
AcDbEntity
  8
02___PRT_ALL_AXES
100
AcDbLine
 62
7
  6
CONTINUOUS
 10
231.2722720782
 20
20.8165510294
 11
230.839762606
 21
23.2309467695
  0
LINE
  5
53F
100
AcDbEntity
  8
02___PRT_ALL_AXES
100
AcDbLine
 62
7
  6
CONTINUOUS
 10
231.1453982578
 20
24.2185978988
 11
230.6820712508
 21
26.8050262284
  0
LINE
  5
540
100
AcDbEntity
  8
0
100
AcDbLine
 62
7
  6
CONTINUOUS
 10
228.5106947927
 20
78.4082977669
 11
228.5177508285
 21
78.1761980289
  0
LINE
  5
541
100
AcDbEntity
  8
0
100
AcDbLine
 62
7
  6
CONTINUOUS
 10
230.7842785639
 20
46.1625218726
 11
230.7913345997
 21
45.9304221346
  0
LINE
  5
542
100
AcDbEntity
  8
02___PRT_ALL_AXES
100
AcDbLine
 62
7
  6
CONTINUOUS
 10
230.4061719869
 20
17.0783174706
 11
230.4533871193
 21
18.6492525732
  0
LINE
  5
543
100
AcDbEntity
  8
02___PRT_ALL_AXES
100
AcDbLine
 62
7
  6
CONTINUOUS
 10
258.2358879989
 20
77.1299058962
 11
257.0927693524
 21
76.1401691439
  0
LINE
  5
544
100
AcDbEntity
  8
0
100
AcDbLine
 62
7
  6
CONTINUOUS
 10
210.8604467476
 20
40.1037235926
 11
210.6750341049
 21
39.9512528818
  0
LINE
  5
545
100
AcDbEntity
  8
0
100
AcDbLine
 62
7
  6
CONTINUOUS
 10
236.6105943886
 20
58.7251565351
 11
236.7960070313
 21
58.8776272459
  0
LINE
  5
546
100
AcDbEntity
  8
0
100
AcDbLine
 62
7
  6
CONTINUOUS
 10
236.7960070313
 20
58.8776272459
 11
236.9495960398
 21
58.9612103222
  0
LINE
  5
547
100
AcDbEntity
  8
0
100
AcDbLine
 62
7
  6
CONTINUOUS
 10
236.6504671179
 20
58.6952860326
 11
236.9664308609
 21
58.8672333738
  0
LINE
  5
548
100
AcDbEntity
  8
02___PRT_ALL_AXES
100
AcDbLine
 62
7
  6
CONTINUOUS
 10
238.9637576414
 20
57.7382208329
 11
232.6192641546
 21
54.285550044
  0
LINE
  5
549
100
AcDbEntity
  8
02___PRT_ALL_AXES
100
AcDbLine
 62
7
  6
CONTINUOUS
 10
231.281589603
 20
51.4012716776
 11
230.3192462107
 21
51.799416814
  0
LINE
  5
54A
100
AcDbEntity
  8
0
100
AcDbLine
 62
7
  6
CONTINUOUS
 10
230.8146250372
 20
45.8004080269
 11
230.7913345997
 21
45.9304221346
  0
LINE
  5
54B
100
AcDbEntity
  8
0
100
AcDbLine
 62
7
  6
CONTINUOUS
 10
230.8775356747
 20
45.8346439703
 11
230.8241512932
 21
46.1326513701
  0
LINE
  5
54C
100
AcDbEntity
  8
02___PRT_ALL_AXES
100
AcDbLine
 62
7
  6
CONTINUOUS
 10
231.281589603
 20
51.4012716776
 11
232.3323878614
 21
45.5354051441
  0
LINE
  5
54D
100
AcDbEntity
  8
0
100
AcDbLine
 62
7
  6
CONTINUOUS
 10
233.4436681709
 20
76.5965858049
 11
233.4507242067
 21
76.3644860669
  0
LINE
  5
54E
100
AcDbEntity
  8
0
100
AcDbLine
 62
7
  6
CONTINUOUS
 10
233.9068738256
 20
75.9465852651
 11
233.8998177898
 21
76.1786850032
  0
LINE
  5
54F
100
AcDbEntity
  8
0
100
AcDbLine
 62
7
  6
CONTINUOUS
 10
215.4296508762
 20
37.7549704709
 11
215.6150635189
 21
37.9074411817
  0
LINE
  5
550
100
AcDbEntity
  8
0
100
AcDbLine
 62
7
  6
CONTINUOUS
 10
216.2495697447
 20
37.8741108288
 11
216.064157102
 21
37.7216401181
  0
LINE
  5
551
100
AcDbEntity
  8
02___PRT_ALL_AXES
100
AcDbLine
 62
7
  6
CONTINUOUS
 10
204.0359528159
 20
37.4960591811
 11
219.2304773952
 21
45.7649133104
  0
LINE
  5
552
100
AcDbEntity
  8
02___PRT_ALL_AXES
100
AcDbLine
 62
7
  6
CONTINUOUS
 10
227.0580825877
 20
50.0246928896
 11
230.3192462107
 21
51.799416814
  0
LINE
  5
553
100
AcDbEntity
  8
02___PRT_ALL_AXES
100
AcDbLine
 62
7
  6
CONTINUOUS
 10
204.9982962082
 20
37.0979140448
 11
219.2579810488
 21
44.8580287664
  0
LINE
  5
554
100
AcDbEntity
  8
02___PRT_ALL_AXES
100
AcDbLine
 62
7
  6
CONTINUOUS
 10
226.8804918471
 20
49.0061960592
 11
231.281589603
 21
51.4012716776
  0
LINE
  5
555
100
AcDbEntity
  8
0
100
AcDbLine
 62
7
  6
CONTINUOUS
 10
210.8604467476
 20
40.1037235926
 11
219.2778847717
 21
44.6844899601
  0
LINE
  5
556
100
AcDbEntity
  8
0
100
AcDbLine
 62
7
  6
CONTINUOUS
 10
242.1851300284
 20
56.6480144822
 11
252.9988278822
 21
62.5328244797
  0
LINE
  5
557
100
AcDbEntity
  8
0
100
AcDbLine
 62
7
  6
CONTINUOUS
 10
242.039590115
 20
56.4656732689
 11
252.8532879689
 21
62.3504832664
  0
LINE
  5
558
100
AcDbEntity
  8
02___PRT_ALL_AXES
100
AcDbLine
 62
7
  6
CONTINUOUS
 10
232.6192641546
 20
54.285550044
 11
231.6569207623
 21
54.6836951803
  0
LINE
  5
559
100
AcDbEntity
  8
02___PRT_ALL_AXES
100
AcDbLine
 62
7
  6
CONTINUOUS
 10
231.6569207623
 20
54.6836951803
 11
230.900579787
 21
58.9058141072
  0
LINE
  5
55A
100
AcDbEntity
  8
02___PRT_ALL_AXES
100
AcDbLine
 62
7
  6
CONTINUOUS
 10
229.2756059669
 20
67.9768983746
 11
226.1818981699
 21
85.2468899135
  0
LINE
  5
55B
100
AcDbEntity
  8
02___PRT_ALL_AXES
100
AcDbLine
 62
7
  6
CONTINUOUS
 10
232.6192641546
 20
54.285550044
 11
231.6289023466
 21
59.8140424444
  0
LINE
  5
55C
100
AcDbEntity
  8
02___PRT_ALL_AXES
100
AcDbLine
 62
7
  6
CONTINUOUS
 10
230.0512231634
 20
68.6211140663
 11
227.1442415623
 21
84.8487447772
  0
LINE
  5
55D
100
AcDbEntity
  8
0
100
AcDbLine
 62
7
  6
CONTINUOUS
 10
230.2063466028
 20
68.7499572046
 11
228.5177508285
 21
78.1761980289
  0
LINE
  5
55E
100
AcDbEntity
  8
0
100
AcDbLine
 62
7
  6
CONTINUOUS
 10
238.4330383205
 20
31.1262378235
 11
236.1804575968
 21
43.7008093708
  0
LINE
  5
55F
100
AcDbEntity
  8
0
100
AcDbLine
 62
7
  6
CONTINUOUS
 10
238.465855014
 20
31.328467059
 11
236.2132742903
 21
43.9030386064
  0
LINE
  5
560
100
AcDbEntity
  8
0
100
AcDbLine
 62
7
  6
CONTINUOUS
 10
236.1804575968
 20
43.7008093708
 11
236.173401561
 21
43.9329091089
  0
LINE
  5
561
100
AcDbEntity
  8
0
100
AcDbLine
 62
7
  6
CONTINUOUS
 10
238.465855014
 20
31.328467059
 11
238.4729110498
 21
31.096367321
  0
LINE
  5
562
100
AcDbEntity
  8
0
100
AcDbLine
 62
7
  6
CONTINUOUS
 10
241.9997173857
 20
56.4955437714
 11
242.1851300284
 21
56.6480144822
  0
LINE
  5
563
100
AcDbEntity
  8
0
100
AcDbLine
 62
7
  6
CONTINUOUS
 10
230.5519371562
 20
46.2720214024
 11
226.8580064724
 21
44.2617858187
  0
LINE
  5
564
100
AcDbEntity
  8
0
100
AcDbLine
 62
7
  6
CONTINUOUS
 10
220.0618863006
 20
40.5633399705
 11
215.6080074831
 21
38.1395409198
  0
LINE
  5
565
100
AcDbEntity
  8
0
100
AcDbLine
 62
7
  6
CONTINUOUS
 10
230.7913345997
 20
45.9304221346
 11
226.9105562407
 21
43.8185041215
  0
LINE
  5
566
100
AcDbEntity
  8
0
100
AcDbLine
 62
7
  6
CONTINUOUS
 10
220.5073105391
 20
40.3338604011
 11
215.8474049266
 21
37.7979416519
  0
LINE
  5
567
100
AcDbEntity
  8
0
100
AcDbLine
 62
7
  6
CONTINUOUS
 10
216.2495697447
 20
37.8741108288
 11
220.7034485622
 21
40.2979098795
  0
LINE
  5
568
100
AcDbEntity
  8
0
100
AcDbLine
 62
7
  6
CONTINUOUS
 10
226.9264464517
 20
43.6844628136
 11
231.1934994177
 21
46.0065913115
  0
LINE
  5
569
100
AcDbEntity
  8
0
100
AcDbLine
 62
7
  6
CONTINUOUS
 10
233.265311564
 20
76.2120153561
 11
234.1930905445
 21
71.0328788007
  0
LINE
  5
56A
100
AcDbEntity
  8
0
100
AcDbLine
 62
7
  6
CONTINUOUS
 10
235.5773433672
 20
63.3055703074
 11
236.3782529809
 21
58.8346560649
  0
LINE
  5
56B
100
AcDbEntity
  8
0
100
AcDbLine
 62
7
  6
CONTINUOUS
 10
233.6830656145
 20
76.2549865371
 11
234.6537616427
 21
70.8362743334
  0
LINE
  5
56C
100
AcDbEntity
  8
0
100
AcDbLine
 62
7
  6
CONTINUOUS
 10
235.9596221199
 20
63.546575088
 11
236.7960070313
 21
58.8776272459
  0
LINE
  5
56D
100
AcDbEntity
  8
0
100
AcDbLine
 62
7
  6
CONTINUOUS
 10
237.0198152424
 20
58.569225974
 11
236.1110790628
 21
63.642059985
  0
LINE
  5
56E
100
AcDbEntity
  8
0
100
AcDbLine
 62
7
  6
CONTINUOUS
 10
234.8346528061
 20
70.7674487098
 11
233.9068738256
 21
75.9465852651
  0
LINE
  5
56F
100
AcDbEntity
  8
0
100
AcDbLine
 62
7
  6
CONTINUOUS
 10
238.8398472038
 20
74.1348733031
 11
238.832791168
 21
74.3669730412
  0
LINE
  5
570
100
AcDbEntity
  8
0
100
AcDbLine
 62
7
  6
CONTINUOUS
 10
253.0387006115
 20
62.5029539772
 11
252.8532879689
 21
62.3504832664
  0
LINE
  5
571
100
AcDbEntity
  8
0
100
AcDbLine
 62
7
  6
CONTINUOUS
 10
220.8187738733
 20
35.5253577072
 11
221.004186516
 21
35.677828418
  0
LINE
  5
572
100
AcDbEntity
  8
0
100
AcDbLine
 62
7
  6
CONTINUOUS
 10
242.039590115
 20
56.4656732689
 11
237.2920293794
 21
58.4298559417
  0
LINE
  5
573
100
AcDbEntity
  8
0
100
AcDbLine
 62
7
  6
CONTINUOUS
 10
232.2372337419
 20
60.5211492519
 11
236.6504671179
 21
58.6952860326
  0
LINE
  5
574
100
AcDbEntity
  8
0
100
AcDbLine
 62
7
  6
CONTINUOUS
 10
241.7673759779
 20
56.6050433012
 11
237.0198152424
 21
58.569225974
  0
LINE
  5
575
100
AcDbEntity
  8
0
100
AcDbLine
 62
7
  6
CONTINUOUS
 10
232.2559855371
 20
60.5401395198
 11
236.3782529809
 21
58.8346560649
  0
LINE
  5
576
100
AcDbEntity
  8
0
100
AcDbLine
 62
7
  6
CONTINUOUS
 10
236.3782529809
 20
58.8346560649
 11
236.6105943886
 21
58.7251565351
  0
LINE
  5
577
100
AcDbEntity
  8
0
100
AcDbLine
 62
7
  6
CONTINUOUS
 10
237.0596879717
 20
58.5393554715
 11
237.2920293794
 21
58.4298559417
  0
LINE
  5
578
100
AcDbEntity
  8
0
100
AcDbLine
 62
7
  6
CONTINUOUS
 10
241.7673759779
 20
56.6050433012
 11
241.9997173857
 21
56.4955437714
  0
LINE
  5
579
100
AcDbEntity
  8
0
100
AcDbLine
 62
7
  6
CONTINUOUS
 10
236.6504671179
 20
58.6952860326
 11
236.6105943886
 21
58.7251565351
  0
LINE
  5
57A
100
AcDbEntity
  8
0
100
AcDbLine
 62
7
  6
CONTINUOUS
 10
237.0198152424
 20
58.569225974
 11
237.0596879717
 21
58.5393554715
  0
LINE
  5
57B
100
AcDbEntity
  8
0
100
AcDbLine
 62
7
  6
CONTINUOUS
 10
242.039590115
 20
56.4656732689
 11
241.9997173857
 21
56.4955437714
  0
LINE
  5
57C
100
AcDbEntity
  8
0
100
AcDbLine
 62
7
  6
CONTINUOUS
 10
235.9410601533
 20
44.0424086387
 11
220.9971304802
 21
35.909928156
  0
LINE
  5
57D
100
AcDbEntity
  8
0
100
AcDbLine
 62
7
  6
CONTINUOUS
 10
236.1804575968
 20
43.7008093708
 11
221.2365279237
 21
35.5683288882
  0
LINE
  5
57E
100
AcDbEntity
  8
0
100
AcDbLine
 62
7
  6
CONTINUOUS
 10
238.6544345611
 20
73.9824025923
 11
241.7673759779
 21
56.6050433012
  0
LINE
  5
57F
100
AcDbEntity
  8
0
100
AcDbLine
 62
7
  6
CONTINUOUS
 10
239.0721886116
 20
74.0253737733
 11
242.1851300284
 21
56.6480144822
  0
LINE
  5
580
100
AcDbEntity
  8
0
100
AcDbLine
 62
7
  6
CONTINUOUS
 10
244.4897074326
 20
82.3718962726
 11
244.4967634683
 21
82.1397965346
  0
LINE
  5
581
100
AcDbEntity
  8
0
100
AcDbLine
 62
7
  6
CONTINUOUS
 10
218.0999856504
 20
25.2233701045
 11
217.9145730077
 21
25.0708993937
  0
LINE
  5
582
100
AcDbEntity
  8
02___PRT_ALL_AXES
100
AcDbLine
 62
7
  6
CONTINUOUS
 10
213.0253263574
 20
27.0907778277
 11
207.3447344621
 21
23.9994020162
  0
LINE
  5
583
100
AcDbEntity
  8
02___PRT_ALL_AXES
100
AcDbLine
 62
7
  6
CONTINUOUS
 10
238.40851016
 20
90.9787551912
 11
239.5843755559
 21
84.4147269214
  0
LINE
  5
584
100
AcDbEntity
  8
0
100
AcDbLine
 62
7
  6
CONTINUOUS
 10
223.4891086475
 20
22.9937573408
 11
223.3036960048
 21
22.84128663
  0
LINE
  5
585
100
AcDbEntity
  8
0
100
AcDbLine
 62
7
  6
CONTINUOUS
 10
218.0999856504
 20
25.2233701045
 11
218.2535746589
 21
25.3069531809
  0
LINE
  5
586
100
AcDbEntity
  8
0
100
AcDbLine
 62
7
  6
CONTINUOUS
 10
217.954445737
 20
25.0410288912
 11
218.27040948
 21
25.2129762324
  0
LINE
  5
587
100
AcDbEntity
  8
0
100
AcDbLine
 62
7
  6
CONTINUOUS
 10
244.5200539059
 20
82.0097824269
 11
244.4967634683
 21
82.1397965346
  0
LINE
  5
588
100
AcDbEntity
  8
0
100
AcDbLine
 62
7
  6
CONTINUOUS
 10
244.5829645433
 20
82.0440183703
 11
244.5295801618
 21
82.3420257701
  0
LINE
  5
589
100
AcDbEntity
  8
0
100
AcDbLine
 62
7
  6
CONTINUOUS
 10
249.8858864654
 20
79.9101837708
 11
249.8788304296
 21
80.1422835089
  0
LINE
  5
58A
100
AcDbEntity
  8
0
100
AcDbLine
 62
7
  6
CONTINUOUS
 10
253.0316445757
 20
62.7350537152
 11
253.0387006115
 21
62.5029539772
  0
LINE
  5
58B
100
AcDbEntity
  8
0
100
AcDbLine
 62
7
  6
CONTINUOUS
 10
238.2874984071
 20
30.9438966102
 11
238.4729110498
 21
31.096367321
  0
LINE
  5
58C
100
AcDbEntity
  8
0
100
AcDbLine
 62
7
  6
CONTINUOUS
 10
238.6544345611
 20
73.9824025923
 11
233.9068738256
 21
75.9465852651
  0
LINE
  5
58D
100
AcDbEntity
  8
0
100
AcDbLine
 62
7
  6
CONTINUOUS
 10
228.5177508285
 20
78.1761980289
 11
233.265311564
 21
76.2120153561
  0
LINE
  5
58E
100
AcDbEntity
  8
0
100
AcDbLine
 62
7
  6
CONTINUOUS
 10
238.832791168
 20
74.3669730412
 11
234.0852304325
 21
76.331155714
  0
LINE
  5
58F
100
AcDbEntity
  8
0
100
AcDbLine
 62
7
  6
CONTINUOUS
 10
228.6961074354
 20
78.5607684777
 11
233.4436681709
 21
76.5965858049
  0
LINE
  5
590
100
AcDbEntity
  8
0
100
AcDbLine
 62
7
  6
CONTINUOUS
 10
233.4507242067
 20
76.3644860669
 11
233.6830656145
 21
76.2549865371
  0
LINE
  5
591
100
AcDbEntity
  8
0
100
AcDbLine
 62
7
  6
CONTINUOUS
 10
239.0721886116
 20
74.0253737733
 11
238.8398472038
 21
74.1348733031
  0
LINE
  5
592
100
AcDbEntity
  8
0
100
AcDbLine
 62
7
  6
CONTINUOUS
 10
252.9988278822
 20
62.5328244797
 11
253.0387006115
 21
62.5029539772
  0
LINE
  5
593
100
AcDbEntity
  8
0
100
AcDbLine
 62
7
  6
CONTINUOUS
 10
223.4891086475
 20
22.9937573408
 11
238.4330383205
 21
31.1262378235
  0
LINE
  5
594
100
AcDbEntity
  8
0
100
AcDbLine
 62
7
  6
CONTINUOUS
 10
223.3435687341
 20
22.8114161275
 11
238.2874984071
 21
30.9438966102
  0
LINE
  5
595
100
AcDbEntity
  8
0
100
AcDbLine
 62
7
  6
CONTINUOUS
 10
252.9988278822
 20
62.5328244797
 11
249.8858864654
 21
79.9101837708
  0
LINE
  5
596
100
AcDbEntity
  8
0
100
AcDbLine
 62
7
  6
CONTINUOUS
 10
253.0316445757
 20
62.7350537152
 11
249.9187031589
 21
80.1124130064
  0
LINE
  5
597
100
AcDbEntity
  8
02___PRT_ALL_AXES
100
AcDbLine
 62
7
  6
CONTINUOUS
 10
227.1442415623
 20
84.8487447772
 11
226.1818981699
 21
85.2468899135
  0
LINE
  5
598
100
AcDbEntity
  8
0
100
AcDbLine
 62
7
  6
CONTINUOUS
 10
244.5295801618
 20
82.3420257701
 11
244.4897074326
 21
82.3718962726
  0
LINE
  5
599
100
AcDbEntity
  8
0
100
AcDbLine
 62
7
  6
CONTINUOUS
 10
249.6464890219
 20
80.2517830387
 11
244.8989282864
 21
82.2159657115
  0
LINE
  5
59A
100
AcDbEntity
  8
0
100
AcDbLine
 62
7
  6
CONTINUOUS
 10
239.5098052893
 20
84.4455784752
 11
244.2573660248
 21
82.4813958024
  0
LINE
  5
59B
100
AcDbEntity
  8
0
100
AcDbLine
 62
7
  6
CONTINUOUS
 10
250.7120227123
 20
79.9134026666
 11
250.4753516283
 21
80.0233915762
  0
LINE
  5
59C
100
AcDbEntity
  8
0
100
AcDbLine
 62
7
  6
CONTINUOUS
 10
253.614819597
 20
81.0632273238
 11
253.4032702178
 21
81.1615413335
  0
LINE
  5
59D
100
AcDbEntity
  8
0
100
AcDbLine
 62
7
  6
CONTINUOUS
 10
244.2573660248
 20
82.4813958024
 11
244.4897074326
 21
82.3718962726
  0
LINE
  5
59E
100
AcDbEntity
  8
0
100
AcDbLine
 62
7
  6
CONTINUOUS
 10
249.6464890219
 20
80.2517830387
 11
249.8788304296
 21
80.1422835089
  0
LINE
  5
59F
100
AcDbEntity
  8
0
100
AcDbLine
 62
7
  6
CONTINUOUS
 10
249.8788304296
 20
80.1422835089
 11
249.9187031589
 21
80.1124130064
  0
LINE
  5
5A0
100
AcDbEntity
  8
02___PRT_ALL_AXES
100
AcDbLine
 62
7
  6
CONTINUOUS
 10
238.40851016
 20
90.9787551912
 11
237.4461667677
 21
91.3769003276
  0
ARC
  5
5A1
100
AcDbEntity
  8
0
100
AcDbCircle
 62
7
  6
CONTINUOUS
 10
85.7731423953
 20
211.9127225992
 40
45.0
100
AcDbArc
 50
136.3293937819
 51
180.0
  0
ARC
  5
5A2
100
AcDbEntity
  8
0
100
AcDbCircle
 62
7
  6
CONTINUOUS
 10
85.7731423953
 20
211.9127225992
 40
45.0
100
AcDbArc
 50
90.0
 51
107.6706062181
  0
ARC
  5
5A3
100
AcDbEntity
  8
0
100
AcDbCircle
 62
7
  6
CONTINUOUS
 10
85.7731423953
 20
211.9127225992
 40
30.0
100
AcDbArc
 50
90.0
 51
180.0
  0
CIRCLE
  5
5A4
100
AcDbEntity
  8
0
100
AcDbCircle
 62
7
  6
CONTINUOUS
 10
102.7731423953
 20
236.5627225992
 40
6.45
  0
CIRCLE
  5
5A5
100
AcDbEntity
  8
0
100
AcDbCircle
 62
7
  6
CONTINUOUS
 10
102.7731423953
 20
262.2627225992
 40
6.45
  0
CIRCLE
  5
5A6
100
AcDbEntity
  8
0
100
AcDbCircle
 62
7
  6
CONTINUOUS
 10
61.1231423953
 20
194.9127225992
 40
6.45
  0
CIRCLE
  5
5A7
100
AcDbEntity
  8
0
100
AcDbCircle
 62
7
  6
CONTINUOUS
 10
35.4231423953
 20
194.9127225992
 40
6.45
  0
CIRCLE
  5
5A8
100
AcDbEntity
  8
02___PRT_ALL_AXES
100
AcDbCircle
 62
7
  6
CONTINUOUS
 10
20.2731423953
 20
194.9127225992
 40
3.5
  0
CIRCLE
  5
5A9
100
AcDbEntity
  8
02___PRT_ALL_AXES
100
AcDbCircle
 62
7
  6
CONTINUOUS
 10
76.2731423953
 20
194.9127225992
 40
3.5
  0
CIRCLE
  5
5AA
100
AcDbEntity
  8
02___PRT_ALL_AXES
100
AcDbCircle
 62
7
  6
CONTINUOUS
 10
102.7731423953
 20
277.4127225992
 40
3.5
  0
CIRCLE
  5
5AB
100
AcDbEntity
  8
02___PRT_ALL_AXES
100
AcDbCircle
 62
7
  6
CONTINUOUS
 10
102.7731423953
 20
221.4127225992
 40
3.5
  0
CIRCLE
  5
5AC
100
AcDbEntity
  8
0
100
AcDbCircle
 62
7
  6
CONTINUOUS
 10
102.7731423953
 20
236.5627225992
 40
3.3
  0
CIRCLE
  5
5AD
100
AcDbEntity
  8
0
100
AcDbCircle
 62
7
  6
CONTINUOUS
 10
102.7731423953
 20
262.2627225992
 40
3.3
  0
CIRCLE
  5
5AE
100
AcDbEntity
  8
0
100
AcDbCircle
 62
7
  6
CONTINUOUS
 10
61.1231423953
 20
194.9127225992
 40
3.3
  0
CIRCLE
  5
5AF
100
AcDbEntity
  8
0
100
AcDbCircle
 62
7
  6
CONTINUOUS
 10
35.4231423953
 20
194.9127225992
 40
3.3
  0
ARC
  5
5B0
100
AcDbEntity
  8
0
100
AcDbCircle
 62
7
  6
CONTINUOUS
 10
181.5095568174
 20
239.9658033166
 40
23.325887926
100
AcDbArc
 50
46.5579949201
 51
48.5552517071
  0
ARC
  5
5B1
100
AcDbEntity
  8
0
100
AcDbCircle
 62
7
  6
CONTINUOUS
 10
214.0882229948
 20
240.293876562
 40
22.8813797199
100
AcDbArc
 50
131.4253462815
 51
133.4614070912
  0
ARC
  5
5B2
100
AcDbEntity
  8
0
100
AcDbCircle
 62
7
  6
CONTINUOUS
 10
197.9489038166
 20
249.4127225992
 40
8.95
100
AcDbArc
 50
87.4297518956
 51
92.5702479643
  0
ARC
  5
5B3
100
AcDbEntity
  8
0
100
AcDbCircle
 62
7
  6
CONTINUOUS
 10
197.9489038166
 20
249.4127225992
 40
8.75
100
AcDbArc
 50
87.3595427621
 51
92.6404574027
  0
ARC
  5
5B4
100
AcDbEntity
  8
0
100
AcDbCircle
 62
7
  6
CONTINUOUS
 10
197.9489038166
 20
249.4127225991
 40
8.1
100
AcDbArc
 50
338.2104174681
 51
82.9083539158
  0
ARC
  5
5B5
100
AcDbEntity
  8
0
100
AcDbCircle
 62
7
  6
CONTINUOUS
 10
197.9489038166
 20
249.4127225991
 40
8.1
100
AcDbArc
 50
97.0916460845
 51
201.7895825328
  0
ARC
  5
5B6
100
AcDbEntity
  8
0
100
AcDbCircle
 62
7
  6
CONTINUOUS
 10
197.9489038166
 20
249.4127225992
 40
7.7
100
AcDbArc
 50
87.00057178
 51
92.9994281945
  0
ARC
  5
5B7
100
AcDbEntity
  8
0
100
AcDbCircle
 62
7
  6
CONTINUOUS
 10
197.9489038166
 20
249.4127225992
 40
7.5
100
AcDbArc
 50
0.0
 51
180.0
  0
CIRCLE
  5
5B8
100
AcDbEntity
  8
02___PRT_ALL_AXES
100
AcDbCircle
 62
7
  6
CONTINUOUS
 10
197.9489038166
 20
249.4127225992
 40
4.7
  0
CIRCLE
  5
5B9
100
AcDbEntity
  8
0
100
AcDbCircle
 62
7
  6
CONTINUOUS
 10
197.9489038166
 20
249.4127225992
 40
3.25
  0
CIRCLE
  5
5BA
100
AcDbEntity
  8
0
100
AcDbCircle
 62
7
  6
CONTINUOUS
 10
197.9489038166
 20
249.4127225992
 40
2.375
  0
ARC
  5
5BB
100
AcDbEntity
  8
0
100
AcDbCircle
 62
7
  6
CONTINUOUS
 10
48.2731423952
 20
102.703125
 40
8.1
100
AcDbArc
 50
68.2104173164
 51
150.4297993455
  0
ARC
  5
5BC
100
AcDbEntity
  8
0
100
AcDbCircle
 62
7
  6
CONTINUOUS
 10
48.2731423954
 20
102.703125
 40
8.1
100
AcDbArc
 50
209.5702006451
 51
291.7895825328
  0
ARC
  5
5BD
100
AcDbEntity
  8
0
100
AcDbCircle
 62
7
  6
CONTINUOUS
 10
48.2731423953
 20
102.703125
 40
7.5
100
AcDbArc
 50
90.0
 51
147.741663802
  0
ARC
  5
5BE
100
AcDbEntity
  8
0
100
AcDbCircle
 62
7
  6
CONTINUOUS
 10
48.2731423953
 20
102.703125
 40
7.5
100
AcDbArc
 50
212.258336198
 51
270.0
  0
ARC
  5
5BF
100
AcDbEntity
  8
0
100
AcDbCircle
 62
7
  6
CONTINUOUS
 10
320.1868083217
 20
195.6105731702
 40
45.0
100
AcDbArc
 50
136.3293937819
 51
180.0
  0
ARC
  5
5C0
100
AcDbEntity
  8
0
100
AcDbCircle
 62
7
  6
CONTINUOUS
 10
320.1868083217
 20
195.6105731702
 40
45.0
100
AcDbArc
 50
90.0
 51
107.6706062181
  0
ARC
  5
5C1
100
AcDbEntity
  8
0
100
AcDbCircle
 62
7
  6
CONTINUOUS
 10
320.1868083217
 20
195.6105731702
 40
30.0
100
AcDbArc
 50
90.0
 51
180.0
  0
CIRCLE
  5
5C2
100
AcDbEntity
  8
0
100
AcDbCircle
 62
7
  6
CONTINUOUS
 10
337.1868083217
 20
220.2605731702
 40
6.45
  0
CIRCLE
  5
5C3
100
AcDbEntity
  8
0
100
AcDbCircle
 62
7
  6
CONTINUOUS
 10
337.1868083217
 20
245.9605731702
 40
6.45
  0
CIRCLE
  5
5C4
100
AcDbEntity
  8
0
100
AcDbCircle
 62
7
  6
CONTINUOUS
 10
295.5368083217
 20
178.6105731702
 40
6.45
  0
CIRCLE
  5
5C5
100
AcDbEntity
  8
0
100
AcDbCircle
 62
7
  6
CONTINUOUS
 10
269.8368083217
 20
178.6105731702
 40
6.45
  0
CIRCLE
  5
5C6
100
AcDbEntity
  8
02___PRT_ALL_AXES
100
AcDbCircle
 62
7
  6
CONTINUOUS
 10
254.6868083217
 20
178.6105731702
 40
3.5
  0
CIRCLE
  5
5C7
100
AcDbEntity
  8
02___PRT_ALL_AXES
100
AcDbCircle
 62
7
  6
CONTINUOUS
 10
310.6868083217
 20
178.6105731702
 40
3.5
  0
CIRCLE
  5
5C8
100
AcDbEntity
  8
02___PRT_ALL_AXES
100
AcDbCircle
 62
7
  6
CONTINUOUS
 10
337.1868083217
 20
261.1105731702
 40
3.5
  0
CIRCLE
  5
5C9
100
AcDbEntity
  8
02___PRT_ALL_AXES
100
AcDbCircle
 62
7
  6
CONTINUOUS
 10
337.1868083217
 20
205.1105731702
 40
3.5
  0
CIRCLE
  5
5CA
100
AcDbEntity
  8
0
100
AcDbCircle
 62
7
  6
CONTINUOUS
 10
337.1868083217
 20
220.2605731702
 40
3.3
  0
CIRCLE
  5
5CB
100
AcDbEntity
  8
0
100
AcDbCircle
 62
7
  6
CONTINUOUS
 10
337.1868083217
 20
245.9605731702
 40
3.3
  0
CIRCLE
  5
5CC
100
AcDbEntity
  8
0
100
AcDbCircle
 62
7
  6
CONTINUOUS
 10
295.5368083217
 20
178.6105731702
 40
3.3
  0
CIRCLE
  5
5CD
100
AcDbEntity
  8
0
100
AcDbCircle
 62
7
  6
CONTINUOUS
 10
269.8368083217
 20
178.6105731702
 40
3.3
  0
ARC
  5
5CE
100
AcDbEntity
  8
0
100
AcDbCircle
 62
7
  6
CONTINUOUS
 10
228.8912899096
 20
57.1480004203
 40
18.788542528
100
AcDbArc
 50
241.9698885532
 51
242.9948689241
  0
ARC
  5
5CF
100
AcDbEntity
  8
0
100
AcDbCircle
 62
7
  6
CONTINUOUS
 10
228.3282681424
 20
56.0486195317
 40
17.5533803962
100
AcDbArc
 50
243.0028234247
 51
243.3291980719
  0
ARC
  5
5D0
100
AcDbEntity
  8
0
100
AcDbCircle
 62
7
  6
CONTINUOUS
 10
227.5810422803
 20
54.9019374907
 40
17.4334864498
100
AcDbArc
 50
66.065165548
 51
67.7113507965
  0
ARC
  5
5D1
100
AcDbEntity
  8
0
100
AcDbCircle
 62
7
  6
CONTINUOUS
 10
228.1260220603
 20
55.6463180415
 40
17.1031027662
100
AcDbArc
 50
243.3296959626
 51
243.5473639004
  0
ARC
  5
5D2
100
AcDbEntity
  8
0
100
AcDbCircle
 62
7
  6
CONTINUOUS
 10
249.0979771551
 20
76.7801999772
 40
3.5244908528
100
AcDbArc
 50
61.1919725575
 51
62.7449802083
  0
ARC
  5
5D3
100
AcDbEntity
  8
0
100
AcDbCircle
 62
7
  6
CONTINUOUS
 10
250.6445606845
 20
74.0068537343
 40
3.4850871382
100
AcDbArc
 50
354.3594900067
 51
355.8863457037
  0
ARC
  5
5D4
100
AcDbEntity
  8
0
100
AcDbCircle
 62
7
  6
CONTINUOUS
 10
224.6548871435
 20
24.682978823
 40
3.3355004059
100
AcDbArc
 50
247.5290768148
 51
249.1848006776
  0
ARC
  5
5D5
100
AcDbEntity
  8
0
100
AcDbCircle
 62
7
  6
CONTINUOUS
 10
252.166536652
 20
78.2521228058
 40
3.1622426958
100
AcDbArc
 50
61.0107434203
 51
62.7423420402
  0
ARC
  5
5D6
100
AcDbEntity
  8
0
100
AcDbCircle
 62
7
  6
CONTINUOUS
 10
253.5459861456
 20
75.7844245241
 40
3.1237308165
100
AcDbArc
 50
354.3603766375
 51
356.0662472021
  0
ARC
  5
5D7
100
AcDbEntity
  8
0
100
AcDbCircle
 62
7
  6
CONTINUOUS
 10
224.5485882294
 20
24.4292021075
 40
3.060363296
100
AcDbArc
 50
245.1456407123
 51
247.5521211199
  0
ARC
  5
5D8
100
AcDbEntity
  8
0
100
AcDbCircle
 62
7
  6
CONTINUOUS
 10
224.6250786304
 20
24.3469719503
 40
3.0218601494
100
AcDbArc
 50
245.577974572
 51
247.5427966614
  0
ARC
  5
5D9
100
AcDbEntity
  8
0
100
AcDbCircle
 62
7
  6
CONTINUOUS
 10
225.4748007354
 20
21.2417338774
 40
2.9923484132
100
AcDbArc
 50
247.5303530931
 51
249.3788796677
  0
ARC
  5
5DA
100
AcDbEntity
  8
0
100
AcDbCircle
 62
7
  6
CONTINUOUS
 10
228.611200464
 20
24.9669105735
 40
2.8318947315
100
AcDbArc
 50
315.1545273134
 51
317.2838591334
  0
ARC
  5
5DB
100
AcDbEntity
  8
0
100
AcDbCircle
 62
7
  6
CONTINUOUS
 10
224.4381930881
 20
24.1923521192
 40
2.7990501025
100
AcDbArc
 50
243.0145794066
 51
245.1583131489
  0
ARC
  5
5DC
100
AcDbEntity
  8
0
100
AcDbCircle
 62
7
  6
CONTINUOUS
 10
224.5140573056
 20
24.1055369896
 40
2.7561256589
100
AcDbArc
 50
243.0054340331
 51
245.6042783332
  0
ARC
  5
5DD
100
AcDbEntity
  8
0
100
AcDbCircle
 62
7
  6
CONTINUOUS
 10
225.3818138177
 20
21.0189498346
 40
2.7509387337
100
AcDbArc
 50
245.3902655183
 51
247.54661616
  0
ARC
  5
5DE
100
AcDbEntity
  8
0
100
AcDbCircle
 62
7
  6
CONTINUOUS
 10
225.4449296092
 20
20.9057995936
 40
2.6787513584
100
AcDbArc
 50
245.3348630151
 51
247.5478106379
  0
ARC
  5
5DF
100
AcDbEntity
  8
0
100
AcDbCircle
 62
7
  6
CONTINUOUS
 10
228.9966488739
 20
21.4953825662
 40
2.5457061275
100
AcDbArc
 50
314.9188217448
 51
317.278413121
  0
ARC
  5
5E0
100
AcDbEntity
  8
0
100
AcDbCircle
 62
7
  6
CONTINUOUS
 10
225.2817118653
 20
20.8025187178
 40
2.5124812282
100
AcDbArc
 50
243.016486028
 51
245.4103261295
  0
ARC
  5
5E1
100
AcDbEntity
  8
0
100
AcDbCircle
 62
7
  6
CONTINUOUS
 10
225.3473375673
 20
20.6951867073
 40
2.446627899
100
AcDbArc
 50
243.0033737625
 51
245.3535090825
  0
ARC
  5
5E2
100
AcDbEntity
  8
0
100
AcDbCircle
 62
7
  6
CONTINUOUS
 10
235.412140856
 20
65.6823318052
 40
2.4271227984
100
AcDbArc
 50
347.8159927526
 51
352.2107190738
  0
ARC
  5
5E3
100
AcDbEntity
  8
0
100
AcDbCircle
 62
7
  6
CONTINUOUS
 10
249.6499536328
 20
78.3265359914
 40
1.8743412857
100
AcDbArc
 50
81.6545102271
 51
82.9838600497
  0
ARC
  5
5E4
100
AcDbEntity
  8
0
100
AcDbCircle
 62
7
  6
CONTINUOUS
 10
225.4555237804
 20
42.7237555524
 40
1.7940109053
100
AcDbArc
 50
322.2918016422
 51
324.5356627824
  0
ARC
  5
5E5
100
AcDbEntity
  8
0
100
AcDbCircle
 62
7
  6
CONTINUOUS
 10
249.6601448247
 20
78.4108159392
 40
1.7894476104
100
AcDbArc
 50
82.9781022003
 51
86.0870472105
  0
ARC
  5
5E6
100
AcDbEntity
  8
0
100
AcDbCircle
 62
7
  6
CONTINUOUS
 10
225.5686320399
 20
42.6432104599
 40
1.6551549018
100
AcDbArc
 50
324.5348713665
 51
326.9799615586
  0
ARC
  5
5E7
100
AcDbEntity
  8
02___PRT_ALL_AXES
100
AcDbCircle
 62
7
  6
CONTINUOUS
 10
237.3842111291
 20
59.6333676642
 40
0.9130329925
100
AcDbArc
 50
239.85380317
 51
243.2635338965
  0
SPLINE
  5
5E8
100
AcDbEntity
  8
0
100
AcDbSpline
 62
7
  6
CONTINUOUS
 70
0
 71
3
 72
12
 73
8
 74
0
 42
0.0000001
 43
0.0000001
 44
0.0000000001
 40
0.0
 40
0.0
 40
0.0
 40
0.0
 40
0.165082969
 40
0.316987882
 40
0.5762317261
 40
0.7981112504
 40
1.0
 40
1.0
 40
1.0
 40
1.0
 10
197.9489038166
 20
254.7895024671
 30
0.0
 10
198.1870931855
 20
254.7895024671
 30
0.0
 10
198.645924333
 20
254.7423396271
 30
0.0
 10
199.4449271753
 20
254.4987003952
 30
0.0
 10
200.241337286
 20
254.022768491
 30
0.0
 10
200.93954219
 20
253.3176300956
 30
0.0
 10
201.2822815642
 20
252.8073405301
 30
0.0
 10
201.4256368952
 20
252.5537627116
 30
0.0
  0
SPLINE
  5
5E9
100
AcDbEntity
  8
0
100
AcDbSpline
 62
7
  6
CONTINUOUS
 70
0
 71
3
 72
13
 73
9
 74
0
 42
0.0000001
 43
0.0000001
 44
0.0000000001
 40
0.0
 40
0.0
 40
0.0
 40
0.0
 40
0.2043640531
 40
0.4205294937
 40
0.5384366788
 40
0.6687744593
 40
0.8204121698
 40
1.0
 40
1.0
 40
1.0
 40
1.0
 10
202.1835019488
 20
247.400906286
 30
0.0
 10
202.1045940505
 20
246.9555550352
 30
0.0
 10
201.8658165356
 20
246.0505594296
 30
0.0
 10
201.3252314976
 20
244.9740200816
 30
0.0
 10
200.6778986415
 20
244.1703991422
 30
0.0
 10
200.0027012448
 20
243.5886535423
 30
0.0
 10
199.0855396049
 20
243.1141555485
 30
0.0
 10
198.3463581206
 20
242.9857367161
 30
0.0
 10
197.9489038166
 20
242.9857367161
 30
0.0
  0
SPLINE
  5
5EA
100
AcDbEntity
  8
0
100
AcDbSpline
 62
7
  6
CONTINUOUS
 70
0
 71
3
 72
13
 73
9
 74
0
 42
0.0000001
 43
0.0000001
 44
0.0000000001
 40
0.0
 40
0.0
 40
0.0
 40
0.0
 40
0.1796023805
 40
0.3312648334
 40
0.4616061372
 40
0.5795112609
 40
0.7956619521
 40
1.0
 40
1.0
 40
1.0
 40
1.0
 10
197.9489038166
 20
242.9857367161
 30
0.0
 10
197.5517633938
 20
242.9857367161
 30
0.0
 10
196.813150736
 20
243.1139702994
 30
0.0
 10
195.8965397345
 20
243.5877484077
 30
0.0
 10
195.2215954573
 20
244.1686822428
 30
0.0
 10
194.5744159596
 20
244.9712313428
 30
0.0
 10
194.0336425255
 20
246.0463796515
 30
0.0
 10
193.7944496391
 20
246.9503304951
 30
0.0
 10
193.7153164996
 20
247.3951834002
 30
0.0
  0
SPLINE
  5
5EB
100
AcDbEntity
  8
0
100
AcDbSpline
 62
7
  6
CONTINUOUS
 70
0
 71
3
 72
12
 73
8
 74
0
 42
0.0000001
 43
0.0000001
 44
0.0000000001
 40
0.0
 40
0.0
 40
0.0
 40
0.0
 40
0.2020141942
 40
0.4240414266
 40
0.6833241844
 40
0.8350785392
 40
1.0
 40
1.0
 40
1.0
 40
1.0
 10
194.4783896754
 20
252.5647484986
 30
0.0
 10
194.6219655957
 20
252.8174357891
 30
0.0
 10
194.9651263776
 20
253.325760514
 30
0.0
 10
195.6630630034
 20
254.0277311547
 30
0.0
 10
196.4580729291
 20
254.5007449706
 30
0.0
 10
197.2546001967
 20
254.7426939732
 30
0.0
 10
197.7116389395
 20
254.7895024671
 30
0.0
 10
197.9489038166
 20
254.7895024671
 30
0.0
  0
SPLINE
  5
5EC
100
AcDbEntity
  8
0
100
AcDbSpline
 62
7
  6
CONTINUOUS
 70
0
 71
3
 72
21
 73
17
 74
0
 42
0.0000001
 43
0.0000001
 44
0.0000000001
 40
0.0
 40
0.0
 40
0.0
 40
0.0
 40
0.1220571198
 40
0.2438067765
 40
0.3655186693
 40
0.4874420686
 40
0.5486128256
 40
0.6100071715
 40
0.6717443433
 40
0.7340193289
 40
0.7971678331
 40
0.8618008714
 40
0.8950658512
 40
0.9291781845
 40
0.9642359667
 40
1.0
 40
1.0
 40
1.0
 40
1.0
 10
58.6763202635
 20
106.6886084605
 30
0.0
 10
59.2852854321
 20
106.8114880517
 30
0.0
 10
60.5158727675
 20
106.9894407663
 30
0.0
 10
62.3755382496
 20
107.0901637851
 30
0.0
 10
64.2365523626
 20
107.0380069901
 30
0.0
 10
65.7803868622
 20
106.8615355019
 30
0.0
 10
67.002724886
 20
106.6253495886
 30
0.0
 10
67.9121575488
 20
106.3927113401
 30
0.0
 10
68.8084180955
 20
106.094414334
 30
0.0
 10
69.6838341738
 20
105.7146463497
 30
0.0
 10
70.5234895115
 20
105.2294482181
 30
0.0
 10
71.163737403
 20
104.7079077497
 30
0.0
 10
71.601893408
 20
104.1959665049
 30
0.0
 10
71.8776937621
 20
103.7504169173
 30
0.0
 10
72.0677097552
 20
103.2471076537
 30
0.0
 10
72.1136494267
 20
102.885154647
 30
0.0
 10
72.1136494267
 20
102.703125
 30
0.0
  0
SPLINE
  5
5ED
100
AcDbEntity
  8
0
100
AcDbSpline
 62
7
  6
CONTINUOUS
 70
0
 71
3
 72
21
 73
17
 74
0
 42
0.0000001
 43
0.0000001
 44
0.0000000001
 40
0.0
 40
0.0
 40
0.0
 40
0.0
 40
0.0357812481
 40
0.0708762849
 40
0.1050241712
 40
0.1383208377
 40
0.202978129
 40
0.2661315356
 40
0.3284021862
 40
0.390130945
 40
0.4515145595
 40
0.5126734554
 40
0.6345717739
 40
0.7562571822
 40
0.8779764624
 40
1.0
 40
1.0
 40
1.0
 40
1.0
 10
72.1136494267
 20
102.703125
 30
0.0
 10
72.1136494267
 20
102.5213112504
 30
0.0
 10
72.067741865
 20
102.1596907815
 30
0.0
 10
71.8780539662
 20
101.656746046
 30
0.0
 10
71.6027674294
 20
101.211270473
 30
0.0
 10
71.1651079231
 20
100.6997603276
 30
0.0
 10
70.5260218325
 20
100.1785159847
 30
0.0
 10
69.6878731828
 20
99.6936676381
 30
0.0
 10
68.8141709781
 20
99.3140594178
 30
0.0
 10
67.9196869465
 20
99.0157860975
 30
0.0
 10
67.0120644432
 20
98.7830245499
 30
0.0
 10
65.7921477209
 20
98.5465250105
 30
0.0
 10
64.2513268443
 20
98.3693566816
 30
0.0
 10
62.3938755589
 20
98.3159697579
 30
0.0
 10
60.537685791
 20
98.4147972841
 30
0.0
 10
59.3092837023
 20
98.590926878
 30
0.0
 10
58.7013086765
 20
98.7126124129
 30
0.0
  0
SPLINE
  5
5EE
100
AcDbEntity
  8
0
100
AcDbSpline
 62
7
  6
CONTINUOUS
 70
0
 71
3
 72
11
 73
7
 74
0
 42
0.0000001
 43
0.0000001
 44
0.0000000001
 40
0.0
 40
0.0
 40
0.0
 40
0.0
 40
0.2898659905
 40
0.5480570569
 40
0.7811204461
 40
1.0
 40
1.0
 40
1.0
 40
1.0
 10
230.866874889
 20
19.7682825863
 30
0.0
 10
230.9430450182
 20
19.8508467233
 30
0.0
 10
231.07669303
 20
20.0173158974
 30
0.0
 10
231.220591494
 20
20.2860736166
 30
0.0
 10
231.2916805352
 20
20.5549769258
 30
0.0
 10
231.2872221339
 20
20.7330554405
 30
0.0
 10
231.2722701636
 20
20.8165506363
 30
0.0
  0
SPLINE
  5
5EF
100
AcDbEntity
  8
02___PRT_ALL_AXES
100
AcDbSpline
 62
7
  6
CONTINUOUS
 70
0
 71
3
 72
11
 73
7
 74
0
 42
0.0000001
 43
0.0000001
 44
0.0000000001
 40
0.0
 40
0.0
 40
0.0
 40
0.0
 40
0.2724193119
 40
0.5237634191
 40
0.7627193357
 40
1.0
 40
1.0
 40
1.0
 40
1.0
 10
224.9787894081
 20
18.2611652544
 30
0.0
 10
224.9512704171
 20
18.2113337596
 30
0.0
 10
224.9059126592
 20
18.1109327148
 30
0.0
 10
224.8707331705
 20
17.9541881189
 30
0.0
 10
224.8729026328
 20
17.8006868697
 30
0.0
 10
224.8993661758
 20
17.703515112
 30
0.0
 10
224.917971135
 20
17.6575555391
 30
0.0
  0
SPLINE
  5
5F0
100
AcDbEntity
  8
02___PRT_ALL_AXES
100
AcDbSpline
 62
7
  6
CONTINUOUS
 70
0
 71
3
 72
10
 73
6
 74
0
 42
0.0000001
 43
0.0000001
 44
0.0000000001
 40
0.0
 40
0.0
 40
0.0
 40
0.0
 40
0.5223406733
 40
0.7619986113
 40
1.0
 40
1.0
 40
1.0
 40
1.0
 10
230.188221092
 20
19.1929014717
 30
0.0
 10
230.270265031
 20
19.1218879694
 30
0.0
 10
230.3763220031
 20
18.9964107417
 30
0.0
 10
230.4459427888
 20
18.7987750326
 30
0.0
 10
230.4548669287
 20
18.6987346997
 30
0.0
 10
230.4533840637
 20
18.6493156313
 30
0.0
  0
SPLINE
  5
5F1
100
AcDbEntity
  8
0
100
AcDbSpline
 62
7
  6
CONTINUOUS
 70
0
 71
3
 72
18
 73
14
 74
0
 42
0.0000001
 43
0.0000001
 44
0.0000000001
 40
0.0
 40
0.0
 40
0.0
 40
0.0
 40
0.0514630996
 40
0.1074277612
 40
0.2310602221
 40
0.3663472856
 40
0.5072261482
 40
0.6470508988
 40
0.7792833051
 40
0.8407532238
 40
0.8982946592
 40
0.9514643046
 40
1.0
 40
1.0
 40
1.0
 40
1.0
 10
224.4218813423
 20
18.4301014933
 30
0.0
 10
224.5293601056
 20
18.3856348844
 30
0.0
 10
224.7594981989
 20
18.3064776358
 30
0.0
 10
225.2681257714
 20
18.1854460699
 30
0.0
 10
225.9787886934
 20
18.109893345
 30
0.0
 10
226.8841216428
 20
18.1316116569
 30
0.0
 10
227.8172869919
 20
18.262288519
 30
0.0
 10
228.7232209061
 20
18.4942858429
 30
0.0
 10
229.4285249569
 20
18.7669780859
 30
0.0
 10
229.9335985659
 20
19.0275368395
 30
0.0
 10
230.2645746856
 20
19.2331589731
 30
0.0
 10
230.5520496312
 20
19.4506062887
 30
0.0
 10
230.7197424809
 20
19.6088128361
 30
0.0
 10
230.7941301555
 20
19.6894358026
 30
0.0
  0
SPLINE
  5
5F2
100
AcDbEntity
  8
0
100
AcDbSpline
 62
7
  6
CONTINUOUS
 70
0
 71
3
 72
11
 73
7
 74
0
 42
0.0000001
 43
0.0000001
 44
0.0000000001
 40
0.0
 40
0.0
 40
0.0
 40
0.0
 40
0.2898659907
 40
0.5480570581
 40
0.7811204476
 40
1.0
 40
1.0
 40
1.0
 40
1.0
 10
230.6918601316
 20
23.0458475558
 30
0.0
 10
230.777075466
 20
23.1382161845
 30
0.0
 10
230.9265941839
 20
23.3244535743
 30
0.0
 10
231.0875805974
 20
23.6251262754
 30
0.0
 10
231.1671114675
 20
23.9259618557
 30
0.0
 10
231.1621236341
 20
24.1251871965
 30
0.0
 10
231.1453961182
 20
24.2185974477
 30
0.0
  0
SPLINE
  5
5F3
100
AcDbEntity
  8
0
100
AcDbSpline
 62
7
  6
CONTINUOUS
 70
0
 71
3
 72
19
 73
15
 74
0
 42
0.0000001
 43
0.0000001
 44
0.0000000001
 40
0.0
 40
0.0
 40
0.0
 40
0.0
 40
0.0514587117
 40
0.107418602
 40
0.1674820585
 40
0.2311257994
 40
0.366401325
 40
0.5072681734
 40
0.6470809991
 40
0.779302128
 40
0.8407668044
 40
0.8983033326
 40
0.9514684437
 40
1.0
 40
1.0
 40
1.0
 40
1.0
 10
223.4707484791
 20
21.5542742107
 30
0.0
 10
223.591317606
 20
21.5043917963
 30
0.0
 10
223.8494840285
 20
21.4156113248
 30
0.0
 10
224.2631028798
 20
21.3171015713
 30
0.0
 10
224.7140246943
 20
21.2488444021
 30
0.0
 10
225.3692592327
 20
21.1985856832
 30
0.0
 10
226.2330192228
 20
21.219478933
 30
0.0
 10
227.2796585524
 20
21.3660091617
 30
0.0
 10
228.2959790594
 20
21.6262793086
 30
0.0
 10
229.0871744813
 20
21.9321802535
 30
0.0
 10
229.6537647612
 20
22.2244741712
 30
0.0
 10
230.0250518426
 20
22.4551399432
 30
0.0
 10
230.3475398184
 20
22.6990712428
 30
0.0
 10
230.5356567867
 20
22.8765465299
 30
0.0
 10
230.6191044993
 20
22.966988959
 30
0.0
  0
SPLINE
  5
5F4
100
AcDbEntity
  8
02___PRT_ALL_AXES
100
AcDbSpline
 62
7
  6
CONTINUOUS
 70
0
 71
3
 72
11
 73
7
 74
0
 42
0.0000001
 43
0.0000001
 44
0.0000000001
 40
0.0
 40
0.0
 40
0.0
 40
0.0
 40
0.2138483645
 40
0.4476557198
 40
0.7085939772
 40
1.0
 40
1.0
 40
1.0
 40
1.0
 10
225.5075493563
 20
16.200766273
 30
0.0
 10
225.5274750718
 20
16.1515382005
 30
0.0
 10
225.5842848475
 20
16.0542184777
 30
0.0
 10
225.7077878853
 20
15.9270539406
 30
0.0
 10
225.8690649359
 20
15.8153204698
 30
0.0
 10
225.9929511202
 20
15.755274185
 30
0.0
 10
226.0598226416
 20
15.7276077915
 30
0.0
  0
SPLINE
  5
5F5
100
AcDbEntity
  8
0
100
AcDbSpline
 62
7
  6
CONTINUOUS
 70
0
 71
3
 72
11
 73
7
 74
0
 42
0.0000001
 43
0.0000001
 44
0.0000000001
 40
0.0
 40
0.0
 40
0.0
 40
0.0
 40
0.2188695355
 40
0.4519264424
 40
0.710085824
 40
1.0
 40
1.0
 40
1.0
 40
1.0
 10
223.3976263485
 20
19.4059045927
 30
0.0
 10
223.4125777029
 20
19.322412836
 30
0.0
 10
223.4702267171
 20
19.1538678756
 30
0.0
 10
223.6302286144
 20
18.9263813433
 30
0.0
 10
223.8584640671
 20
18.724268243
 30
0.0
 10
224.0416006521
 20
18.6145482098
 30
0.0
 10
224.1417134395
 20
18.5635534409
 30
0.0
  0
SPLINE
  5
5F6
100
AcDbEntity
  8
0
100
AcDbSpline
 62
7
  6
CONTINUOUS
 70
0
 71
3
 72
11
 73
7
 74
0
 42
0.0000001
 43
0.0000001
 44
0.0000000001
 40
0.0
 40
0.0
 40
0.0
 40
0.0
 40
0.2188695388
 40
0.4519264468
 40
0.7100858259
 40
1.0
 40
1.0
 40
1.0
 40
1.0
 10
222.3356383453
 20
22.6404372091
 30
0.0
 10
222.3523651697
 20
22.5470308195
 30
0.0
 10
222.4168599875
 20
22.3584711713
 30
0.0
 10
222.5958620656
 20
22.1039706414
 30
0.0
 10
222.8512004182
 20
21.8778566261
 30
0.0
 10
223.0560844294
 20
21.7551073433
 30
0.0
 10
223.1680855871
 20
21.6980569458
 30
0.0
  0
SPLINE
  5
5F7
100
AcDbEntity
  8
02___PRT_ALL_AXES
100
AcDbSpline
 62
7
  6
CONTINUOUS
 70
0
 71
3
 72
22
 73
18
 74
0
 42
0.0000001
 43
0.0000001
 44
0.0000000001
 40
0.0
 40
0.0
 40
0.0
 40
0.0
 40
0.0370043197
 40
0.0781941476
 40
0.1249835431
 40
0.1779220886
 40
0.236918939
 40
0.3014330972
 40
0.3706064077
 40
0.4433570836
 40
0.5184508904
 40
0.5945606928
 40
0.7442816898
 40
0.8153521673
 40
0.8822664175
 40
0.9440577014
 40
1.0
 40
1.0
 40
1.0
 40
1.0
 10
230.4061731656
 20
17.0784051815
 30
0.0
 10
230.4043390702
 20
17.017233312
 30
0.0
 10
230.3787344541
 20
16.8881575845
 30
0.0
 10
230.284913512
 20
16.7019642621
 30
0.0
 10
230.1387016063
 20
16.5188159663
 30
0.0
 10
229.9436468811
 20
16.3418516937
 30
0.0
 10
229.7039483864
 20
16.1742990761
 30
0.0
 10
229.4247485583
 20
16.0196773206
 30
0.0
 10
229.1121655335
 20
15.881365469
 30
0.0
 10
228.7731594001
 20
15.7624740618
 30
0.0
 10
228.4152946728
 20
15.665665413
 30
0.0
 10
227.926699952
 20
15.5696411354
 30
0.0
 10
227.4357057183
 20
15.5243224124
 30
0.0
 10
226.9595995953
 20
15.5348837123
 30
0.0
 10
226.6305892206
 20
15.569924397
 30
0.0
 10
226.3309547179
 20
15.6313560819
 30
0.0
 10
226.1453145768
 20
15.6922376747
 30
0.0
 10
226.0598226416
 20
15.7276077915
 30
0.0
  0
SPLINE
  5
5F8
100
AcDbEntity
  8
0
100
AcDbSpline
 62
7
  6
CONTINUOUS
 70
0
 71
3
 72
16
 73
12
 74
0
 42
0.0000001
 43
0.0000001
 44
0.0000000001
 40
0.0
 40
0.0
 40
0.0
 40
0.0
 40
0.1085281666
 40
0.2322779927
 40
0.3668109846
 40
0.5065153169
 40
0.6452801228
 40
0.7770832373
 40
0.8965897811
 40
0.9504812429
 40
1.0
 40
1.0
 40
1.0
 40
1.0
 10
224.4209354999
 20
18.4411058958
 30
0.0
 10
224.64952605
 20
18.3550026782
 30
0.0
 10
225.1597924032
 20
18.2260383318
 30
0.0
 10
225.9837941714
 20
18.1475917545
 30
0.0
 10
226.881312823
 20
18.1738304296
 30
0.0
 10
227.8035256931
 20
18.3037965828
 30
0.0
 10
228.7006693088
 20
18.530464634
 30
0.0
 10
229.5237789792
 20
18.8413833718
 30
0.0
 10
230.1318922547
 20
19.1671813921
 30
0.0
 10
230.5401500012
 20
19.4598642206
 30
0.0
 10
230.7152742133
 20
19.6140367044
 30
0.0
 10
230.7941827217
 20
19.6927478961
 30
0.0
  0
SPLINE
  5
5F9
100
AcDbEntity
  8
0
100
AcDbSpline
 62
7
  6
CONTINUOUS
 70
0
 71
3
 72
18
 73
14
 74
0
 42
0.0000001
 43
0.0000001
 44
0.0000000001
 40
0.0
 40
0.0
 40
0.0
 40
0.0
 40
0.0521269373
 40
0.1084915567
 40
0.2322024561
 40
0.3667851365
 40
0.5065831411
 40
0.6454326112
 40
0.7772599919
 40
0.8388539873
 40
0.8967766008
 40
0.9505879065
 40
1.0
 40
1.0
 40
1.0
 40
1.0
 10
223.4696006009
 20
21.565181721
 30
0.0
 10
223.5926856275
 20
21.5183516249
 30
0.0
 10
223.8544451419
 20
21.4352187712
 30
0.0
 10
224.4279951643
 20
21.309220287
 30
0.0
 10
225.2222709942
 20
21.232764687
 30
0.0
 10
226.2296647613
 20
21.2616194319
 30
0.0
 10
227.2655722064
 20
21.4074571851
 30
0.0
 10
228.2728049378
 20
21.6622905163
 30
0.0
 10
229.060173127
 20
21.9602304654
 30
0.0
 10
229.6284990369
 20
22.2445268977
 30
0.0
 10
230.00473024
 20
22.4695383579
 30
0.0
 10
230.3353832098
 20
22.7079458509
 30
0.0
 10
230.531024981
 20
22.8813460652
 30
0.0
 10
230.6190457767
 20
22.9698665153
 30
0.0
  0
SPLINE
  5
5FA
100
AcDbEntity
  8
02___PRT_ALL_AXES
100
AcDbSpline
 62
7
  6
CONTINUOUS
 70
0
 71
3
 72
11
 73
7
 74
0
 42
0.0000001
 43
0.0000001
 44
0.0000000001
 40
0.0
 40
0.0
 40
0.0
 40
0.0
 40
0.2138495313
 40
0.4476632031
 40
0.7085836115
 40
1.0
 40
1.0
 40
1.0
 40
1.0
 10
224.917971135
 20
17.6575555391
 30
0.0
 10
224.9404877642
 20
17.6019330219
 30
0.0
 10
225.0046928459
 20
17.4919767495
 30
0.0
 10
225.144243342
 20
17.3483023885
 30
0.0
 10
225.3264708343
 20
17.2220534701
 30
0.0
 10
225.4664510693
 20
17.1542122003
 30
0.0
 10
225.542012359
 20
17.1229506358
 30
0.0
  0
SPLINE
  5
5FB
100
AcDbEntity
  8
02___PRT_ALL_AXES
100
AcDbSpline
 62
7
  6
CONTINUOUS
 70
0
 71
3
 72
11
 73
7
 74
0
 42
0.0000001
 43
0.0000001
 44
0.0000000001
 40
0.0
 40
0.0
 40
0.0
 40
0.0
 40
0.2124990147
 40
0.4426010452
 40
0.7029681061
 40
1.0
 40
1.0
 40
1.0
 40
1.0
 10
225.0795674052
 20
17.8146541728
 30
0.0
 10
225.0907932569
 20
17.7519564814
 30
0.0
 10
225.1375881782
 20
17.6246951859
 30
0.0
 10
225.2702641729
 20
17.4575352887
 30
0.0
 10
225.4595039244
 20
17.3134205283
 30
0.0
 10
225.6099328633
 20
17.2387211249
 30
0.0
 10
225.692202607
 20
17.204684108
 30
0.0
  0
SPLINE
  5
5FC
100
AcDbEntity
  8
02___PRT_ALL_AXES
100
AcDbSpline
 62
7
  6
CONTINUOUS
 70
0
 71
3
 72
21
 73
17
 74
0
 42
0.0000001
 43
0.0000001
 44
0.0000000001
 40
0.0
 40
0.0
 40
0.0
 40
0.0
 40
0.0361527366
 40
0.0753450139
 40
0.1197461724
 40
0.1704468641
 40
0.2276702059
 40
0.2910279545
 40
0.3597085366
 40
0.4326054924
 40
0.5855840888
 40
0.738471536
 40
0.8112586883
 40
0.8797913203
 40
0.9429734869
 40
1.0
 40
1.0
 40
1.0
 40
1.0
 10
230.247331818
 20
18.7402176882
 30
0.0
 10
230.2586435082
 20
18.6770405789
 30
0.0
 10
230.2586878721
 20
18.5402848418
 30
0.0
 10
230.1909404214
 20
18.3358925158
 30
0.0
 10
230.0612796092
 20
18.13357478
 30
0.0
 10
229.8741616141
 20
17.9366618327
 30
0.0
 10
229.6340874905
 20
17.7486495542
 30
0.0
 10
229.3465597047
 20
17.5735916182
 30
0.0
 10
229.0183033659
 20
17.4155177118
 30
0.0
 10
228.5289843999
 20
17.2296210034
 30
0.0
 10
227.874366099
 20
17.0650906403
 30
0.0
 10
227.2033649497
 20
16.993623304
 30
0.0
 10
226.6805797996
 20
16.9993873645
 30
0.0
 10
226.3187016793
 20
17.0346206125
 30
0.0
 10
225.9894659025
 20
17.0998606263
 30
0.0
 10
225.785751321
 20
17.1659807036
 30
0.0
 10
225.692202607
 20
17.204684108
 30
0.0
  0
SPLINE
  5
5FD
100
AcDbEntity
  8
02___PRT_ALL_AXES
100
AcDbSpline
 62
7
  6
CONTINUOUS
 70
0
 71
3
 72
21
 73
17
 74
0
 42
0.0000001
 43
0.0000001
 44
0.0000000001
 40
0.0
 40
0.0
 40
0.0
 40
0.0
 40
0.0370081195
 40
0.0782021616
 40
0.1249962843
 40
0.1779402797
 40
0.2369433381
 40
0.3014642495
 40
0.3706445223
 40
0.4434020799
 40
0.5945248052
 40
0.74425925
 40
0.8153357009
 40
0.8822570434
 40
0.9440512559
 40
1.0
 40
1.0
 40
1.0
 40
1.0
 10
230.4533840637
 20
18.6493156313
 30
0.0
 10
230.4513099248
 20
18.5801913262
 30
0.0
 10
230.4223650387
 20
18.4343375333
 30
0.0
 10
230.3163440222
 20
18.2239417362
 30
0.0
 10
230.1511209157
 20
18.0169861407
 30
0.0
 10
229.930706075
 20
17.81701908
 30
0.0
 10
229.6598426906
 20
17.6276871511
 30
0.0
 10
229.3443444024
 20
17.4529720024
 30
0.0
 10
228.9911192336
 20
17.296672299
 30
0.0
 10
228.4738864198
 20
17.1153425675
 30
0.0
 10
227.7913642662
 20
16.9574084348
 30
0.0
 10
227.0967808378
 20
16.8932348615
 30
0.0
 10
226.5587380863
 20
16.9051703903
 30
0.0
 10
226.1869733201
 20
16.944771066
 30
0.0
 10
225.8483873413
 20
17.0141841676
 30
0.0
 10
225.6386196531
 20
17.0829818216
 30
0.0
 10
225.542012359
 20
17.1229506358
 30
0.0
  0
SPLINE
  5
5FE
100
AcDbEntity
  8
02___PRT_ALL_AXES
100
AcDbSpline
 62
7
  6
CONTINUOUS
 70
0
 71
3
 72
11
 73
7
 74
0
 42
0.0000001
 43
0.0000001
 44
0.0000000001
 40
0.0
 40
0.0
 40
0.0
 40
0.0
 40
0.2787453467
 40
0.5361749495
 40
0.7749715079
 40
1.0
 40
1.0
 40
1.0
 40
1.0
 10
256.5290763166
 20
81.4250594703
 30
0.0
 10
256.4703802501
 20
81.449343477
 30
0.0
 10
256.3545408023
 20
81.4894793963
 30
0.0
 10
256.1804254873
 20
81.5229695689
 30
0.0
 10
256.0152449181
 20
81.5264871102
 30
0.0
 10
255.9102736223
 20
81.508033223
 30
0.0
 10
255.8610359226
 20
81.4937051718
 30
0.0
  0
SPLINE
  5
5FF
100
AcDbEntity
  8
0
100
AcDbSpline
 62
7
  6
CONTINUOUS
 70
0
 71
3
 72
15
 73
11
 74
0
 42
0.0000001
 43
0.0000001
 44
0.0000000001
 40
0.0
 40
0.0
 40
0.0
 40
0.0
 40
0.1086467166
 40
0.2307517555
 40
0.3627560235
 40
0.4999739988
 40
0.6371952668
 40
0.7692082806
 40
0.8913282648
 40
1.0
 40
1.0
 40
1.0
 40
1.0
 10
256.6640373492
 20
75.572949586
 30
0.0
 10
256.6871386153
 20
75.8065833577
 30
0.0
 10
256.6785657472
 20
76.3088383152
 30
0.0
 10
256.5363343814
 20
77.0822250049
 30
0.0
 10
256.2712506676
 20
77.8877439265
 30
0.0
 10
255.8965230636
 20
78.6843192704
 30
0.0
 10
255.431209909
 20
79.4316279331
 30
0.0
 10
254.8988118004
 20
80.0917644868
 30
0.0
 10
254.3266448818
 20
80.6313434352
 30
0.0
 10
253.9095356703
 20
80.911415572
 30
0.0
 10
253.7007801633
 20
81.0189559542
 30
0.0
  0
SPLINE
  5
600
100
AcDbEntity
  8
0
100
AcDbSpline
 62
7
  6
CONTINUOUS
 70
0
 71
3
 72
11
 73
7
 74
0
 42
0.0000001
 43
0.0000001
 44
0.0000000001
 40
0.0
 40
0.0
 40
0.0
 40
0.0
 40
0.2834282009
 40
0.5401553829
 40
0.7759216656
 40
1.0
 40
1.0
 40
1.0
 40
1.0
 10
253.4032702178
 20
81.1615413335
 30
0.0
 10
253.2873440646
 20
81.2095028355
 30
0.0
 10
253.0591849349
 20
81.2851852609
 30
0.0
 10
252.7164469175
 20
81.3314060387
 30
0.0
 10
252.3975523295
 20
81.3018192075
 30
0.0
 10
252.2041008806
 20
81.2294445184
 30
0.0
 10
252.1169783844
 20
81.1820375741
 30
0.0
  0
SPLINE
  5
601
100
AcDbEntity
  8
0
100
AcDbSpline
 62
7
  6
CONTINUOUS
 70
0
 71
3
 72
15
 73
11
 74
0
 42
0.0000001
 43
0.0000001
 44
0.0000000001
 40
0.0
 40
0.0
 40
0.0
 40
0.0
 40
0.1086467151
 40
0.2307517518
 40
0.3627560172
 40
0.4999739902
 40
0.6371952577
 40
0.7692082716
 40
0.8913282586
 40
1.0
 40
1.0
 40
1.0
 40
1.0
 10
254.1222120478
 20
73.7597962182
 30
0.0
 10
254.148126927
 20
74.0218853716
 30
0.0
 10
254.1385099283
 20
74.5853123762
 30
0.0
 10
253.9789555279
 20
75.4528935511
 30
0.0
 10
253.6815860064
 20
76.3565204995
 30
0.0
 10
253.2612185398
 20
77.2501145963
 30
0.0
 10
252.7392326735
 20
78.0884415968
 30
0.0
 10
252.1419912483
 20
78.8289793917
 30
0.0
 10
251.5001373696
 20
79.4342763099
 30
0.0
 10
251.0322264144
 20
79.748459824
 30
0.0
 10
250.7980455626
 20
79.869098094
 30
0.0
  0
SPLINE
  5
602
100
AcDbEntity
  8
0
100
AcDbSpline
 62
7
  6
CONTINUOUS
 70
0
 71
3
 72
9
 73
5
 74
0
 42
0.0000001
 43
0.0000001
 44
0.0000000001
 40
0.0
 40
0.0
 40
0.0
 40
0.0
 40
0.2633428107
 40
1.0
 40
1.0
 40
1.0
 40
1.0
 10
250.4753516283
 20
80.0233915762
 30
0.0
 10
250.4286178421
 20
80.0427264935
 30
0.0
 10
250.2493087041
 20
80.1114424879
 30
0.0
 10
250.0619786087
 20
80.1605041427
 30
0.0
 10
249.9219988742
 20
80.1810296264
 30
0.0
  0
SPLINE
  5
603
100
AcDbEntity
  8
02___PRT_ALL_AXES
100
AcDbSpline
 62
7
  6
CONTINUOUS
 70
0
 71
3
 72
20
 73
16
 74
0
 42
0.0000001
 43
0.0000001
 44
0.0000000001
 40
0.0
 40
0.0
 40
0.0
 40
0.0
 40
0.0546940313
 40
0.1148061194
 40
0.1798291285
 40
0.2489680311
 40
0.3952112463
 40
0.5440674358
 40
0.6854407124
 40
0.750575478
 40
0.8108089136
 40
0.8656389171
 40
0.9149904028
 40
0.959366669
 40
1.0
 40
1.0
 40
1.0
 40
1.0
 10
256.5290763166
 20
81.4250594703
 30
0.0
 10
256.6155020977
 20
81.3893029985
 30
0.0
 10
256.7905810279
 20
81.2985493076
 30
0.0
 10
257.0429021314
 20
81.121576022
 30
0.0
 10
257.2923037803
 20
80.9011350142
 30
0.0
 10
257.6192368398
 20
80.5495456524
 30
0.0
 10
257.9810171263
 20
80.0385976535
 30
0.0
 10
258.3140558769
 20
79.367632391
 30
0.0
 10
258.4949740901
 20
78.7837334709
 30
0.0
 10
258.5643929227
 20
78.3321434322
 30
0.0
 10
258.5768859125
 20
78.0234774254
 30
0.0
 10
258.5509151846
 20
77.7425320849
 30
0.0
 10
258.4865481267
 20
77.4953219215
 30
0.0
 10
258.3844229119
 20
77.2874732415
 30
0.0
 10
258.2884739467
 20
77.175442273
 30
0.0
 10
258.2359452564
 20
77.1299560262
 30
0.0
  0
SPLINE
  5
604
100
AcDbEntity
  8
02___PRT_ALL_AXES
100
AcDbSpline
 62
7
  6
CONTINUOUS
 70
0
 71
3
 72
9
 73
5
 74
0
 42
0.0000001
 43
0.0000001
 44
0.0000000001
 40
0.0
 40
0.0
 40
0.0
 40
0.0
 40
0.4955615402
 40
1.0
 40
1.0
 40
1.0
 40
1.0
 10
254.4091536229
 20
81.0712573382
 30
0.0
 10
254.335986206
 20
81.0499644674
 30
0.0
 10
254.1936887071
 20
80.9849325441
 30
0.0
 10
254.0779320169
 20
80.8799992129
 30
0.0
 10
254.027860023
 20
80.8207577525
 30
0.0
  0
SPLINE
  5
605
100
AcDbEntity
  8
0
100
AcDbSpline
 62
7
  6
CONTINUOUS
 70
0
 71
3
 72
11
 73
7
 74
0
 42
0.0000001
 43
0.0000001
 44
0.0000000001
 40
0.0
 40
0.0
 40
0.0
 40
0.0
 40
0.2184500824
 40
0.4515537016
 40
0.7101540727
 40
1.0
 40
1.0
 40
1.0
 40
1.0
 10
253.3144321507
 20
72.18501592
 30
0.0
 10
253.4260702248
 20
72.2457628074
 30
0.0
 10
253.6375915958
 20
72.4099321628
 30
0.0
 10
253.8774395429
 20
72.7523704148
 30
0.0
 10
254.0414043975
 20
73.1802974348
 30
0.0
 10
254.0961887027
 20
73.496500237
 30
0.0
 10
254.1127735777
 20
73.6643165999
 30
0.0
  0
SPLINE
  5
606
100
AcDbEntity
  8
0
100
AcDbSpline
 62
7
  6
CONTINUOUS
 70
0
 71
3
 72
11
 73
7
 74
0
 42
0.0000001
 43
0.0000001
 44
0.0000000001
 40
0.0
 40
0.0
 40
0.0
 40
0.0
 40
0.2184500834
 40
0.4515537017
 40
0.7101540718
 40
1.0
 40
1.0
 40
1.0
 40
1.0
 10
255.9409957866
 20
74.1551720111
 30
0.0
 10
256.0407840137
 20
74.209470902
 30
0.0
 10
256.2298534045
 20
74.3562144561
 30
0.0
 10
256.4442426421
 20
74.662304514
 30
0.0
 10
256.5908034137
 20
75.0448091175
 30
0.0
 10
256.6397726282
 20
75.3274484985
 30
0.0
 10
256.6545970984
 20
75.4774519545
 30
0.0
  0
SPLINE
  5
607
100
AcDbEntity
  8
02___PRT_ALL_AXES
100
AcDbSpline
 62
7
  6
CONTINUOUS
 70
0
 71
3
 72
9
 73
5
 74
0
 42
0.0000001
 43
0.0000001
 44
0.0000000001
 40
0.0
 40
0.0
 40
0.0
 40
0.0
 40
0.4957755801
 40
1.0
 40
1.0
 40
1.0
 40
1.0
 10
257.0926971642
 20
76.1401083733
 30
0.0
 10
257.0357154479
 20
76.09077783
 30
0.0
 10
256.9055283145
 20
76.0073714304
 30
0.0
 10
256.7565208277
 20
75.9668653747
 30
0.0
 10
256.6805522173
 20
75.9566454939
 30
0.0
  0
SPLINE
  5
608
100
AcDbEntity
  8
0
100
AcDbSpline
 62
7
  6
CONTINUOUS
 70
0
 71
3
 72
15
 73
11
 74
0
 42
0.0000001
 43
0.0000001
 44
0.0000000001
 40
0.0
 40
0.0
 40
0.0
 40
0.0
 40
0.10968385
 40
0.232004199
 40
0.3635459576
 40
0.4999298802
 40
0.6363235176
 40
0.76789307
 40
0.89025767
 40
1.0
 40
1.0
 40
1.0
 40
1.0
 10
256.6623575713
 20
75.5701271811
 30
0.0
 10
256.6786181585
 20
75.805807498
 30
0.0
 10
256.6594682864
 20
76.3083804753
 30
0.0
 10
256.508193141
 20
77.0789597995
 30
0.0
 10
256.2398317494
 20
77.8778116005
 30
0.0
 10
255.8669103577
 20
78.666844366
 30
0.0
 10
255.4071530321
 20
79.4087127832
 30
0.0
 10
254.8822835894
 20
80.0682512649
 30
0.0
 10
254.3174532307
 20
80.6142160463
 30
0.0
 10
253.9058647844
 20
80.9036317934
 30
0.0
 10
253.6991037033
 20
81.0181700036
 30
0.0
  0
SPLINE
  5
609
100
AcDbEntity
  8
0
100
AcDbSpline
 62
7
  6
CONTINUOUS
 70
0
 71
3
 72
15
 73
11
 74
0
 42
0.0000001
 43
0.0000001
 44
0.0000000001
 40
0.0
 40
0.0
 40
0.0
 40
0.0
 40
0.1095747929
 40
0.2318727859
 40
0.3634630432
 40
0.4999341888
 40
0.6364144234
 40
0.7680306064
 40
0.8903699858
 40
1.0
 40
1.0
 40
1.0
 40
1.0
 10
254.1206692481
 20
73.7568505037
 30
0.0
 10
254.1397168303
 20
74.0210169834
 30
0.0
 10
254.1194814083
 20
74.5847977251
 30
0.0
 10
253.9508451248
 20
75.449604587
 30
0.0
 10
253.6501757029
 20
76.3465771994
 30
0.0
 10
253.2316067636
 20
77.2326339735
 30
0.0
 10
252.7151780786
 20
78.0655316208
 30
0.0
 10
252.1254675132
 20
78.8054997973
 30
0.0
 10
251.4909427838
 20
79.4172355218
 30
0.0
 10
251.0285450525
 20
79.7408208303
 30
0.0
 10
250.7963462763
 20
79.8684969351
 30
0.0
  0
SPLINE
  5
60A
100
AcDbEntity
  8
02___PRT_ALL_AXES
100
AcDbSpline
 62
7
  6
CONTINUOUS
 70
0
 71
3
 72
11
 73
7
 74
0
 42
0.0000001
 43
0.0000001
 44
0.0000000001
 40
0.0
 40
0.0
 40
0.0
 40
0.0
 40
0.2787621196
 40
0.5361719524
 40
0.7749661696
 40
1.0
 40
1.0
 40
1.0
 40
1.0
 10
255.1640721514
 20
80.9936926826
 30
0.0
 10
255.0977387472
 20
81.0211364438
 30
0.0
 10
254.9668365019
 20
81.0664960494
 30
0.0
 10
254.7700768134
 20
81.1043322497
 30
0.0
 10
254.5834196882
 20
81.1083011033
 30
0.0
 10
254.4647956694
 20
81.0874500502
 30
0.0
 10
254.4091536229
 20
81.0712573382
 30
0.0
  0
SPLINE
  5
60B
100
AcDbEntity
  8
02___PRT_ALL_AXES
100
AcDbSpline
 62
7
  6
CONTINUOUS
 70
0
 71
3
 72
21
 73
17
 74
0
 42
0.0000001
 43
0.0000001
 44
0.0000000001
 40
0.0
 40
0.0
 40
0.0
 40
0.0
 40
0.054688871
 40
0.1147916695
 40
0.179808437
 40
0.2489392567
 40
0.3951658339
 40
0.5440031095
 40
0.6162805125
 40
0.6854959856
 40
0.7506207291
 40
0.8108442011
 40
0.8656643674
 40
0.9150063521
 40
0.9593739013
 40
1.0
 40
1.0
 40
1.0
 40
1.0
 10
255.1640721514
 20
80.9936926826
 30
0.0
 10
255.2617407747
 20
80.9532847704
 30
0.0
 10
255.4595900033
 20
80.850730396
 30
0.0
 10
255.7447244083
 20
80.6507315979
 30
0.0
 10
256.0265607186
 20
80.4016248586
 30
0.0
 10
256.396020846
 20
80.0042795679
 30
0.0
 10
256.8047384255
 20
79.4270036592
 30
0.0
 10
257.1218634727
 20
78.7883161781
 30
0.0
 10
257.3080160765
 20
78.2583435614
 30
0.0
 10
257.4068431806
 20
77.8708353426
 30
0.0
 10
257.4639891583
 20
77.4984901731
 30
0.0
 10
257.4780995753
 20
77.149709829
 30
0.0
 10
257.4487225189
 20
76.8322419074
 30
0.0
 10
257.3759542938
 20
76.5529099586
 30
0.0
 10
257.2605193686
 20
76.3180584896
 30
0.0
 10
257.1520602125
 20
76.1915004972
 30
0.0
 10
257.0926971642
 20
76.1401083733
 30
0.0
  0
SPLINE
  5
60C
100
AcDbEntity
  8
02___PRT_ALL_AXES
100
AcDbSpline
 62
7
  6
CONTINUOUS
 70
0
 71
3
 72
11
 73
7
 74
0
 42
0.0000001
 43
0.0000001
 44
0.0000000001
 40
0.0
 40
0.0
 40
0.0
 40
0.0
 40
0.2834145412
 40
0.5401616798
 40
0.7759189227
 40
1.0
 40
1.0
 40
1.0
 40
1.0
 10
255.1953579948
 20
80.8190458556
 30
0.0
 10
255.1192875996
 20
80.8505180495
 30
0.0
 10
254.9695606334
 20
80.9001784463
 30
0.0
 10
254.7446473499
 20
80.9305228991
 30
0.0
 10
254.5353781463
 20
80.9110963561
 30
0.0
 10
254.4084255611
 20
80.8636180547
 30
0.0
 10
254.3512534617
 20
80.8325062675
 30
0.0
  0
SPLINE
  5
60D
100
AcDbEntity
  8
02___PRT_ALL_AXES
100
AcDbSpline
 62
7
  6
CONTINUOUS
 70
0
 71
3
 72
21
 73
17
 74
0
 42
0.0000001
 43
0.0000001
 44
0.0000000001
 40
0.0
 40
0.0
 40
0.0
 40
0.0
 40
0.0557404983
 40
0.1172196069
 40
0.1838594656
 40
0.2547348783
 40
0.4042125002
 40
0.5549728009
 40
0.6273889203
 40
0.696074183
 40
0.7599799518
 40
0.8183567504
 40
0.870879371
 40
0.91781306
 40
0.9602067214
 40
1.0
 40
1.0
 40
1.0
 40
1.0
 10
255.1953579948
 20
80.8190458556
 30
0.0
 10
255.2904913381
 20
80.779686851
 30
0.0
 10
255.4832349497
 20
80.678789864
 30
0.0
 10
255.7601700239
 20
80.4808753339
 30
0.0
 10
256.0331345665
 20
80.2336336637
 30
0.0
 10
256.3887343375
 20
79.8395631995
 30
0.0
 10
256.7763517666
 20
79.2699346292
 30
0.0
 10
257.0685697546
 20
78.6430094337
 30
0.0
 10
257.2304089696
 20
78.1281029267
 30
0.0
 10
257.3090676781
 20
77.7570370313
 30
0.0
 10
257.3446886299
 20
77.4053251535
 30
0.0
 10
257.3362799938
 20
77.0815245295
 30
0.0
 10
257.2837281425
 20
76.793337103
 30
0.0
 10
257.1872850436
 20
76.5475000112
 30
0.0
 10
257.047663755
 20
76.3507519014
 30
0.0
 10
256.9252749545
 20
76.2562378287
 30
0.0
 10
256.8607159167
 20
76.2211062337
 30
0.0
  0
SPLINE
  5
60E
100
AcDbEntity
  8
0
100
AcDbSpline
 62
7
  6
CONTINUOUS
 70
0
 71
3
 72
16
 73
12
 74
0
 42
0.0000001
 43
0.0000001
 44
0.0000000001
 40
0.0
 40
0.0
 40
0.0
 40
0.0
 40
0.0868317725
 40
0.1376712623
 40
0.1938288248
 40
0.3206976761
 40
0.4622496129
 40
0.6100278096
 40
0.7545064803
 40
0.8867087823
 40
1.0
 40
1.0
 40
1.0
 40
1.0
 10
211.299214102
 20
52.5942602816
 30
0.0
 10
211.3630392076
 20
52.6643434611
 30
0.0
 10
211.4316585224
 20
52.8053697567
 30
0.0
 10
211.4719342342
 20
53.0130998615
 30
0.0
 10
211.4837512154
 20
53.2691231572
 30
0.0
 10
211.4333324997
 20
53.6227271978
 30
0.0
 10
211.2899225545
 20
54.0558069499
 30
0.0
 10
211.0725149907
 20
54.478596896
 30
0.0
 10
210.7993394545
 20
54.8554133212
 30
0.0
 10
210.4938150987
 20
55.1547088861
 30
0.0
 10
210.2637575033
 20
55.2994516233
 30
0.0
 10
210.1494764673
 20
55.3467324994
 30
0.0
  0
SPLINE
  5
60F
100
AcDbEntity
  8
02___PRT_ALL_AXES
100
AcDbSpline
 62
7
  6
CONTINUOUS
 70
0
 71
3
 72
11
 73
7
 74
0
 42
0.0000001
 43
0.0000001
 44
0.0000000001
 40
0.0
 40
0.0
 40
0.0
 40
0.0
 40
0.2833723697
 40
0.5401780295
 40
0.7759165306
 40
1.0
 40
1.0
 40
1.0
 40
1.0
 10
212.6643946245
 20
57.4101630107
 30
0.0
 10
212.5962924124
 20
57.4383385712
 30
0.0
 10
212.4622201415
 20
57.482787924
 30
0.0
 10
212.2608383919
 20
57.50997069
 30
0.0
 10
212.073449046
 20
57.4925513192
 30
0.0
 10
211.9597938508
 20
57.4500127003
 30
0.0
 10
211.908603964
 20
57.4221521509
 30
0.0
  0
SPLINE
  5
610
100
AcDbEntity
  8
0
100
AcDbSpline
 62
7
  6
CONTINUOUS
 70
0
 71
3
 72
9
 73
5
 74
0
 42
0.0000001
 43
0.0000001
 44
0.0000000001
 40
0.0
 40
0.0
 40
0.0
 40
0.0
 40
0.5327049915
 40
1.0
 40
1.0
 40
1.0
 40
1.0
 10
210.1494764673
 20
55.3467324994
 30
0.0
 10
210.0859152577
 20
55.3730293354
 30
0.0
 10
209.9612301526
 20
55.4112212313
 30
0.0
 10
209.8296065315
 20
55.4137227803
 30
0.0
 10
209.77008532
 20
55.4038154646
 30
0.0
  0
SPLINE
  5
611
100
AcDbEntity
  8
02___PRT_ALL_AXES
100
AcDbSpline
 62
7
  6
CONTINUOUS
 70
0
 71
3
 72
19
 73
15
 74
0
 42
0.0000001
 43
0.0000001
 44
0.0000000001
 40
0.0
 40
0.0
 40
0.0
 40
0.0
 40
0.0557533343
 40
0.1172610611
 40
0.2546388768
 40
0.4041643763
 40
0.554974391
 40
0.6959601741
 40
0.759889639
 40
0.8182882242
 40
0.8708306644
 40
0.9177824558
 40
0.9601923093
 40
1.0
 40
1.0
 40
1.0
 40
1.0
 10
212.6643946245
 20
57.4101630107
 30
0.0
 10
212.7495497496
 20
57.3749322405
 30
0.0
 10
212.9221100507
 20
57.2846110864
 30
0.0
 10
213.2652465084
 20
57.0392460461
 30
0.0
 10
213.670805754
 20
56.6240446206
 30
0.0
 10
214.0797397955
 20
56.0234741011
 30
0.0
 10
214.3890759583
 20
55.3594295013
 30
0.0
 10
214.5444788704
 20
54.7881373976
 30
0.0
 10
214.5885694767
 20
54.3542195818
 30
0.0
 10
214.5810398141
 20
54.064327731
 30
0.0
 10
214.5340171525
 20
53.8063288417
 30
0.0
 10
214.4477004728
 20
53.5862331955
 30
0.0
 10
214.3227383263
 20
53.4100771167
 30
0.0
 10
214.2131959137
 20
53.3254279555
 30
0.0
 10
214.1554026044
 20
53.2939734349
 30
0.0
  0
SPLINE
  5
612
100
AcDbEntity
  8
02___PRT_ALL_AXES
100
AcDbSpline
 62
7
  6
CONTINUOUS
 70
0
 71
3
 72
11
 73
7
 74
0
 42
0.0000001
 43
0.0000001
 44
0.0000000001
 40
0.0
 40
0.0
 40
0.0
 40
0.0
 40
0.2240834694
 40
0.4598219705
 40
0.7166276303
 40
1.0
 40
1.0
 40
1.0
 40
1.0
 10
211.527073265
 20
51.8636376716
 30
0.0
 10
211.4758833782
 20
51.8357771222
 30
0.0
 10
211.362228183
 20
51.7932385032
 30
0.0
 10
211.1748388371
 20
51.7758191325
 30
0.0
 10
210.9734570875
 20
51.8030018985
 30
0.0
 10
210.8393848166
 20
51.8474512513
 30
0.0
 10
210.7712826045
 20
51.8756268118
 30
0.0
  0
SPLINE
  5
613
100
AcDbEntity
  8
02___PRT_ALL_AXES
100
AcDbSpline
 62
7
  6
CONTINUOUS
 70
0
 71
3
 72
19
 73
15
 74
0
 42
0.0000001
 43
0.0000001
 44
0.0000000001
 40
0.0
 40
0.0
 40
0.0
 40
0.0
 40
0.0398076907
 40
0.0822175442
 40
0.1291693356
 40
0.1817117758
 40
0.240110361
 40
0.3040398259
 40
0.445025609
 40
0.5958356237
 40
0.7453611232
 40
0.8827389389
 40
0.9442466657
 40
1.0
 40
1.0
 40
1.0
 40
1.0
 10
209.2802746246
 20
55.9918163876
 30
0.0
 10
209.2224813153
 20
55.960361867
 30
0.0
 10
209.1129389027
 20
55.8757127058
 30
0.0
 10
208.9879767562
 20
55.699556627
 30
0.0
 10
208.9016600765
 20
55.4794609808
 30
0.0
 10
208.8546374149
 20
55.2214620915
 30
0.0
 10
208.8471077523
 20
54.9315702406
 30
0.0
 10
208.8911983586
 20
54.4976524248
 30
0.0
 10
209.0466012706
 20
53.9263603212
 30
0.0
 10
209.3559374335
 20
53.2623157214
 30
0.0
 10
209.764871475
 20
52.6617452019
 30
0.0
 10
210.1704307206
 20
52.2465437764
 30
0.0
 10
210.5135671783
 20
52.0011787361
 30
0.0
 10
210.6861274794
 20
51.910857582
 30
0.0
 10
210.7712826045
 20
51.8756268118
 30
0.0
  0
SPLINE
  5
614
100
AcDbEntity
  8
0
100
AcDbSpline
 62
7
  6
CONTINUOUS
 70
0
 71
3
 72
11
 73
7
 74
0
 42
0.0000001
 43
0.0000001
 44
0.0000000001
 40
0.0
 40
0.0
 40
0.0
 40
0.0
 40
0.2860463401
 40
0.5382587189
 40
0.7696388079
 40
1.0
 40
1.0
 40
1.0
 40
1.0
 10
210.6578714223
 20
52.5087215598
 30
0.0
 10
210.7186623597
 20
52.4835708535
 30
0.0
 10
210.8380622036
 20
52.4466019179
 30
0.0
 10
211.0174929529
 20
52.4392750791
 30
0.0
 10
211.1780284723
 20
52.4876504786
 30
0.0
 10
211.2635405204
 20
52.5550888929
 30
0.0
 10
211.299214102
 20
52.5942602816
 30
0.0
  0
SPLINE
  5
615
100
AcDbEntity
  8
0
100
AcDbSpline
 62
7
  6
CONTINUOUS
 70
0
 71
3
 72
11
 73
7
 74
0
 42
0.0000001
 43
0.0000001
 44
0.0000000001
 40
0.0
 40
0.0
 40
0.0
 40
0.0
 40
0.2422837591
 40
0.4999759695
 40
0.7576834271
 40
1.0
 40
1.0
 40
1.0
 40
1.0
 10
210.7666174178
 20
54.8652090754
 30
0.0
 10
210.784780602
 20
54.7602416079
 30
0.0
 10
210.8437489197
 20
54.5471223562
 30
0.0
 10
210.9816140175
 20
54.2425927316
 30
0.0
 10
211.1623970248
 20
53.9613958649
 30
0.0
 10
211.3092930258
 20
53.7960843548
 30
0.0
 10
211.3875595901
 20
53.7237968076
 30
0.0
  0
SPLINE
  5
616
100
AcDbEntity
  8
02___PRT_ALL_AXES
100
AcDbSpline
 62
7
  6
CONTINUOUS
 70
0
 71
3
 72
11
 73
7
 74
0
 42
0.0000001
 43
0.0000001
 44
0.0000000001
 40
0.0
 40
0.0
 40
0.0
 40
0.0
 40
0.2833723697
 40
0.5401780295
 40
0.7759165306
 40
1.0
 40
1.0
 40
1.0
 40
1.0
 10
210.036065285
 20
55.9798272474
 30
0.0
 10
209.9679630729
 20
56.0080028079
 30
0.0
 10
209.8338908021
 20
56.0524521607
 30
0.0
 10
209.6325090524
 20
56.0796349267
 30
0.0
 10
209.4451197065
 20
56.0622155559
 30
0.0
 10
209.3314645113
 20
56.019676937
 30
0.0
 10
209.2802746246
 20
55.9918163876
 30
0.0
  0
SPLINE
  5
617
100
AcDbEntity
  8
0
100
AcDbSpline
 62
7
  6
CONTINUOUS
 70
0
 71
3
 72
18
 73
14
 74
0
 42
0.0000001
 43
0.0000001
 44
0.0000000001
 40
0.0
 40
0.0
 40
0.0
 40
0.0
 40
0.0408841519
 40
0.0816600004
 40
0.1253614537
 40
0.1741916266
 40
0.2292450166
 40
0.290675286
 40
0.4298400611
 40
0.5828315303
 40
0.7369961556
 40
0.8794144253
 40
1.0
 40
1.0
 40
1.0
 40
1.0
 10
209.77008532
 20
55.4038154646
 30
0.0
 10
209.7219839143
 20
55.3958089775
 30
0.0
 10
209.6274322694
 20
55.364929306
 30
0.0
 10
209.5070163726
 20
55.2718203013
 30
0.0
 10
209.4163121875
 20
55.1385700081
 30
0.0
 10
209.356635876
 20
54.9714251564
 30
0.0
 10
209.3280390139
 20
54.7753105176
 30
0.0
 10
209.3318630785
 20
54.4694611787
 30
0.0
 10
209.4199773544
 20
54.0530171966
 30
0.0
 10
209.6266266339
 20
53.5597959532
 30
0.0
 10
209.9172920778
 20
53.1055726843
 30
0.0
 10
210.2590696178
 20
52.7404597949
 30
0.0
 10
210.5249720592
 20
52.5637052958
 30
0.0
 10
210.6578714223
 20
52.5087215598
 30
0.0
  0
SPLINE
  5
618
100
AcDbEntity
  8
02___PRT_ALL_AXES
100
AcDbSpline
 62
7
  6
CONTINUOUS
 70
0
 71
3
 72
19
 73
15
 74
0
 42
0.0000001
 43
0.0000001
 44
0.0000000001
 40
0.0
 40
0.0
 40
0.0
 40
0.0
 40
0.0557533343
 40
0.1172610611
 40
0.2546388768
 40
0.4041643763
 40
0.554974391
 40
0.6959601741
 40
0.759889639
 40
0.8182882242
 40
0.8708306644
 40
0.9177824558
 40
0.9601923093
 40
1.0
 40
1.0
 40
1.0
 40
1.0
 10
210.036065285
 20
55.9798272474
 30
0.0
 10
210.1212204101
 20
55.9445964772
 30
0.0
 10
210.2937807112
 20
55.8542753231
 30
0.0
 10
210.6369171689
 20
55.6089102828
 30
0.0
 10
211.0424764146
 20
55.1937088573
 30
0.0
 10
211.451410456
 20
54.5931383378
 30
0.0
 10
211.7607466189
 20
53.929093738
 30
0.0
 10
211.9161495309
 20
53.3578016344
 30
0.0
 10
211.9602401372
 20
52.9238838186
 30
0.0
 10
211.9527104746
 20
52.6339919677
 30
0.0
 10
211.905687813
 20
52.3759930784
 30
0.0
 10
211.8193711334
 20
52.1558974322
 30
0.0
 10
211.6944089868
 20
51.9797413534
 30
0.0
 10
211.5848665742
 20
51.8950921922
 30
0.0
 10
211.527073265
 20
51.8636376716
 30
0.0
  0
SPLINE
  5
619
100
AcDbEntity
  8
0
100
AcDbSpline
 62
7
  6
CONTINUOUS
 70
0
 71
3
 72
11
 73
7
 74
0
 42
0.0000001
 43
0.0000001
 44
0.0000000001
 40
0.0
 40
0.0
 40
0.0
 40
0.0
 40
0.2790471596
 40
0.5346811386
 40
0.7722571146
 40
1.0
 40
1.0
 40
1.0
 40
1.0
 10
234.6537616427
 20
70.8362743334
 30
0.0
 10
234.5562539432
 20
70.8699660217
 30
0.0
 10
234.3643447691
 20
70.9213864234
 30
0.0
 10
234.0780375266
 20
70.9452120438
 30
0.0
 10
233.8115363899
 20
70.9105214176
 30
0.0
 10
233.6492943459
 20
70.8473136079
 30
0.0
 10
233.5753401115
 20
70.8070654686
 30
0.0
  0
SPLINE
  5
61A
100
AcDbEntity
  8
0
100
AcDbSpline
 62
7
  6
CONTINUOUS
 70
0
 71
3
 72
13
 73
9
 74
0
 42
0.0000001
 43
0.0000001
 44
0.0000000001
 40
0.0
 40
0.0
 40
0.0
 40
0.0
 40
0.2565224741
 40
0.3758350137
 40
0.4928077348
 40
0.6108019355
 40
0.7330727204
 40
1.0
 40
1.0
 40
1.0
 40
1.0
 10
232.6569566893
 20
70.3140898216
 30
0.0
 10
232.7206863521
 20
70.4601030815
 30
0.0
 10
232.8451826348
 20
70.6643928397
 30
0.0
 10
233.0730017431
 20
70.8712570106
 30
0.0
 10
233.263239714
 20
70.9848309966
 30
0.0
 10
233.4740789881
 20
71.0585292251
 30
0.0
 10
233.7873450458
 20
71.1040166613
 30
0.0
 10
234.0323403568
 20
71.0733937491
 30
0.0
 10
234.1930905445
 20
71.0328788007
 30
0.0
  0
SPLINE
  5
61B
100
AcDbEntity
  8
0
100
AcDbSpline
 62
7
  6
CONTINUOUS
 70
0
 71
3
 72
10
 73
6
 74
0
 42
0.0000001
 43
0.0000001
 44
0.0000000001
 40
0.0
 40
0.0
 40
0.0
 40
0.0
 40
0.234851003
 40
0.4763254582
 40
1.0
 40
1.0
 40
1.0
 40
1.0
 10
219.7564469842
 20
41.1498556662
 30
0.0
 10
219.7654820516
 20
41.0994061621
 30
0.0
 10
219.7938575594
 20
40.9985983958
 30
0.0
 10
219.8917043919
 20
40.8024284987
 30
0.0
 10
220.0053494374
 20
40.6752375634
 30
0.0
 10
220.091414778
 20
40.6000488601
 30
0.0
  0
SPLINE
  5
61C
100
AcDbEntity
  8
0
100
AcDbSpline
 62
7
  6
CONTINUOUS
 70
0
 71
3
 72
9
 73
5
 74
0
 42
0.0000001
 43
0.0000001
 44
0.0000000001
 40
0.0
 40
0.0
 40
0.0
 40
0.0
 40
0.2384959521
 40
1.0
 40
1.0
 40
1.0
 40
1.0
 10
220.091414778
 20
40.6000488601
 30
0.0
 10
220.110933806
 20
40.5829965787
 30
0.0
 10
220.1947793528
 20
40.5137962655
 30
0.0
 10
220.2859134661
 20
40.4536597179
 30
0.0
 10
220.357626529
 20
40.4123573723
 30
0.0
  0
SPLINE
  5
61D
100
AcDbEntity
  8
0
100
AcDbSpline
 62
7
  6
CONTINUOUS
 70
0
 71
3
 72
14
 73
10
 74
0
 42
0.0000001
 43
0.0000001
 44
0.0000000001
 40
0.0
 40
0.0
 40
0.0
 40
0.0
 40
0.1465145462
 40
0.2800884727
 40
0.4028667442
 40
0.5184098836
 40
0.6312697455
 40
0.7464372215
 40
1.0
 40
1.0
 40
1.0
 40
1.0
 10
220.0618863006
 20
40.5633399705
 30
0.0
 10
219.9846253557
 20
40.6079190338
 30
0.0
 10
219.8418642272
 20
40.7023571466
 30
0.0
 10
219.6597213656
 20
40.8683143666
 30
0.0
 10
219.522618645
 20
41.0504536466
 30
0.0
 10
219.4333184643
 20
41.2467953462
 30
0.0
 10
219.3941212239
 20
41.4544047544
 30
0.0
 10
219.410083856
 20
41.7495701806
 30
0.0
 10
219.4993736742
 20
41.963589925
 30
0.0
 10
219.5786009402
 20
42.0960798994
 30
0.0
  0
SPLINE
  5
61E
100
AcDbEntity
  8
0
100
AcDbSpline
 62
7
  6
CONTINUOUS
 70
0
 71
3
 72
17
 73
13
 74
0
 42
0.0000001
 43
0.0000001
 44
0.0000000001
 40
0.0
 40
0.0
 40
0.0
 40
0.0
 40
0.0504073289
 40
0.1017528793
 40
0.1548512156
 40
0.2103048928
 40
0.3291237505
 40
0.4585077205
 40
0.5953370914
 40
0.734720763
 40
0.8712108764
 40
1.0
 40
1.0
 40
1.0
 40
1.0
 10
246.263183855
 20
76.869725275
 30
0.0
 10
246.1603553742
 20
76.9122614079
 30
0.0
 10
245.9435200895
 20
76.9773516442
 30
0.0
 10
245.6011960038
 20
77.0097307367
 30
0.0
 10
245.2477619601
 20
76.9770918837
 30
0.0
 10
244.7611808601
 20
76.8455939341
 30
0.0
 10
244.1648306118
 20
76.5177504486
 30
0.0
 10
243.5428530433
 20
75.9275271942
 30
0.0
 10
243.0401004846
 20
75.1784577891
 30
0.0
 10
242.6948713098
 20
74.3283760162
 30
0.0
 10
242.5332926839
 20
73.4434711729
 30
0.0
 10
242.5584993883
 20
72.8515356182
 30
0.0
 10
242.6086327796
 20
72.5716762064
 30
0.0
  0
SPLINE
  5
61F
100
AcDbEntity
  8
0
100
AcDbSpline
 62
7
  6
CONTINUOUS
 70
0
 71
3
 72
17
 73
13
 74
0
 42
0.0000001
 43
0.0000001
 44
0.0000000001
 40
0.0
 40
0.0
 40
0.0
 40
0.0
 40
0.0504073289
 40
0.1017528793
 40
0.1548512156
 40
0.2103048928
 40
0.3291237505
 40
0.4585077205
 40
0.5953370914
 40
0.734720763
 40
0.8712108764
 40
1.0
 40
1.0
 40
1.0
 40
1.0
 10
248.2732992925
 20
65.6486666372
 30
0.0
 10
248.1704708117
 20
65.6912027702
 30
0.0
 10
247.953635527
 20
65.7562930065
 30
0.0
 10
247.6113114413
 20
65.7886720989
 30
0.0
 10
247.2578773976
 20
65.756033246
 30
0.0
 10
246.7712962976
 20
65.6245352964
 30
0.0
 10
246.1749460493
 20
65.2966918108
 30
0.0
 10
245.5529684808
 20
64.7064685565
 30
0.0
 10
245.0502159221
 20
63.9573991513
 30
0.0
 10
244.7049867473
 20
63.1073173785
 30
0.0
 10
244.5434081214
 20
62.2224125351
 30
0.0
 10
244.5686148258
 20
61.6304769805
 30
0.0
 10
244.6187482171
 20
61.3506175686
 30
0.0
  0
SPLINE
  5
620
100
AcDbEntity
  8
0
100
AcDbSpline
 62
7
  6
CONTINUOUS
 70
0
 71
3
 72
11
 73
7
 74
0
 42
0.0000001
 43
0.0000001
 44
0.0000000001
 40
0.0
 40
0.0
 40
0.0
 40
0.0
 40
0.2739028569
 40
0.5292479579
 40
0.7690971276
 40
1.0
 40
1.0
 40
1.0
 40
1.0
 10
244.6187482171
 20
61.3506175686
 30
0.0
 10
244.6529956686
 20
61.1594381696
 30
0.0
 10
244.7537751746
 20
60.7947650403
 30
0.0
 10
245.0128488474
 20
60.3091842489
 30
0.0
 10
245.3655675884
 20
59.9258462056
 30
0.0
 10
245.656534749
 20
59.7510590155
 30
0.0
 10
245.8078326388
 20
59.688472978
 30
0.0
  0
SPLINE
  5
621
100
AcDbEntity
  8
0
100
AcDbSpline
 62
7
  6
CONTINUOUS
 70
0
 71
3
 72
11
 73
7
 74
0
 42
0.0000001
 43
0.0000001
 44
0.0000000001
 40
0.0
 40
0.0
 40
0.0
 40
0.0
 40
0.2739028569
 40
0.5292479579
 40
0.7690971276
 40
1.0
 40
1.0
 40
1.0
 40
1.0
 10
242.6086327796
 20
72.5716762064
 30
0.0
 10
242.6428802311
 20
72.3804968073
 30
0.0
 10
242.7436597371
 20
72.0158236781
 30
0.0
 10
243.0027334099
 20
71.5302428866
 30
0.0
 10
243.355452151
 20
71.1469048434
 30
0.0
 10
243.6464193115
 20
70.9721176533
 30
0.0
 10
243.7977172013
 20
70.9095316158
 30
0.0
  0
SPLINE
  5
622
100
AcDbEntity
  8
0
100
AcDbSpline
 62
7
  6
CONTINUOUS
 70
0
 71
3
 72
11
 73
7
 74
0
 42
0.0000001
 43
0.0000001
 44
0.0000000001
 40
0.0
 40
0.0
 40
0.0
 40
0.0
 40
0.226046159
 40
0.4627901764
 40
0.718891563
 40
1.0
 40
1.0
 40
1.0
 40
1.0
 10
237.1603574388
 20
64.219376278
 30
0.0
 10
237.2378873846
 20
64.2615704279
 30
0.0
 10
237.385701073
 20
64.3696676177
 30
0.0
 10
237.5651619098
 20
64.5887892777
 30
0.0
 10
237.7021600517
 20
64.8604066731
 30
0.0
 10
237.7613741343
 20
65.0627973291
 30
0.0
 10
237.7845923311
 20
65.1700827672
 30
0.0
  0
SPLINE
  5
623
100
AcDbEntity
  8
0
100
AcDbSpline
 62
7
  6
CONTINUOUS
 70
0
 71
3
 72
15
 73
11
 74
0
 42
0.0000001
 43
0.0000001
 44
0.0000000001
 40
0.0
 40
0.0
 40
0.0
 40
0.0
 40
0.1106919379
 40
0.2340220013
 40
0.3664155377
 40
0.5033164798
 40
0.6397451957
 40
0.7707657576
 40
0.8919638168
 40
1.0
 40
1.0
 40
1.0
 40
1.0
 10
234.8346528061
 20
70.7674487098
 30
0.0
 10
235.0467961688
 20
70.6473984744
 30
0.0
 10
235.4684003158
 20
70.3452853056
 30
0.0
 10
236.0452098763
 20
69.7777127944
 30
0.0
 10
236.5787885198
 20
69.0945035609
 30
0.0
 10
237.0429047799
 20
68.3287559267
 30
0.0
 10
237.4151138469
 20
67.5176739349
 30
0.0
 10
237.6773386392
 20
66.700519701
 30
0.0
 10
237.8170597858
 20
65.9171176209
 30
0.0
 10
237.82438906
 20
65.4087735912
 30
0.0
 10
237.8009827375
 20
65.1720203093
 30
0.0
  0
SPLINE
  5
624
100
AcDbEntity
  8
0
100
AcDbSpline
 62
7
  6
CONTINUOUS
 70
0
 71
3
 72
13
 73
9
 74
0
 42
0.0000001
 43
0.0000001
 44
0.0000000001
 40
0.0
 40
0.0
 40
0.0
 40
0.0
 40
0.2257829323
 40
0.351301437
 40
0.4823775661
 40
0.6160869989
 40
0.749147589
 40
1.0
 40
1.0
 40
1.0
 40
1.0
 10
242.5688710076
 20
73.3222991793
 30
0.0
 10
242.7738783865
 20
73.3705628017
 30
0.0
 10
243.073111304
 20
73.5371091106
 30
0.0
 10
243.3901125739
 20
73.857410402
 30
0.0
 10
243.5989135686
 20
74.1581840426
 30
0.0
 10
243.7581187889
 20
74.4953913307
 30
0.0
 10
243.8917417175
 20
74.9603836605
 30
0.0
 10
243.9049224777
 20
75.3289619758
 30
0.0
 10
243.8636615931
 20
75.5592924319
 30
0.0
  0
SPLINE
  5
625
100
AcDbEntity
  8
0
100
AcDbSpline
 62
7
  6
CONTINUOUS
 70
0
 71
3
 72
11
 73
7
 74
0
 42
0.0000001
 43
0.0000001
 44
0.0000000001
 40
0.0
 40
0.0
 40
0.0
 40
0.0
 40
0.2739028569
 40
0.5292479579
 40
0.7690971276
 40
1.0
 40
1.0
 40
1.0
 40
1.0
 10
249.4623837142
 20
63.9865220467
 30
0.0
 10
249.4281362627
 20
64.1777014457
 30
0.0
 10
249.3273567567
 20
64.542374575
 30
0.0
 10
249.0682830839
 20
65.0279553664
 30
0.0
 10
248.7155643429
 20
65.4112934096
 30
0.0
 10
248.4245971823
 20
65.5860805997
 30
0.0
 10
248.2732992925
 20
65.6486666372
 30
0.0
  0
SPLINE
  5
626
100
AcDbEntity
  8
0
100
AcDbSpline
 62
7
  6
CONTINUOUS
 70
0
 71
3
 72
15
 73
11
 74
0
 42
0.0000001
 43
0.0000001
 44
0.0000000001
 40
0.0
 40
0.0
 40
0.0
 40
0.0
 40
0.151203689
 40
0.2894018575
 40
0.415946514
 40
0.5334686291
 40
0.6458891907
 40
0.7580031612
 40
0.8746714285
 40
1.0
 40
1.0
 40
1.0
 40
1.0
 10
237.8009827375
 20
65.1720203093
 30
0.0
 10
237.7889700514
 20
65.0505128471
 30
0.0
 10
237.7522113386
 20
64.8189001773
 30
0.0
 10
237.6511784889
 20
64.4971044019
 30
0.0
 10
237.5075300369
 20
64.2217119913
 30
0.0
 10
237.3225327908
 20
63.9979689931
 30
0.0
 10
237.098712462
 20
63.8312789751
 30
0.0
 10
236.8408802855
 20
63.7261829724
 30
0.0
 10
236.5554994016
 20
63.6846216935
 30
0.0
 10
236.3590936028
 20
63.698361205
 30
0.0
 10
236.2591156598
 20
63.7140742568
 30
0.0
  0
SPLINE
  5
627
100
AcDbEntity
  8
0
100
AcDbSpline
 62
7
  6
CONTINUOUS
 70
0
 71
3
 72
9
 73
5
 74
0
 42
0.0000001
 43
0.0000001
 44
0.0000000001
 40
0.0
 40
0.0
 40
0.0
 40
0.0
 40
0.2391436876
 40
1.0
 40
1.0
 40
1.0
 40
1.0
 10
243.686576229
 20
76.0345265958
 30
0.0
 10
243.7081062083
 20
76.00014054
 30
0.0
 10
243.7903026488
 20
75.8514708649
 30
0.0
 10
243.840901232
 20
75.6863474964
 30
0.0
 10
243.8636615931
 20
75.5592924319
 30
0.0
  0
SPLINE
  5
628
100
AcDbEntity
  8
0
100
AcDbSpline
 62
7
  6
CONTINUOUS
 70
0
 71
3
 72
11
 73
7
 74
0
 42
0.0000001
 43
0.0000001
 44
0.0000000001
 40
0.0
 40
0.0
 40
0.0
 40
0.0
 40
0.2739028569
 40
0.5292479579
 40
0.7690971276
 40
1.0
 40
1.0
 40
1.0
 40
1.0
 10
247.4522682767
 20
75.2075806844
 30
0.0
 10
247.4180208252
 20
75.3987600834
 30
0.0
 10
247.3172413192
 20
75.7634332127
 30
0.0
 10
247.0581676464
 20
76.2490140041
 30
0.0
 10
246.7054489054
 20
76.6323520474
 30
0.0
 10
246.4144817448
 20
76.8071392375
 30
0.0
 10
246.263183855
 20
76.869725275
 30
0.0
  0
SPLINE
  5
629
100
AcDbEntity
  8
0
100
AcDbSpline
 62
7
  6
CONTINUOUS
 70
0
 71
3
 72
17
 73
13
 74
0
 42
0.0000001
 43
0.0000001
 44
0.0000000001
 40
0.0
 40
0.0
 40
0.0
 40
0.0
 40
0.0504073289
 40
0.1017528793
 40
0.1548512156
 40
0.2103048928
 40
0.3291237505
 40
0.4585077205
 40
0.5953370914
 40
0.734720763
 40
0.8712108764
 40
1.0
 40
1.0
 40
1.0
 40
1.0
 10
243.7977172013
 20
70.9095316158
 30
0.0
 10
243.9005456821
 20
70.8669954829
 30
0.0
 10
244.1173809668
 20
70.8019052466
 30
0.0
 10
244.4597050525
 20
70.7695261541
 30
0.0
 10
244.8131390962
 20
70.8021650071
 30
0.0
 10
245.2997201962
 20
70.9336629566
 30
0.0
 10
245.8960704445
 20
71.2615064422
 30
0.0
 10
246.5180480131
 20
71.8517296966
 30
0.0
 10
247.0208005717
 20
72.6007991017
 30
0.0
 10
247.3660297465
 20
73.4508808745
 30
0.0
 10
247.5276083724
 20
74.3357857179
 30
0.0
 10
247.502401668
 20
74.9277212725
 30
0.0
 10
247.4522682767
 20
75.2075806844
 30
0.0
  0
SPLINE
  5
62A
100
AcDbEntity
  8
0
100
AcDbSpline
 62
7
  6
CONTINUOUS
 70
0
 71
3
 72
9
 73
5
 74
0
 42
0.0000001
 43
0.0000001
 44
0.0000000001
 40
0.0
 40
0.0
 40
0.0
 40
0.0
 40
0.2391436876
 40
1.0
 40
1.0
 40
1.0
 40
1.0
 10
245.6966916665
 20
64.8134679581
 30
0.0
 10
245.7182216458
 20
64.7790819022
 30
0.0
 10
245.8004180863
 20
64.6304122272
 30
0.0
 10
245.8510166695
 20
64.4652888586
 30
0.0
 10
245.8737770306
 20
64.3382337941
 30
0.0
  0
SPLINE
  5
62B
100
AcDbEntity
  8
0
100
AcDbSpline
 62
7
  6
CONTINUOUS
 70
0
 71
3
 72
17
 73
13
 74
0
 42
0.0000001
 43
0.0000001
 44
0.0000000001
 40
0.0
 40
0.0
 40
0.0
 40
0.0
 40
0.0504073289
 40
0.1017528793
 40
0.1548512156
 40
0.2103048928
 40
0.3291237505
 40
0.4585077205
 40
0.5953370914
 40
0.734720763
 40
0.8712108764
 40
1.0
 40
1.0
 40
1.0
 40
1.0
 10
245.8078326388
 20
59.688472978
 30
0.0
 10
245.9106611196
 20
59.6459368451
 30
0.0
 10
246.1274964043
 20
59.5808466088
 30
0.0
 10
246.46982049
 20
59.5484675163
 30
0.0
 10
246.8232545337
 20
59.5811063693
 30
0.0
 10
247.3098356337
 20
59.7126043189
 30
0.0
 10
247.906185882
 20
60.0404478044
 30
0.0
 10
248.5281634505
 20
60.6306710588
 30
0.0
 10
249.0309160092
 20
61.3797404639
 30
0.0
 10
249.376145184
 20
62.2298222368
 30
0.0
 10
249.5377238099
 20
63.1147270801
 30
0.0
 10
249.5125171055
 20
63.7066626348
 30
0.0
 10
249.4623837142
 20
63.9865220467
 30
0.0
  0
SPLINE
  5
62C
100
AcDbEntity
  8
0
100
AcDbSpline
 62
7
  6
CONTINUOUS
 70
0
 71
3
 72
9
 73
5
 74
0
 42
0.0000001
 43
0.0000001
 44
0.0000000001
 40
0.0
 40
0.0
 40
0.0
 40
0.0
 40
0.2426937269
 40
1.0
 40
1.0
 40
1.0
 40
1.0
 10
244.850041923
 20
76.8504267165
 30
0.0
 10
244.8724695375
 20
76.8004110098
 30
0.0
 10
244.9579795984
 20
76.5912586172
 30
0.0
 10
245.0162497227
 20
76.3713059703
 30
0.0
 10
245.0464097958
 20
76.2029435254
 30
0.0
  0
SPLINE
  5
62D
100
AcDbEntity
  8
0
100
AcDbSpline
 62
7
  6
CONTINUOUS
 70
0
 71
3
 72
13
 73
9
 74
0
 42
0.0000001
 43
0.0000001
 44
0.0000000001
 40
0.0
 40
0.0
 40
0.0
 40
0.0
 40
0.2313603954
 40
0.3578735975
 40
0.4886921952
 40
0.6211555044
 40
0.7524133605
 40
1.0
 40
1.0
 40
1.0
 40
1.0
 10
244.8240910968
 20
60.701856295
 30
0.0
 10
245.195826326
 20
60.8443287282
 30
0.0
 10
245.7204591935
 20
61.2055813273
 30
0.0
 10
246.2729696427
 20
61.8411744739
 30
0.0
 10
246.6292011011
 20
62.4131913056
 30
0.0
 10
246.896996552
 20
63.0401437632
 30
0.0
 10
247.1170092124
 20
63.8936314941
 30
0.0
 10
247.1316462108
 20
64.5625373828
 30
0.0
 10
247.0565252333
 20
64.9818848876
 30
0.0
  0
SPLINE
  5
62E
100
AcDbEntity
  8
0
100
AcDbSpline
 62
7
  6
CONTINUOUS
 70
0
 71
3
 72
13
 73
9
 74
0
 42
0.0000001
 43
0.0000001
 44
0.0000000001
 40
0.0
 40
0.0
 40
0.0
 40
0.0
 40
0.2257829323
 40
0.351301437
 40
0.4823775661
 40
0.6160869989
 40
0.749147589
 40
1.0
 40
1.0
 40
1.0
 40
1.0
 10
244.5789864451
 20
62.1012405415
 30
0.0
 10
244.783993824
 20
62.1495041639
 30
0.0
 10
245.0832267414
 20
62.3160504728
 30
0.0
 10
245.4002280114
 20
62.6363517642
 30
0.0
 10
245.6090290061
 20
62.9371254048
 30
0.0
 10
245.7682342264
 20
63.2743326929
 30
0.0
 10
245.901857155
 20
63.7393250227
 30
0.0
 10
245.9150379152
 20
64.107903338
 30
0.0
 10
245.8737770306
 20
64.3382337941
 30
0.0
  0
SPLINE
  5
62F
100
AcDbEntity
  8
0
100
AcDbSpline
 62
7
  6
CONTINUOUS
 70
0
 71
3
 72
9
 73
5
 74
0
 42
0.0000001
 43
0.0000001
 44
0.0000000001
 40
0.0
 40
0.0
 40
0.0
 40
0.0
 40
0.2426937269
 40
1.0
 40
1.0
 40
1.0
 40
1.0
 10
246.8601573605
 20
65.6293680788
 30
0.0
 10
246.882584975
 20
65.579352372
 30
0.0
 10
246.9680950358
 20
65.3701999794
 30
0.0
 10
247.0263651601
 20
65.1502473326
 30
0.0
 10
247.0565252333
 20
64.9818848876
 30
0.0
  0
SPLINE
  5
630
100
AcDbEntity
  8
0
100
AcDbSpline
 62
7
  6
CONTINUOUS
 70
0
 71
3
 72
13
 73
9
 74
0
 42
0.0000001
 43
0.0000001
 44
0.0000000001
 40
0.0
 40
0.0
 40
0.0
 40
0.0
 40
0.2313603954
 40
0.3578735975
 40
0.4886921952
 40
0.6211555044
 40
0.7524133605
 40
1.0
 40
1.0
 40
1.0
 40
1.0
 10
242.8139756594
 20
71.9229149328
 30
0.0
 10
243.1857108885
 20
72.0653873659
 30
0.0
 10
243.710343756
 20
72.4266399651
 30
0.0
 10
244.2628542052
 20
73.0622331117
 30
0.0
 10
244.6190856637
 20
73.6342499433
 30
0.0
 10
244.8868811145
 20
74.261202401
 30
0.0
 10
245.1068937749
 20
75.1146901319
 30
0.0
 10
245.1215307733
 20
75.7835960205
 30
0.0
 10
245.0464097958
 20
76.2029435254
 30
0.0
  0
SPLINE
  5
631
100
AcDbEntity
  8
0
100
AcDbSpline
 62
7
  6
CONTINUOUS
 70
0
 71
3
 72
11
 73
7
 74
0
 42
0.0000001
 43
0.0000001
 44
0.0000000001
 40
0.0
 40
0.0
 40
0.0
 40
0.0
 40
0.2347776163
 40
0.4764286966
 40
0.7304154511
 40
1.0
 40
1.0
 40
1.0
 40
1.0
 10
226.2426546761
 20
33.7016922541
 30
0.0
 10
226.1123974546
 20
33.7555746918
 30
0.0
 10
225.8328281122
 20
33.8312759818
 30
0.0
 10
225.390359506
 20
33.8385171865
 30
0.0
 10
224.9376483476
 20
33.7419376196
 30
0.0
 10
224.6476084781
 20
33.61514521
 30
0.0
 10
224.5054371815
 20
33.5377756479
 30
0.0
  0
SPLINE
  5
632
100
AcDbEntity
  8
0
100
AcDbSpline
 62
7
  6
CONTINUOUS
 70
0
 71
3
 72
11
 73
7
 74
0
 42
0.0000001
 43
0.0000001
 44
0.0000000001
 40
0.0
 40
0.0
 40
0.0
 40
0.0
 40
0.2347776163
 40
0.4764286966
 40
0.7304154511
 40
1.0
 40
1.0
 40
1.0
 40
1.0
 10
235.8923781082
 20
38.9530678421
 30
0.0
 10
235.7621208867
 20
39.0069502799
 30
0.0
 10
235.4825515443
 20
39.0826515698
 30
0.0
 10
235.0400829381
 20
39.0898927745
 30
0.0
 10
234.5873717797
 20
38.9933132077
 30
0.0
 10
234.2973319102
 20
38.8665207981
 30
0.0
 10
234.1551606136
 20
38.789151236
 30
0.0
  0
SPLINE
  5
633
100
AcDbEntity
  8
0
100
AcDbSpline
 62
7
  6
CONTINUOUS
 70
0
 71
3
 72
18
 73
14
 74
0
 42
0.0000001
 43
0.0000001
 44
0.0000000001
 40
0.0
 40
0.0
 40
0.0
 40
0.0
 40
0.258026883
 40
0.3276528104
 40
0.3977310081
 40
0.5359858782
 40
0.6673385828
 40
0.7292487758
 40
0.7882202018
 40
0.8443003951
 40
0.8978262171
 40
0.9494306198
 40
1.0
 40
1.0
 40
1.0
 40
1.0
 10
234.1551606136
 20
38.789151236
 30
0.0
 10
233.6310178798
 20
38.5039129723
 30
0.0
 10
233.073481816
 20
37.9267735794
 30
0.0
 10
232.6251062595
 20
37.12521238
 30
0.0
 10
232.3728137107
 20
36.5322379969
 30
0.0
 10
232.183416994
 20
35.7633784426
 30
0.0
 10
232.1722516732
 20
34.9882565834
 30
0.0
 10
232.2807928294
 20
34.4133719889
 30
0.0
 10
232.4147472122
 20
34.0249419657
 30
0.0
 10
232.6001593273
 20
33.6798878104
 30
0.0
 10
232.8334226816
 20
33.3862373792
 30
0.0
 10
233.1094251806
 20
33.1513768036
 30
0.0
 10
233.3188427411
 20
33.0375784039
 30
0.0
 10
233.4269115682
 20
32.9928744576
 30
0.0
  0
SPLINE
  5
634
100
AcDbEntity
  8
0
100
AcDbSpline
 62
7
  6
CONTINUOUS
 70
0
 71
3
 72
18
 73
14
 74
0
 42
0.0000001
 43
0.0000001
 44
0.0000000001
 40
0.0
 40
0.0
 40
0.0
 40
0.0
 40
0.258026883
 40
0.3276528104
 40
0.3977310081
 40
0.5359858782
 40
0.6673385828
 40
0.7292487758
 40
0.7882202018
 40
0.8443003951
 40
0.8978262171
 40
0.9494306198
 40
1.0
 40
1.0
 40
1.0
 40
1.0
 10
224.5054371815
 20
33.5377756479
 30
0.0
 10
223.9812944477
 20
33.2525373842
 30
0.0
 10
223.4237583839
 20
32.6753979914
 30
0.0
 10
222.9753828274
 20
31.873836792
 30
0.0
 10
222.7230902786
 20
31.2808624089
 30
0.0
 10
222.5336935619
 20
30.5120028545
 30
0.0
 10
222.5225282411
 20
29.7368809954
 30
0.0
 10
222.6310693973
 20
29.1619964009
 30
0.0
 10
222.7650237801
 20
28.7735663777
 30
0.0
 10
222.9504358952
 20
28.4285122224
 30
0.0
 10
223.1836992495
 20
28.1348617912
 30
0.0
 10
223.4597017485
 20
27.9000012155
 30
0.0
 10
223.669119309
 20
27.7862028159
 30
0.0
 10
223.7771881361
 20
27.7414988695
 30
0.0
  0
SPLINE
  5
635
100
AcDbEntity
  8
0
100
AcDbSpline
 62
7
  6
CONTINUOUS
 70
0
 71
3
 72
15
 73
11
 74
0
 42
0.0000001
 43
0.0000001
 44
0.0000000001
 40
0.0
 40
0.0
 40
0.0
 40
0.0
 40
0.0998336939
 40
0.2159345667
 40
0.344963595
 40
0.4821144022
 40
0.6218019413
 40
0.7582147146
 40
0.885829537
 40
1.0
 40
1.0
 40
1.0
 40
1.0
 10
226.9769630525
 20
41.7259802538
 30
0.0
 10
226.8263280876
 20
41.5626963433
 30
0.0
 10
226.4537381034
 20
41.2526090589
 30
0.0
 10
225.7867614472
 20
40.8679751672
 30
0.0
 10
224.9978510874
 20
40.5437899511
 30
0.0
 10
224.1272146559
 20
40.297174255
 30
0.0
 10
223.2193296715
 20
40.1407619511
 30
0.0
 10
222.3209545482
 20
40.0827116229
 30
0.0
 10
221.4785927955
 20
40.1256755494
 30
0.0
 10
220.9473239915
 20
40.2267074831
 30
0.0
 10
220.7034485622
 20
40.2979098795
 30
0.0
  0
SPLINE
  5
636
100
AcDbEntity
  8
0
100
AcDbSpline
 62
7
  6
CONTINUOUS
 70
0
 71
3
 72
10
 73
6
 74
0
 42
0.0000001
 43
0.0000001
 44
0.0000000001
 40
0.0
 40
0.0
 40
0.0
 40
0.0
 40
0.530055977
 40
0.7693144318
 40
1.0
 40
1.0
 40
1.0
 40
1.0
 10
226.9564463821
 20
41.7412630665
 30
0.0
 10
227.0304991788
 20
41.8552784633
 30
0.0
 10
227.1184092219
 20
42.0375476316
 30
0.0
 10
227.1572489763
 20
42.292631179
 30
0.0
 10
227.1493480136
 20
42.4140944683
 30
0.0
 10
227.1389174468
 20
42.4723360839
 30
0.0
  0
SPLINE
  5
637
100
AcDbEntity
  8
0
100
AcDbSpline
 62
7
  6
CONTINUOUS
 70
0
 71
3
 72
18
 73
14
 74
0
 42
0.0000001
 43
0.0000001
 44
0.0000000001
 40
0.0
 40
0.0
 40
0.0
 40
0.0
 40
0.258026883
 40
0.3276528104
 40
0.3977310081
 40
0.5359858782
 40
0.6673385828
 40
0.7292487758
 40
0.7882202018
 40
0.8443003951
 40
0.8978262171
 40
0.9494306198
 40
1.0
 40
1.0
 40
1.0
 40
1.0
 10
235.1641290628
 20
33.1567910637
 30
0.0
 10
235.6882717965
 20
33.4420293274
 30
0.0
 10
236.2458078603
 20
34.0191687203
 30
0.0
 10
236.6941834169
 20
34.8207299197
 30
0.0
 10
236.9464759657
 20
35.4137043028
 30
0.0
 10
237.1358726824
 20
36.1825638571
 30
0.0
 10
237.1470380032
 20
36.9576857163
 30
0.0
 10
237.038496847
 20
37.5325703108
 30
0.0
 10
236.9045424642
 20
37.921000334
 30
0.0
 10
236.719130349
 20
38.2660544893
 30
0.0
 10
236.4858669948
 20
38.5597049205
 30
0.0
 10
236.2098644957
 20
38.7945654961
 30
0.0
 10
236.0004469352
 20
38.9083638958
 30
0.0
 10
235.8923781082
 20
38.9530678421
 30
0.0
  0
SPLINE
  5
638
100
AcDbEntity
  8
0
100
AcDbSpline
 62
7
  6
CONTINUOUS
 70
0
 71
3
 72
9
 73
5
 74
0
 42
0.0000001
 43
0.0000001
 44
0.0000000001
 40
0.0
 40
0.0
 40
0.0
 40
0.0
 40
0.2539042417
 40
1.0
 40
1.0
 40
1.0
 40
1.0
 10
223.1085471498
 20
28.9007783166
 30
0.0
 10
223.0826510116
 20
28.8866856487
 30
0.0
 10
222.9797871868
 20
28.8328057187
 30
0.0
 10
222.8734380953
 20
28.7855297701
 30
0.0
 10
222.7925342469
 20
28.7545459474
 30
0.0
  0
SPLINE
  5
639
100
AcDbEntity
  8
0
100
AcDbSpline
 62
7
  6
CONTINUOUS
 70
0
 71
3
 72
11
 73
7
 74
0
 42
0.0000001
 43
0.0000001
 44
0.0000000001
 40
0.0
 40
0.0
 40
0.0
 40
0.0
 40
0.2347776163
 40
0.4764286966
 40
0.7304154511
 40
1.0
 40
1.0
 40
1.0
 40
1.0
 10
233.4269115682
 20
32.9928744576
 30
0.0
 10
233.5571687897
 20
32.9389920198
 30
0.0
 10
233.836738132
 20
32.8632907299
 30
0.0
 10
234.2792067383
 20
32.8560495252
 30
0.0
 10
234.7319178967
 20
32.952629092
 30
0.0
 10
235.0219577661
 20
33.0794215016
 30
0.0
 10
235.1641290628
 20
33.1567910637
 30
0.0
  0
SPLINE
  5
63A
100
AcDbEntity
  8
0
100
AcDbSpline
 62
7
  6
CONTINUOUS
 70
0
 71
3
 72
13
 73
9
 74
0
 42
0.0000001
 43
0.0000001
 44
0.0000000001
 40
0.0
 40
0.0
 40
0.0
 40
0.0
 40
0.2423953798
 40
0.3731819671
 40
0.5062945912
 40
0.6384702613
 40
0.7665687152
 40
1.0
 40
1.0
 40
1.0
 40
1.0
 10
223.1085471498
 20
28.9007783166
 30
0.0
 10
223.4979811085
 20
29.1127081194
 30
0.0
 10
224.0240467974
 20
29.5826086323
 30
0.0
 10
224.5403041963
 20
30.3533983706
 30
0.0
 10
224.8421005518
 20
31.0159361039
 30
0.0
 10
225.031117765
 20
31.7141161581
 30
0.0
 10
225.1190956334
 20
32.61429753
 30
0.0
 10
225.0045022616
 20
33.2915159872
 30
0.0
 10
224.8300369857
 20
33.6812142059
 30
0.0
  0
SPLINE
  5
63B
100
AcDbEntity
  8
0
100
AcDbSpline
 62
7
  6
CONTINUOUS
 70
0
 71
3
 72
18
 73
14
 74
0
 42
0.0000001
 43
0.0000001
 44
0.0000000001
 40
0.0
 40
0.0
 40
0.0
 40
0.0
 40
0.258026883
 40
0.3276528104
 40
0.3977310081
 40
0.5359858782
 40
0.6673385828
 40
0.7292487758
 40
0.7882202018
 40
0.8443003951
 40
0.8978262171
 40
0.9494306198
 40
1.0
 40
1.0
 40
1.0
 40
1.0
 10
225.5144056307
 20
27.9054154757
 30
0.0
 10
226.0385483644
 20
28.1906537394
 30
0.0
 10
226.5960844282
 20
28.7677931322
 30
0.0
 10
227.0444599848
 20
29.5693543316
 30
0.0
 10
227.2967525336
 20
30.1623287147
 30
0.0
 10
227.4861492502
 20
30.9311882691
 30
0.0
 10
227.4973145711
 20
31.7063101282
 30
0.0
 10
227.3887734149
 20
32.2811947227
 30
0.0
 10
227.2548190321
 20
32.6696247459
 30
0.0
 10
227.0694069169
 20
33.0146789012
 30
0.0
 10
226.8361435627
 20
33.3083293324
 30
0.0
 10
226.5601410636
 20
33.5431899081
 30
0.0
 10
226.3507235031
 20
33.6569883077
 30
0.0
 10
226.2426546761
 20
33.7016922541
 30
0.0
  0
SPLINE
  5
63C
100
AcDbEntity
  8
0
100
AcDbSpline
 62
7
  6
CONTINUOUS
 70
0
 71
3
 72
14
 73
10
 74
0
 42
0.0000001
 43
0.0000001
 44
0.0000000001
 40
0.0
 40
0.0
 40
0.0
 40
0.0
 40
0.2451931921
 40
0.3776864128
 40
0.5119754183
 40
0.644302494
 40
0.7712069853
 40
0.8901236168
 40
1.0
 40
1.0
 40
1.0
 40
1.0
 10
222.8621711332
 20
30.2761220796
 30
0.0
 10
223.0756166161
 20
30.3922790251
 30
0.0
 10
223.3612231551
 20
30.6554497942
 30
0.0
 10
223.6318620352
 20
31.0857723432
 30
0.0
 10
223.7826884791
 20
31.4539423256
 30
0.0
 10
223.8661448914
 20
31.8369265979
 30
0.0
 10
223.8776770115
 20
32.2139299319
 30
0.0
 10
223.8161600119
 20
32.5637131456
 30
0.0
 10
223.7238254712
 20
32.7741870885
 30
0.0
 10
223.6660416553
 20
32.8664872694
 30
0.0
  0
SPLINE
  5
63D
100
AcDbEntity
  8
0
100
AcDbSpline
 62
7
  6
CONTINUOUS
 70
0
 71
3
 72
9
 73
5
 74
0
 42
0.0000001
 43
0.0000001
 44
0.0000000001
 40
0.0
 40
0.0
 40
0.0
 40
0.0
 40
0.2578055014
 40
1.0
 40
1.0
 40
1.0
 40
1.0
 10
222.8621711332
 20
30.2761220796
 30
0.0
 10
222.8367181189
 20
30.2622705595
 30
0.0
 10
222.7363939141
 20
30.2115767166
 30
0.0
 10
222.629544216
 20
30.1733887582
 30
0.0
 10
222.5483420419
 20
30.1542620083
 30
0.0
  0
SPLINE
  5
63E
100
AcDbEntity
  8
0
100
AcDbSpline
 62
7
  6
CONTINUOUS
 70
0
 71
3
 72
9
 73
5
 74
0
 42
0.0000001
 43
0.0000001
 44
0.0000000001
 40
0.0
 40
0.0
 40
0.0
 40
0.0
 40
0.2539042417
 40
1.0
 40
1.0
 40
1.0
 40
1.0
 10
232.7582705819
 20
34.1521539047
 30
0.0
 10
232.7323744437
 20
34.1380612367
 30
0.0
 10
232.6295106189
 20
34.0841813068
 30
0.0
 10
232.5231615274
 20
34.0369053582
 30
0.0
 10
232.442257679
 20
34.0059215355
 30
0.0
  0
SPLINE
  5
63F
100
AcDbEntity
  8
0
100
AcDbSpline
 62
7
  6
CONTINUOUS
 70
0
 71
3
 72
11
 73
7
 74
0
 42
0.0000001
 43
0.0000001
 44
0.0000000001
 40
0.0
 40
0.0
 40
0.0
 40
0.0
 40
0.2347776163
 40
0.4764286966
 40
0.7304154511
 40
1.0
 40
1.0
 40
1.0
 40
1.0
 10
223.7771881361
 20
27.7414988695
 30
0.0
 10
223.9074453576
 20
27.6876164318
 30
0.0
 10
224.1870146999
 20
27.6119151418
 30
0.0
 10
224.6294833062
 20
27.6046739371
 30
0.0
 10
225.0821944646
 20
27.701253504
 30
0.0
 10
225.372234334
 20
27.8280459136
 30
0.0
 10
225.5144056307
 20
27.9054154757
 30
0.0
  0
SPLINE
  5
640
100
AcDbEntity
  8
0
100
AcDbSpline
 62
7
  6
CONTINUOUS
 70
0
 71
3
 72
15
 73
11
 74
0
 42
0.0000001
 43
0.0000001
 44
0.0000000001
 40
0.0
 40
0.0
 40
0.0
 40
0.0
 40
0.1303856336
 40
0.250047037
 40
0.36307068
 40
0.4745732098
 40
0.5899579515
 40
0.7139409039
 40
0.8499399668
 40
1.0
 40
1.0
 40
1.0
 40
1.0
 10
226.9808052384
 20
43.4185620424
 30
0.0
 10
227.0464782922
 20
43.3654357856
 30
0.0
 10
227.1647840936
 20
43.2532519753
 30
0.0
 10
227.3007468855
 20
43.0590852851
 30
0.0
 10
227.3833916713
 20
42.8495112136
 30
0.0
 10
227.4101030225
 20
42.6285119966
 30
0.0
 10
227.3806067433
 20
42.400978576
 30
0.0
 10
227.2966606334
 20
42.1709655642
 30
0.0
 10
227.1606904547
 20
41.9413649459
 30
0.0
 10
227.0428825671
 20
41.7974350857
 30
0.0
 10
226.9769630525
 20
41.7259802538
 30
0.0
  0
SPLINE
  5
641
100
AcDbEntity
  8
0
100
AcDbSpline
 62
7
  6
CONTINUOUS
 70
0
 71
3
 72
9
 73
5
 74
0
 42
0.0000001
 43
0.0000001
 44
0.0000000001
 40
0.0
 40
0.0
 40
0.0
 40
0.0
 40
0.2578055014
 40
1.0
 40
1.0
 40
1.0
 40
1.0
 10
232.5118945653
 20
35.5274976677
 30
0.0
 10
232.486441551
 20
35.5136461476
 30
0.0
 10
232.3861173462
 20
35.4629523047
 30
0.0
 10
232.2792676481
 20
35.4247643462
 30
0.0
 10
232.198065474
 20
35.4056375964
 30
0.0
  0
SPLINE
  5
642
100
AcDbEntity
  8
0
100
AcDbSpline
 62
7
  6
CONTINUOUS
 70
0
 71
3
 72
14
 73
10
 74
0
 42
0.0000001
 43
0.0000001
 44
0.0000000001
 40
0.0
 40
0.0
 40
0.0
 40
0.0
 40
0.2451931921
 40
0.3776864128
 40
0.5119754183
 40
0.644302494
 40
0.7712069853
 40
0.8901236168
 40
1.0
 40
1.0
 40
1.0
 40
1.0
 10
232.5118945653
 20
35.5274976677
 30
0.0
 10
232.7253400482
 20
35.6436546131
 30
0.0
 10
233.0109465872
 20
35.9068253822
 30
0.0
 10
233.2815854673
 20
36.3371479312
 30
0.0
 10
233.4324119112
 20
36.7053179137
 30
0.0
 10
233.5158683235
 20
37.088302186
 30
0.0
 10
233.5274004436
 20
37.4653055199
 30
0.0
 10
233.465883444
 20
37.8150887336
 30
0.0
 10
233.3735489033
 20
38.0255626766
 30
0.0
 10
233.3157650874
 20
38.1178628575
 30
0.0
  0
SPLINE
  5
643
100
AcDbEntity
  8
0
100
AcDbSpline
 62
7
  6
CONTINUOUS
 70
0
 71
3
 72
13
 73
9
 74
0
 42
0.0000001
 43
0.0000001
 44
0.0000000001
 40
0.0
 40
0.0
 40
0.0
 40
0.0
 40
0.2423953798
 40
0.3731819671
 40
0.5062945912
 40
0.6384702613
 40
0.7665687152
 40
1.0
 40
1.0
 40
1.0
 40
1.0
 10
232.7582705819
 20
34.1521539047
 30
0.0
 10
233.1477045406
 20
34.3640837074
 30
0.0
 10
233.6737702295
 20
34.8339842204
 30
0.0
 10
234.1900276284
 20
35.6047739587
 30
0.0
 10
234.4918239839
 20
36.267311692
 30
0.0
 10
234.6808411971
 20
36.9654917461
 30
0.0
 10
234.7688190655
 20
37.8656731181
 30
0.0
 10
234.6542256937
 20
38.5428915753
 30
0.0
 10
234.4797604178
 20
38.932589794
 30
0.0
  0
SPLINE
  5
644
100
AcDbEntity
  8
02___PRT_ALL_AXES
100
AcDbSpline
 62
7
  6
CONTINUOUS
 70
0
 71
3
 72
11
 73
7
 74
0
 42
0.0000001
 43
0.0000001
 44
0.0000000001
 40
0.0
 40
0.0
 40
0.0
 40
0.0
 40
0.2738607953
 40
0.5292674629
 40
0.7690918368
 40
1.0
 40
1.0
 40
1.0
 40
1.0
 10
232.0097134507
 20
84.1422626292
 30
0.0
 10
232.0282925125
 20
84.0385488132
 30
0.0
 10
232.0829941813
 20
83.84068795
 30
0.0
 10
232.2235064295
 20
83.5771905501
 30
0.0
 10
232.4149194745
 20
83.3692132086
 30
0.0
 10
232.5727591562
 20
83.2743424082
 30
0.0
 10
232.65485009
 20
83.2403793217
 30
0.0
  0
SPLINE
  5
645
100
AcDbEntity
  8
02___PRT_ALL_AXES
100
AcDbSpline
 62
7
  6
CONTINUOUS
 70
0
 71
3
 72
9
 73
5
 74
0
 42
0.0000001
 43
0.0000001
 44
0.0000000001
 40
0.0
 40
0.0
 40
0.0
 40
0.0
 40
0.2634727411
 40
1.0
 40
1.0
 40
1.0
 40
1.0
 10
233.6756993978
 20
85.9707435289
 30
0.0
 10
233.6663969461
 20
86.0226725644
 30
0.0
 10
233.6220138866
 20
86.217850404
 30
0.0
 10
233.5385784004
 20
86.4055357679
 30
0.0
 10
233.4537679515
 20
86.5261858748
 30
0.0
  0
SPLINE
  5
646
100
AcDbEntity
  8
02___PRT_ALL_AXES
100
AcDbSpline
 62
7
  6
CONTINUOUS
 70
0
 71
3
 72
14
 73
10
 74
0
 42
0.0000001
 43
0.0000001
 44
0.0000000001
 40
0.0
 40
0.0
 40
0.0
 40
0.0
 40
0.1015296598
 40
0.2099619967
 40
0.329088172
 40
0.4588088205
 40
0.5959943115
 40
0.7357450136
 40
1.0
 40
1.0
 40
1.0
 40
1.0
 10
233.9929061508
 20
86.4744817001
 30
0.0
 10
233.8808088916
 20
86.5208591591
 30
0.0
 10
233.6266966535
 20
86.5689011515
 30
0.0
 10
233.2334054154
 20
86.4921807507
 30
0.0
 10
232.8544147354
 20
86.2836289348
 30
0.0
 10
232.5166696103
 20
85.9634176767
 30
0.0
 10
232.2438222796
 20
85.5564136531
 30
0.0
 10
231.9992023867
 20
84.9557656021
 30
0.0
 10
231.9540380616
 20
84.4530591106
 30
0.0
 10
232.0097134507
 20
84.1422626292
 30
0.0
  0
SPLINE
  5
647
100
AcDbEntity
  8
02___PRT_ALL_AXES
100
AcDbSpline
 62
7
  6
CONTINUOUS
 70
0
 71
3
 72
15
 73
11
 74
0
 42
0.0000001
 43
0.0000001
 44
0.0000000001
 40
0.0
 40
0.0
 40
0.0
 40
0.0
 40
0.1079390145
 40
0.2245466555
 40
0.3492655617
 40
0.4800461695
 40
0.6138822303
 40
0.747320729
 40
0.876976936
 40
1.0
 40
1.0
 40
1.0
 40
1.0
 10
232.237403906
 20
83.5848037782
 30
0.0
 10
232.3451805908
 20
83.6037676516
 30
0.0
 10
232.5642984307
 20
83.6760059744
 30
0.0
 10
232.8669702314
 20
83.8648488715
 30
0.0
 10
233.1415757285
 20
84.1269780895
 30
0.0
 10
233.3741185986
 20
84.4484072044
 30
0.0
 10
233.5528940338
 20
84.8123016187
 30
0.0
 10
233.6686249871
 20
85.199746372
 30
0.0
 10
233.7152124799
 20
85.5903569884
 30
0.0
 10
233.6976922817
 20
85.8479727489
 30
0.0
 10
233.6756993978
 20
85.9707435289
 30
0.0
  0
SPLINE
  5
648
100
AcDbEntity
  8
02___PRT_ALL_AXES
100
AcDbSpline
 62
7
  6
CONTINUOUS
 70
0
 71
3
 72
11
 73
7
 74
0
 42
0.0000001
 43
0.0000001
 44
0.0000000001
 40
0.0
 40
0.0
 40
0.0
 40
0.0
 40
0.2738607953
 40
0.5292674629
 40
0.7690918368
 40
1.0
 40
1.0
 40
1.0
 40
1.0
 10
234.6380427901
 20
85.5725983925
 30
0.0
 10
234.6194637283
 20
85.6763122086
 30
0.0
 10
234.5647620595
 20
85.8741730717
 30
0.0
 10
234.4242498113
 20
86.1376704717
 30
0.0
 10
234.2328367663
 20
86.3456478131
 30
0.0
 10
234.0749970846
 20
86.4405186135
 30
0.0
 10
233.9929061508
 20
86.4744817001
 30
0.0
  0
SPLINE
  5
649
100
AcDbEntity
  8
02___PRT_ALL_AXES
100
AcDbSpline
 62
7
  6
CONTINUOUS
 70
0
 71
3
 72
14
 73
10
 74
0
 42
0.0000001
 43
0.0000001
 44
0.0000000001
 40
0.0
 40
0.0
 40
0.0
 40
0.0
 40
0.1015296598
 40
0.2099619967
 40
0.329088172
 40
0.4588088205
 40
0.5959943115
 40
0.7357450136
 40
1.0
 40
1.0
 40
1.0
 40
1.0
 10
232.65485009
 20
83.2403793217
 30
0.0
 10
232.7669473492
 20
83.1940018627
 30
0.0
 10
233.0210595873
 20
83.1459598702
 30
0.0
 10
233.4143508254
 20
83.2226802711
 30
0.0
 10
233.7933415054
 20
83.431232087
 30
0.0
 10
234.1310866305
 20
83.7514433451
 30
0.0
 10
234.4039339612
 20
84.1584473686
 30
0.0
 10
234.6485538541
 20
84.7590954196
 30
0.0
 10
234.6937181792
 20
85.2618019112
 30
0.0
 10
234.6380427901
 20
85.5725983925
 30
0.0
  0
SPLINE
  5
64A
100
AcDbEntity
  8
02___PRT_ALL_AXES
100
AcDbSpline
 62
7
  6
CONTINUOUS
 70
0
 71
3
 72
14
 73
10
 74
0
 42
0.0000001
 43
0.0000001
 44
0.0000000001
 40
0.0
 40
0.0
 40
0.0
 40
0.0
 40
0.2584107383
 40
0.398118434
 40
0.536580431
 40
0.668130504
 40
0.7888719136
 40
0.8982098777
 40
1.0
 40
1.0
 40
1.0
 40
1.0
 10
208.526093545
 20
33.5071535304
 30
0.0
 10
208.2416858809
 20
33.3523789947
 30
0.0
 10
207.8758608542
 20
32.9739119873
 30
0.0
 10
207.5803160523
 20
32.368095027
 30
0.0
 10
207.4560905232
 20
31.8650740978
 30
0.0
 10
207.4489631256
 20
31.3708950658
 30
0.0
 10
207.5611765952
 20
30.9253644292
 30
0.0
 10
207.788607815
 20
30.5671057656
 30
0.0
 10
208.0129873687
 20
30.410669185
 30
0.0
 10
208.130846958
 20
30.3619154466
 30
0.0
  0
SPLINE
  5
64B
100
AcDbEntity
  8
02___PRT_ALL_AXES
100
AcDbSpline
 62
7
  6
CONTINUOUS
 70
0
 71
3
 72
14
 73
10
 74
0
 42
0.0000001
 43
0.0000001
 44
0.0000000001
 40
0.0
 40
0.0
 40
0.0
 40
0.0
 40
0.2463887098
 40
0.3795798873
 40
0.5143506006
 40
0.64675606
 40
0.7732311205
 40
0.8912486401
 40
1.0
 40
1.0
 40
1.0
 40
1.0
 10
208.1112524119
 20
30.8489791935
 30
0.0
 10
208.3431096792
 20
30.9751558246
 30
0.0
 10
208.6522615093
 20
31.2632182262
 30
0.0
 10
208.9413327323
 20
31.7335968315
 30
0.0
 10
209.0993665238
 20
32.1351808812
 30
0.0
 10
209.1820114315
 20
32.5510322781
 30
0.0
 10
209.184516334
 20
32.9576002768
 30
0.0
 10
209.1060752228
 20
33.3309823923
 30
0.0
 10
208.9969235829
 20
33.5521257815
 30
0.0
 10
208.9299346421
 20
33.647451723
 30
0.0
  0
SPLINE
  5
64C
100
AcDbEntity
  8
02___PRT_ALL_AXES
100
AcDbSpline
 62
7
  6
CONTINUOUS
 70
0
 71
3
 72
9
 73
5
 74
0
 42
0.0000001
 43
0.0000001
 44
0.0000000001
 40
0.0
 40
0.0
 40
0.0
 40
0.0
 40
0.2413651369
 40
1.0
 40
1.0
 40
1.0
 40
1.0
 10
207.7121539252
 20
30.7061413834
 30
0.0
 10
207.7458348266
 20
30.7120240348
 30
0.0
 10
207.8842517093
 20
30.7427260412
 30
0.0
 10
208.0168595916
 20
30.7976106589
 30
0.0
 10
208.1112524119
 20
30.8489791935
 30
0.0
  0
SPLINE
  5
64D
100
AcDbEntity
  8
02___PRT_ALL_AXES
100
AcDbSpline
 62
7
  6
CONTINUOUS
 70
0
 71
3
 72
10
 73
6
 74
0
 42
0.0000001
 43
0.0000001
 44
0.0000000001
 40
0.0
 40
0.0
 40
0.0
 40
0.0
 40
0.2354154248
 40
0.4776680154
 40
1.0
 40
1.0
 40
1.0
 40
1.0
 10
209.4688423912
 20
33.5960721409
 30
0.0
 10
209.3981517929
 20
33.6253139782
 30
0.0
 10
209.2463791009
 20
33.6663475279
 30
0.0
 10
208.9189520558
 20
33.6720106195
 30
0.0
 10
208.6751822746
 20
33.5882875568
 30
0.0
 10
208.526093545
 20
33.5071535304
 30
0.0
  0
SPLINE
  5
64E
100
AcDbEntity
  8
02___PRT_ALL_AXES
100
AcDbSpline
 62
7
  6
CONTINUOUS
 70
0
 71
3
 72
14
 73
10
 74
0
 42
0.0000001
 43
0.0000001
 44
0.0000000001
 40
0.0
 40
0.0
 40
0.0
 40
0.0
 40
0.2584107383
 40
0.398118434
 40
0.536580431
 40
0.668130504
 40
0.7888719136
 40
0.8982098777
 40
1.0
 40
1.0
 40
1.0
 40
1.0
 10
209.0735958043
 20
30.4508340571
 30
0.0
 10
209.3580034684
 20
30.6056085929
 30
0.0
 10
209.7238284951
 20
30.9840756003
 30
0.0
 10
210.019373297
 20
31.5898925606
 30
0.0
 10
210.1435988261
 20
32.0929134898
 30
0.0
 10
210.1507262237
 20
32.5870925218
 30
0.0
 10
210.0385127541
 20
33.0326231584
 30
0.0
 10
209.8110815342
 20
33.390881822
 30
0.0
 10
209.5867019806
 20
33.5473184026
 30
0.0
 10
209.4688423912
 20
33.5960721409
 30
0.0
  0
SPLINE
  5
64F
100
AcDbEntity
  8
02___PRT_ALL_AXES
100
AcDbSpline
 62
7
  6
CONTINUOUS
 70
0
 71
3
 72
10
 73
6
 74
0
 42
0.0000001
 43
0.0000001
 44
0.0000000001
 40
0.0
 40
0.0
 40
0.0
 40
0.0
 40
0.2354154248
 40
0.4776680154
 40
1.0
 40
1.0
 40
1.0
 40
1.0
 10
208.130846958
 20
30.3619154466
 30
0.0
 10
208.2015375563
 20
30.3326736094
 30
0.0
 10
208.3533102484
 20
30.2916400596
 30
0.0
 10
208.6807372935
 20
30.285976968
 30
0.0
 10
208.9245070747
 20
30.3697000308
 30
0.0
 10
209.0735958043
 20
30.4508340571
 30
0.0
  0
SPLINE
  5
650
100
AcDbEntity
  8
0
100
AcDbSpline
 62
7
  6
CONTINUOUS
 70
0
 71
3
 72
9
 73
5
 74
0
 42
0.0000001
 43
0.0000001
 44
0.0000000001
 40
0.0
 40
0.0
 40
0.0
 40
0.0
 40
0.4898426312
 40
1.0
 40
1.0
 40
1.0
 40
1.0
 10
232.5991032901
 20
70.2757978571
 30
0.0
 10
231.326817295
 20
69.5834203332
 30
0.0
 10
228.8782493225
 20
67.8852799607
 30
0.0
 10
226.79362626
 20
65.7641589337
 30
0.0
 10
225.8295985488
 20
64.6038219315
 30
0.0
  0
SPLINE
  5
651
100
AcDbEntity
  8
0
100
AcDbSpline
 62
7
  6
CONTINUOUS
 70
0
 71
3
 72
10
 73
6
 74
0
 42
0.0000001
 43
0.0000001
 44
0.0000000001
 40
0.0
 40
0.0
 40
0.0
 40
0.0
 40
0.2573468642
 40
0.5118764175
 40
1.0
 40
1.0
 40
1.0
 40
1.0
 10
221.6507771666
 20
57.8110590126
 30
0.0
 10
221.1029861693
 20
56.5662135242
 30
0.0
 10
220.1813963609
 20
54.0106009611
 30
0.0
 10
219.0852068459
 20
48.8329261724
 30
0.0
 10
219.0982085781
 20
44.8243038889
 30
0.0
 10
219.5530831502
 20
42.2850595494
 30
0.0
  0
SPLINE
  5
652
100
AcDbEntity
  8
0
100
AcDbSpline
 62
7
  6
CONTINUOUS
 70
0
 71
3
 72
15
 73
11
 74
0
 42
0.0000001
 43
0.0000001
 44
0.0000000001
 40
0.0
 40
0.0
 40
0.0
 40
0.0
 40
0.1107820443
 40
0.23168808
 40
0.3599966183
 40
0.4925869167
 40
0.6261581088
 40
0.7573720868
 40
0.8829819339
 40
1.0
 40
1.0
 40
1.0
 40
1.0
 10
236.1841210366
 20
63.6881087511
 30
0.0
 10
235.4257241308
 20
63.2753894618
 30
0.0
 10
233.9261369711
 20
62.2478775666
 30
0.0
 10
231.9055919266
 20
60.2849966491
 30
0.0
 10
230.1065176007
 20
57.9007083405
 30
0.0
 10
228.6200165407
 20
55.19791617
 30
0.0
 10
227.5150687895
 20
52.2939172245
 30
0.0
 10
226.8392553315
 20
49.3163125677
 30
0.0
 10
226.6163527363
 20
46.4006252919
 30
0.0
 10
226.7747466075
 20
44.5052785313
 30
0.0
 10
226.9355653167
 20
43.6075409523
 30
0.0
  0
SPLINE
  5
653
100
AcDbEntity
  8
0
100
AcDbSpline
 62
7
  6
CONTINUOUS
 70
0
 71
3
 72
31
 73
27
 74
0
 42
0.0000001
 43
0.0000001
 44
0.0000000001
 40
0.0
 40
0.0
 40
0.0
 40
0.0
 40
0.011421191
 40
0.0226989387
 40
0.0343020013
 40
0.046441857
 40
0.0723566045
 40
0.100080781
 40
0.1290845829
 40
0.1590035188
 40
0.1895991178
 40
0.220712285
 40
0.2840767035
 40
0.348547296
 40
0.4138151489
 40
0.4796969788
 40
0.6128532667
 40
0.7473389397
 40
0.8147318544
 40
0.8482831855
 40
0.8815468081
 40
0.9142220417
 40
0.9457022481
 40
0.960665646
 40
0.9748476369
 40
1.0
 40
1.0
 40
1.0
 40
1.0
 10
228.842262841
 20
66.5384526916
 30
0.0
 10
228.8839924195
 20
66.5211881384
 30
0.0
 10
228.9623083151
 20
66.4738865208
 30
0.0
 10
229.0525343475
 20
66.3701185687
 30
0.0
 10
229.1131924995
 20
66.2442493085
 30
0.0
 10
229.162643689
 20
66.0533315548
 30
0.0
 10
229.1721347671
 20
65.7909350821
 30
0.0
 10
229.1321988198
 20
65.4660537234
 30
0.0
 10
229.0553301787
 20
65.13167771
 30
0.0
 10
228.9509883465
 20
64.7932315614
 30
0.0
 10
228.8253135624
 20
64.4532674481
 30
0.0
 10
228.6337180742
 20
63.9972177848
 30
0.0
 10
228.3594643137
 20
63.431229794
 30
0.0
 10
227.9911968797
 20
62.7620983257
 30
0.0
 10
227.5898038232
 20
62.1006612742
 30
0.0
 10
227.0146063602
 20
61.2278780474
 30
0.0
 10
226.2313357425
 20
60.1656158156
 30
0.0
 10
225.3640342681
 20
59.1613558579
 30
0.0
 10
224.6944001682
 20
58.5133669539
 30
0.0
 10
224.2890876485
 20
58.1705183168
 30
0.0
 10
223.9744431709
 20
57.9338854569
 30
0.0
 10
223.6491777909
 20
57.7267181537
 30
0.0
 10
223.367187173
 20
57.5884998777
 30
0.0
 10
223.1382941332
 20
57.5147364311
 30
0.0
 10
222.9276822772
 20
57.4749787075
 30
0.0
 10
222.764664225
 20
57.4868482801
 30
0.0
 10
222.6727650956
 20
57.5248692108
 30
0.0
  0
SPLINE
  5
654
100
AcDbEntity
  8
0
100
AcDbSpline
 62
7
  6
CONTINUOUS
 70
0
 71
3
 72
11
 73
7
 74
0
 42
0.0000001
 43
0.0000001
 44
0.0000000001
 40
0.0
 40
0.0
 40
0.0
 40
0.0
 40
0.2969321687
 40
0.5574256283
 40
0.7875004974
 40
1.0
 40
1.0
 40
1.0
 40
1.0
 10
220.428257084
 20
41.4137976473
 30
0.0
 10
220.3107805563
 20
41.4624005769
 30
0.0
 10
220.0959227777
 20
41.5691548385
 30
0.0
 10
219.8255512615
 20
41.7749315728
 30
0.0
 10
219.6359922495
 20
42.0137411171
 30
0.0
 10
219.569166553
 20
42.1955091491
 30
0.0
 10
219.5530997805
 20
42.2850625295
 30
0.0
  0
SPLINE
  5
655
100
AcDbEntity
  8
0
100
AcDbSpline
 62
7
  6
CONTINUOUS
 70
0
 71
3
 72
11
 73
7
 74
0
 42
0.0000001
 43
0.0000001
 44
0.0000000001
 40
0.0
 40
0.0
 40
0.0
 40
0.0
 40
0.2384803387
 40
0.477692804
 40
0.7307906246
 40
1.0
 40
1.0
 40
1.0
 40
1.0
 10
222.6727650956
 20
57.5248692108
 30
0.0
 10
222.6173975879
 20
57.5477761109
 30
0.0
 10
222.5145272081
 20
57.6174757821
 30
0.0
 10
222.4144512893
 20
57.7758670259
 30
0.0
 10
222.3622374852
 20
57.9616783376
 30
0.0
 10
222.3513517729
 20
58.0930494398
 30
0.0
 10
222.3499585106
 20
58.1606748683
 30
0.0
  0
SPLINE
  5
656
100
AcDbEntity
  8
0
100
AcDbSpline
 62
7
  6
CONTINUOUS
 70
0
 71
3
 72
15
 73
11
 74
0
 42
0.0000001
 43
0.0000001
 44
0.0000000001
 40
0.0
 40
0.0
 40
0.0
 40
0.0
 40
0.2643451839
 40
0.3963911806
 40
0.5277517314
 40
0.6574198019
 40
0.7831893741
 40
0.8433104614
 40
0.9003019228
 40
1.0
 40
1.0
 40
1.0
 40
1.0
 10
225.9567560063
 20
64.6624268964
 30
0.0
 10
226.1667895014
 20
64.8964015556
 30
0.0
 10
226.4922476305
 20
65.238274363
 30
0.0
 10
226.9530913439
 20
65.6647657523
 30
0.0
 10
227.3131114397
 20
65.9635494352
 30
0.0
 10
227.6880370385
 20
66.2310058171
 30
0.0
 10
228.015778998
 20
66.4164115295
 30
0.0
 10
228.2854572228
 20
66.5229057487
 30
0.0
 10
228.5342738619
 20
66.5868705348
 30
0.0
 10
228.7326876732
 20
66.5837866343
 30
0.0
 10
228.842262841
 20
66.5384526916
 30
0.0
  0
SPLINE
  5
657
100
AcDbEntity
  8
0
100
AcDbSpline
 62
7
  6
CONTINUOUS
 70
0
 71
3
 72
17
 73
13
 74
0
 42
0.0000001
 43
0.0000001
 44
0.0000000001
 40
0.0
 40
0.0
 40
0.0
 40
0.0
 40
0.0398293937
 40
0.0822604747
 40
0.1292373366
 40
0.1818069039
 40
0.303943525
 40
0.4450050073
 40
0.5958986181
 40
0.7455078395
 40
0.8829584024
 40
1.0
 40
1.0
 40
1.0
 40
1.0
 10
236.1841043442
 20
63.6881394258
 30
0.0
 10
236.2763353774
 20
63.7383236967
 30
0.0
 10
236.4511864423
 20
63.8733361927
 30
0.0
 10
236.650635456
 20
64.1544108972
 30
0.0
 10
236.7884346655
 20
64.5056227917
 30
0.0
 10
236.8934135223
 20
65.0833562389
 30
0.0
 10
236.8449157568
 20
65.9249844046
 30
0.0
 10
236.557416068
 20
66.9835246271
 30
0.0
 10
236.0636553675
 20
68.0436597172
 30
0.0
 10
235.4105382081
 20
69.0025868948
 30
0.0
 10
234.6624458528
 20
69.7684028404
 30
0.0
 10
234.0901154039
 20
70.13862313
 30
0.0
 10
233.8050025999
 20
70.2565813112
 30
0.0
  0
SPLINE
  5
658
100
AcDbEntity
  8
0
100
AcDbSpline
 62
7
  6
CONTINUOUS
 70
0
 71
3
 72
11
 73
7
 74
0
 42
0.0000001
 43
0.0000001
 44
0.0000000001
 40
0.0
 40
0.0
 40
0.0
 40
0.0
 40
0.2833076376
 40
0.5401888
 40
0.7759350619
 40
1.0
 40
1.0
 40
1.0
 40
1.0
 10
233.8050025999
 20
70.2565813112
 30
0.0
 10
233.6963689709
 20
70.3015257161
 30
0.0
 10
233.4824407279
 20
70.372412265
 30
0.0
 10
233.1611392323
 20
70.4158539228
 30
0.0
 10
232.8621160386
 20
70.3881030484
 30
0.0
 10
232.6807926626
 20
70.3202064969
 30
0.0
 10
232.5991199826
 20
70.2757671824
 30
0.0
  0
SPLINE
  5
659
100
AcDbEntity
  8
0
100
AcDbSpline
 62
7
  6
CONTINUOUS
 70
0
 71
3
 72
18
 73
14
 74
0
 42
0.0000001
 43
0.0000001
 44
0.0000000001
 40
0.0
 40
0.0
 40
0.0
 40
0.0
 40
0.0361705878
 40
0.0753795806
 40
0.11980045
 40
0.1705253271
 40
0.2277742183
 40
0.2911609686
 40
0.4326745812
 40
0.5857287245
 40
0.7386926855
 40
0.879941688
 40
1.0
 40
1.0
 40
1.0
 40
1.0
 10
226.9355486864
 20
43.6075379723
 30
0.0
 10
226.9517403364
 20
43.5172885467
 30
0.0
 10
226.9518002882
 20
43.3219206644
 30
0.0
 10
226.8550821014
 20
43.0299232244
 30
0.0
 10
226.6698807484
 20
42.7408790055
 30
0.0
 10
226.4025711554
 20
42.4595878414
 30
0.0
 10
226.0596376667
 20
42.1909459773
 30
0.0
 10
225.4909394896
 20
41.844883734
 30
0.0
 10
224.6493697441
 20
41.4921090034
 30
0.0
 10
223.5458984774
 20
41.2142936456
 30
0.0
 10
222.4141156785
 20
41.094131719
 30
0.0
 10
221.3614225017
 20
41.1418921088
 30
0.0
 10
220.7094801236
 20
41.2974487574
 30
0.0
 10
220.428257084
 20
41.4137976473
 30
0.0
  0
ELLIPSE
  5
65A
100
AcDbEntity
  8
0
100
AcDbEllipse
 62
7
  6
CONTINUOUS
 10
63.5090029491
 20
102.703125
 30
0.0
 11
6.3773330982
 21
0.0
 31
0.0
 40
0.6248693519
 41
-1.5707967122
 42
1.5707959414
  0
ELLIPSE
  5
65B
100
AcDbEntity
  8
0
100
AcDbEllipse
 62
7
  6
CONTINUOUS
 10
226.0319706027
 20
62.4326397486
 30
0.0
 11
2.1884158793
 21
2.9838310302
 31
0.0
 40
0.3645442426
 41
-2.4825551133
 42
0.6590375403
  0
ENDSEC
  0
SECTION
  2
OBJECTS
  0
DICTIONARY
  5
C
100
AcDbDictionary
280
0
281
1
  3
ACAD_GROUP
350
D
  3
ACAD_MLINESTYLE
350
17
  3
ACAD_LAYOUT
350
1A
  3
ACAD_PLOTSETTINGS
350
19
  3
ACAD_PLOTSTYLENAME
350
E
  0
DICTIONARY
  5
D
102
{ACAD_REACTORS
330
C
102
}
100
AcDbDictionary
280
0
281
1
  0
ACDBDICTIONARYWDFLT
  5
E
102
{ACAD_REACTORS
330
C
102
}
100
AcDbDictionary
281
1
  3
Normal
350
F
100
AcDbDictionaryWithDefault
340
F
  0
DICTIONARY
  5
17
102
{ACAD_REACTORS
330
C
102
}
100
AcDbDictionary
280
0
281
1
  3
Standard
350
18
  0
DICTIONARY
  5
19
102
{ACAD_REACTORS
330
C
102
}
100
AcDbDictionary
281
1
  0
DICTIONARY
  5
1A
102
{ACAD_REACTORS
330
C
102
}
100
AcDbDictionary
281
1
  3
Model
350
65C
  3
Layout1
350
65D
  0
ACDBPLACEHOLDER
  5
F
102
{ACAD_REACTORS
330
E
102
}
  0
MLINESTYLE
  5
18
102
{ACAD_REACTORS
330
17
102
}
100
AcDbMlineStyle
  2
STANDARD
 70
0
  3

 62
256
 51
90.0
 52
90.0
 71
2
 49
0.5
 62
256
  6
BYLAYER
 49
-0.5
 62
256
  6
BYLAYER
  0
LAYOUT
  5
65C
102
{ACAD_REACTORS
330
1A
102
}
100
AcDbPlotSettings
  1

  2
none_device
  4
ISO_A3_(420.00_x_297.00_MM)
  6

 40
0.0
 41
0.0
 42
0.0
 43
0.0
 44
420.0
 45
297.0
 46
0.0
 47
0.0
 48
0.0
 49
0.0
140
0.0
141
0.0
142
1.0
143
1.0
 70
1024
 72
1
 73
0
 74
0
  7

 75
0
147
1.0
148
0.0
149
0.0
100
AcDbLayout
  1
Model
 70
0
 71
0
 10
0.0
 20
0.0
 11
420.0
 21
297.0
 12
0.0
 22
0.0
 32
0.0
 14
0.0
 24
0.0
 34
0.0
 15
0.0
 25
0.0
 35
0.0
146
0.0
 13
0.0
 23
0.0
 33
0.0
 16
1.0
 26
0.0
 36
0.0
 17
0.0
 27
1.0
 37
0.0
 76
0
330
216
345
0
346
0
  0
LAYOUT
  5
65D
102
{ACAD_REACTORS
330
1A
102
}
100
AcDbPlotSettings
  1

  2
none_device
  4
ISO_A3_(420.00_x_297.00_MM)
  6

 40
0.0
 41
0.0
 42
0.0
 43
0.0
 44
420.0
 45
297.0
 46
0.0
 47
0.0
 48
0.0
 49
0.0
140
0.0
141
0.0
142
1.0
143
1.0
 70
0
 72
1
 73
0
 74
0
  7

 75
0
147
1.0
148
0.0
149
0.0
100
AcDbLayout
  1
Layout1
 70
0
 71
1
 10
0.0
 20
0.0
 11
420.0
 21
297.0
 12
0.0
 22
0.0
 32
0.0
 14
0.0
 24
0.0
 34
0.0
 15
0.0
 25
0.0
 35
0.0
146
0.0
 13
0.0
 23
0.0
 33
0.0
 16
1.0
 26
0.0
 36
0.0
 17
0.0
 27
1.0
 37
0.0
 76
0
330
217
345
0
346
0
  0
ENDSEC
  0
EOF
