999
DXF file: sensoradapter_dm10_etage45.dxf
999
Pro/ENGINEER 2018400 by Parametric Technology Corporation
  0
SECTION
  2
HEADER
  9
$ACADVER
  1
AC1027
  9
$DWGCODEPAGE
  3
ANSI_1252
  9
$EXTMAX
 10
420.0
 20
297.0
 30
0.0
  9
$EXTMIN
 10
0.0
 20
0.0
 30
0.0
  9
$LIMMIN
 10
0.0
 20
0.0
  9
$LIMMAX
 10
420.0
 20
297.0
  9
$VIEWCTR
 10
210.0
 20
148.5
  9
$VIEWSIZE
 40
297.0
  9
$CLAYER
  8
0
  9
$LTSCALE
 40
23.1
  9
$CELTYPE
  6
BYLAYER
  9
$DIMSCALE
 40
1.0
  9
$DIMASZ
 40
3.5
  9
$DIMEXO
 40
1.0
  9
$DIMDLI
 40
15.96
  9
$DIMEXE
 40
1.5
  9
$DIMCEN
 40
3.78
  9
$DIMLFAC
 40
1.0
  9
$DIMBLK
  1
_FILLED
  9
$DIMALT
 70
0
  9
$DIMALTF
 40
0.0393700787
  9
$DIMTXT
 40
3.5
  9
$DIMTOL
 70
1
  9
$DIMLIM
 70
0
  9
$DIMTFAC
 40
1.0
  9
$DIMTP
 40
0.01
  9
$DIMTM
 40
0.01
  9
$DIMGAP
 40
0.625
  9
$DIMDSEP
 70
44
  9
$AUNITS
 70
0
  9
$PDMODE
 70
3
  9
$PDSIZE
 40
8.0
  9
$HANDSEED
  5
696
  9
$TILEMODE
 70
1
  9
$MEASUREMENT
 70
1
  9
$INSUNITS
 70
4
  0
ENDSEC
  0
SECTION
  2
CLASSES
  0
CLASS
  1
ACDBDICTIONARYWDFLT
  2
AcDbDictionaryWithDefault
  3
AutoCAD 2000
 90
0
 91
1
280
0
281
0
  0
CLASS
  1
ACDBPLACEHOLDER
  2
AcDbPlaceHolder
  3
AutoCAD 2000
 90
0
 91
1
280
0
281
0
  0
CLASS
  1
LAYOUT
  2
AcDbLayout
  3
AutoCAD 2000
 90
0
 91
0
280
0
281
0
  0
ENDSEC
  0
SECTION
  2
TABLES
  0
TABLE
  2
VPORT
  5
8
100
AcDbSymbolTable
 70
2
  0
VPORT
  5
1F4
100
AcDbSymbolTableRecord
100
AcDbViewportTableRecord
  2
*ACTIVE
 70
0
 10
0.0
 20
0.0
 11
1.0
 21
1.0
 12
210.0
 22
148.5
 13
0.0
 23
0.0
 14
1.0
 24
1.0
 15
0.0
 25
0.0
 16
0.0
 26
0.0
 36
1.0
 17
0.0
 27
0.0
 37
0.0
 40
297.0
 41
1.4141414141
 42
50.0
 43
0.0
 44
0.0
 50
0.0
 51
0.0
 71
0
 72
100
 73
1
 74
1
 75
0
 76
0
 77
0
 78
0
  0
ENDTAB
  0
TABLE
  2
LTYPE
  5
5
100
AcDbSymbolTable
 70
6
  0
LTYPE
  5
14
100
AcDbSymbolTableRecord
100
AcDbLinetypeTableRecord
  2
BYBLOCK
 70
0
  3

 72
65
 73
0
 40
0.0
  0
LTYPE
  5
15
100
AcDbSymbolTableRecord
100
AcDbLinetypeTableRecord
  2
BYLAYER
 70
0
  3

 72
65
 73
0
 40
0.0
  0
LTYPE
  5
16
100
AcDbSymbolTableRecord
100
AcDbLinetypeTableRecord
  2
CONTINUOUS
 70
64
  3
Solid line
 72
65
 73
0
 40
0.0
  0
LTYPE
  5
1F5
100
AcDbSymbolTableRecord
100
AcDbLinetypeTableRecord
  2
CENTER
 70
64
  3
____ _ ____ _ ____ _ ____ _ ____ _ ____ _ ____
 72
65
 73
4
 40
0.6
 49
0.375
 74
0
 49
-0.075
 74
0
 49
0.075
 74
0
 49
-0.075
 74
0
  0
LTYPE
  5
1F6
100
AcDbSymbolTableRecord
100
AcDbLinetypeTableRecord
  2
HIDDEN
 70
64
  3
- - - - - - - - - - - - - - - - - - - -
 72
65
 73
2
 40
0.2
 49
0.1
 74
0
 49
-0.1
 74
0
  0
LTYPE
  5
1F7
100
AcDbSymbolTableRecord
100
AcDbLinetypeTableRecord
  2
PHANTOM
 70
64
  3
_____ _ _ _____ _ _ _____ _ _ _____
 72
65
 73
6
 40
0.8
 49
0.45
 74
0
 49
-0.05
 74
0
 49
0.1
 74
0
 49
-0.05
 74
0
 49
0.1
 74
0
 49
-0.05
 74
0
  0
LTYPE
  5
1F8
100
AcDbSymbolTableRecord
100
AcDbLinetypeTableRecord
  2
DOT
 70
64
  3
. . . . . . . . . . . . . . . . . . . .
 72
65
 73
2
 40
0.2
 49
0.1
 74
0
 49
-0.1
 74
0
  0
LTYPE
  5
1F9
100
AcDbSymbolTableRecord
100
AcDbLinetypeTableRecord
  2
DASHED
 70
64
  3
- - - - - - - - - - - - - - - - - - - -
 72
65
 73
2
 40
0.2
 49
0.1
 74
0
 49
-0.1
 74
0
  0
ENDTAB
  0
TABLE
  2
LAYER
  5
2
100
AcDbSymbolTable
 70
36
  0
LAYER
  5
10
100
AcDbSymbolTableRecord
100
AcDbLayerTableRecord
  2
0
 70
0
 62
7
  6
CONTINUOUS
370
-3
390
F
  0
LAYER
  5
1FA
100
AcDbSymbolTableRecord
100
AcDbLayerTableRecord
  2
DEFAULT_1
 70
0
 62
7
  6
CENTER
370
-3
390
F
  0
LAYER
  5
1FB
100
AcDbSymbolTableRecord
100
AcDbLayerTableRecord
  2
DEFAULT_2
 70
0
 62
8
  6
HIDDEN
370
-3
390
F
  0
LAYER
  5
1FC
100
AcDbSymbolTableRecord
100
AcDbLayerTableRecord
  2
DEFAULT_3
 70
0
 62
7
  6
PHANTOM
370
-3
390
F
  0
LAYER
  5
1FD
100
AcDbSymbolTableRecord
100
AcDbLayerTableRecord
  2
01_ALL_DTM_PLN
 70
0
 62
7
  6
CONTINUOUS
370
-3
390
F
  0
LAYER
  5
1FE
100
AcDbSymbolTableRecord
100
AcDbLayerTableRecord
  2
01__ASM_ALL_DTM_PLN
 70
0
 62
7
  6
CONTINUOUS
370
-3
390
F
  0
LAYER
  5
1FF
100
AcDbSymbolTableRecord
100
AcDbLayerTableRecord
  2
01__ASM_DEF_DTM_PLN
 70
0
 62
7
  6
CONTINUOUS
370
-3
390
F
  0
LAYER
  5
200
100
AcDbSymbolTableRecord
100
AcDbLayerTableRecord
  2
01___PRT_ALL_DTM_PLN
 70
0
 62
7
  6
CONTINUOUS
370
-3
390
F
  0
LAYER
  5
201
100
AcDbSymbolTableRecord
100
AcDbLayerTableRecord
  2
01___PRT_DEF_DTM_PLN
 70
0
 62
7
  6
CONTINUOUS
370
-3
390
F
  0
LAYER
  5
202
100
AcDbSymbolTableRecord
100
AcDbLayerTableRecord
  2
02_ALL_AXES
 70
0
 62
7
  6
CONTINUOUS
370
-3
390
F
  0
LAYER
  5
203
100
AcDbSymbolTableRecord
100
AcDbLayerTableRecord
  2
02__ASM_ALL_AXES
 70
0
 62
7
  6
CONTINUOUS
370
-3
390
F
  0
LAYER
  5
204
100
AcDbSymbolTableRecord
100
AcDbLayerTableRecord
  2
02___PRT_ALL_AXES
 70
0
 62
7
  6
CONTINUOUS
370
-3
390
F
  0
LAYER
  5
205
100
AcDbSymbolTableRecord
100
AcDbLayerTableRecord
  2
03_ALL_CURVES
 70
0
 62
7
  6
CONTINUOUS
370
-3
390
F
  0
LAYER
  5
206
100
AcDbSymbolTableRecord
100
AcDbLayerTableRecord
  2
03__ASM_ALL_CURVES
 70
0
 62
7
  6
CONTINUOUS
370
-3
390
F
  0
LAYER
  5
207
100
AcDbSymbolTableRecord
100
AcDbLayerTableRecord
  2
03___PRT_ALL_CURVES
 70
0
 62
7
  6
CONTINUOUS
370
-3
390
F
  0
LAYER
  5
208
100
AcDbSymbolTableRecord
100
AcDbLayerTableRecord
  2
04_ALL_DTM_PNT
 70
0
 62
7
  6
CONTINUOUS
370
-3
390
F
  0
LAYER
  5
209
100
AcDbSymbolTableRecord
100
AcDbLayerTableRecord
  2
04__ASM_ALL_DTM_PNT
 70
0
 62
7
  6
CONTINUOUS
370
-3
390
F
  0
LAYER
  5
20A
100
AcDbSymbolTableRecord
100
AcDbLayerTableRecord
  2
04___PRT_ALL_DTM_PNT
 70
0
 62
7
  6
CONTINUOUS
370
-3
390
F
  0
LAYER
  5
20B
100
AcDbSymbolTableRecord
100
AcDbLayerTableRecord
  2
05_ALL_DTM_CSYS
 70
0
 62
7
  6
CONTINUOUS
370
-3
390
F
  0
LAYER
  5
20C
100
AcDbSymbolTableRecord
100
AcDbLayerTableRecord
  2
05__ASM_ALL_DTM_CSYS
 70
0
 62
7
  6
CONTINUOUS
370
-3
390
F
  0
LAYER
  5
20D
100
AcDbSymbolTableRecord
100
AcDbLayerTableRecord
  2
05__ASM_DEF_DTM_CSYS
 70
0
 62
7
  6
CONTINUOUS
370
-3
390
F
  0
LAYER
  5
20E
100
AcDbSymbolTableRecord
100
AcDbLayerTableRecord
  2
05___PRT_ALL_DTM_CSYS
 70
0
 62
7
  6
CONTINUOUS
370
-3
390
F
  0
LAYER
  5
20F
100
AcDbSymbolTableRecord
100
AcDbLayerTableRecord
  2
05___PRT_DEF_DTM_CSYS
 70
0
 62
7
  6
CONTINUOUS
370
-3
390
F
  0
LAYER
  5
210
100
AcDbSymbolTableRecord
100
AcDbLayerTableRecord
  2
06_ALL_SURFS
 70
0
 62
7
  6
CONTINUOUS
370
-3
390
F
  0
LAYER
  5
211
100
AcDbSymbolTableRecord
100
AcDbLayerTableRecord
  2
06__ASM_ALL_SURFS
 70
0
 62
7
  6
CONTINUOUS
370
-3
390
F
  0
LAYER
  5
212
100
AcDbSymbolTableRecord
100
AcDbLayerTableRecord
  2
06___PRT_ALL_SURFS
 70
0
 62
7
  6
CONTINUOUS
370
-3
390
F
  0
LAYER
  5
213
100
AcDbSymbolTableRecord
100
AcDbLayerTableRecord
  2
07__ASM_ALL_SKELETONS
 70
0
 62
7
  6
CONTINUOUS
370
-3
390
F
  0
ENDTAB
  0
TABLE
  2
STYLE
  5
3
100
AcDbSymbolTable
 70
1
  0
STYLE
  5
11
100
AcDbSymbolTableRecord
100
AcDbTextStyleTableRecord
  2
STANDARD
 70
0
 40
0.0
 41
0.85
 50
0.0
 71
0
 42
0.2
  3
txt
  4

  0
STYLE
  5
214
100
AcDbSymbolTableRecord
100
AcDbTextStyleTableRecord
  2
TEXTSTYLE_1
 70
0
 40
0.0
 41
0.8
 50
0.0
 71
0
 42
0.2
  3
gdt
  4

  0
ENDTAB
  0
TABLE
  2
VIEW
  5
6
100
AcDbSymbolTable
 70
0
  0
ENDTAB
  0
TABLE
  2
UCS
  5
7
100
AcDbSymbolTable
 70
0
  0
ENDTAB
  0
TABLE
  2
APPID
  5
9
100
AcDbSymbolTable
 70
1
  0
APPID
  5
215
100
AcDbSymbolTableRecord
100
AcDbRegAppTableRecord
  2
ACAD
 70
0
  0
ENDTAB
  0
TABLE
  2
BLOCK_RECORD
  5
1
100
AcDbSymbolTable
 70
0
  0
BLOCK_RECORD
  5
216
100
AcDbSymbolTableRecord
100
AcDbBlockTableRecord
  2
*Model_Space
  0
BLOCK_RECORD
  5
217
100
AcDbSymbolTableRecord
100
AcDbBlockTableRecord
  2
*Paper_Space
  0
BLOCK_RECORD
  5
218
100
AcDbSymbolTableRecord
100
AcDbBlockTableRecord
  2
_FILLED
  0
BLOCK_RECORD
  5
219
100
AcDbSymbolTableRecord
100
AcDbBlockTableRecord
  2
*D0
  0
BLOCK_RECORD
  5
21A
100
AcDbSymbolTableRecord
100
AcDbBlockTableRecord
  2
*D1
  0
BLOCK_RECORD
  5
21B
100
AcDbSymbolTableRecord
100
AcDbBlockTableRecord
  2
*D2
  0
BLOCK_RECORD
  5
21C
100
AcDbSymbolTableRecord
100
AcDbBlockTableRecord
  2
*D3
  0
BLOCK_RECORD
  5
21D
100
AcDbSymbolTableRecord
100
AcDbBlockTableRecord
  2
*D4
  0
BLOCK_RECORD
  5
21E
100
AcDbSymbolTableRecord
100
AcDbBlockTableRecord
  2
*D5
  0
BLOCK_RECORD
  5
21F
100
AcDbSymbolTableRecord
100
AcDbBlockTableRecord
  2
*D6
  0
BLOCK_RECORD
  5
220
100
AcDbSymbolTableRecord
100
AcDbBlockTableRecord
  2
*D7
  0
BLOCK_RECORD
  5
221
100
AcDbSymbolTableRecord
100
AcDbBlockTableRecord
  2
*D8
  0
BLOCK_RECORD
  5
222
100
AcDbSymbolTableRecord
100
AcDbBlockTableRecord
  2
*D9
  0
BLOCK_RECORD
  5
223
100
AcDbSymbolTableRecord
100
AcDbBlockTableRecord
  2
*D10
  0
BLOCK_RECORD
  5
224
100
AcDbSymbolTableRecord
100
AcDbBlockTableRecord
  2
*D11
  0
BLOCK_RECORD
  5
225
100
AcDbSymbolTableRecord
100
AcDbBlockTableRecord
  2
*D12
  0
BLOCK_RECORD
  5
226
100
AcDbSymbolTableRecord
100
AcDbBlockTableRecord
  2
*D13
  0
BLOCK_RECORD
  5
227
100
AcDbSymbolTableRecord
100
AcDbBlockTableRecord
  2
*D14
  0
BLOCK_RECORD
  5
228
100
AcDbSymbolTableRecord
100
AcDbBlockTableRecord
  2
*D15
  0
BLOCK_RECORD
  5
229
100
AcDbSymbolTableRecord
100
AcDbBlockTableRecord
  2
*D16
  0
BLOCK_RECORD
  5
22A
100
AcDbSymbolTableRecord
100
AcDbBlockTableRecord
  2
*D17
  0
ENDTAB
  0
TABLE
  2
DIMSTYLE
  5
A
100
AcDbSymbolTable
 70
1
100
AcDbDimStyleTable
 71
0
  0
DIMSTYLE
105
22B
100
AcDbSymbolTableRecord
100
AcDbDimStyleTableRecord
  2
STANDARD
 70
0
  3

  4

 40
1.0
 41
3.5
 42
1.0
 43
0.38
 44
1.5
 45
0.0
 46
0.0
 47
0.01
 48
0.01
140
3.5
141
0.09
142
0.0
143
25.4
144
1.0
145
0.0
146
1.0
147
0.625
 71
1.0
 72
0.0
 73
0
 74
0
 75
0
 76
0
 77
1
 78
8
 79
2
170
0
171
1
172
0
173
0
174
0
175
0
176
0
177
0
178
0
270
2
179
2
271
2
272
2
273
2
274
2
275
0
280
0
281
0
282
0
283
1
284
8
285
0
286
0
287
3
288
0
340
11
278
44
341
218
342
218
343
218
344
218
  0
DIMSTYLE
105
22C
100
AcDbSymbolTableRecord
100
AcDbDimStyleTableRecord
  2
DIMSTYLE_1
 70
0
  3

  4

 40
1.0
 41
3.5
 42
1.0
 43
0.38
 44
1.5
 45
0.0
 46
0.0
 47
0.01
 48
0.01
140
3.5
141
0.09
142
0.0
143
25.4
144
1.0
145
0.0
146
1.0
147
0.875
 71
0.0
 72
0.0
 73
0
 74
0
 75
0
 76
0
 77
1
 78
8
 79
2
170
0
171
1
172
0
173
0
174
0
175
0
176
0
177
0
178
0
270
2
179
2
271
2
272
2
273
2
274
2
275
0
280
0
281
0
282
0
283
1
284
8
285
0
286
0
287
3
288
0
340
11
278
44
341
218
342
218
343
218
344
218
  0
ENDTAB
  0
ENDSEC
  0
SECTION
  2
BLOCKS
  0
BLOCK
  5
20
100
AcDbEntity
  8
0
100
AcDbBlockBegin
  2
*Model_Space
 70
0
 10
0.0
 20
0.0
 30
0.0
  3
*Model_Space
  1

  0
ENDBLK
  5
21
100
AcDbEntity
  8
0
100
AcDbBlockEnd
  0
BLOCK
  5
1C
100
AcDbEntity
  8
0
100
AcDbBlockBegin
  2
*Paper_Space
 70
0
 10
0.0
 20
0.0
 30
0.0
  3
*Paper_Space
  1

  0
ENDBLK
  5
1D
100
AcDbEntity
  8
0
100
AcDbBlockEnd
  0
BLOCK
  5
22D
100
AcDbEntity
  8
0
100
AcDbBlockBegin
  2
_FILLED
 70
64
 10
0.0
 20
0.0
  3
_FILLED
  1

  0
SOLID
  5
22E
100
AcDbEntity
  8
0
  6
BYBLOCK
 62
0
100
AcDbTrace
 10
0.0
 20
0.0
 11
-1.0
 21
0.2142857143
 12
-1.0
 22
-0.2142857143
 13
-1.0
 23
-0.2142857143
  0
ENDBLK
  5
22F
100
AcDbEntity
  8
0
  6
BYBLOCK
 62
0
100
AcDbBlockEnd
  0
BLOCK
  5
230
100
AcDbEntity
  8
0
100
AcDbBlockBegin
 62
2
  6
CONTINUOUS
  2
*D0
 70
65
 10
0.0
 20
0.0
  3
*D0
  1

  0
MTEXT
  5
231
100
AcDbEntity
  8
0
100
AcDbMText
 62
2
  6
CONTINUOUS
  7
STANDARD
 71
2
 72
1
 10
107.5940961048
 20
156.3968618397
 30
0.0
 11
1.0
 21
0.0
 31
0.0
 73
2
 44
0.9
  1
163max
 40
3.5
 41
17.85
  0
LINE
  5
232
100
AcDbEntity
  8
0
100
AcDbLine
 62
2
  6
CONTINUOUS
 10
26.3098248573
 20
213.7218618397
 11
26.3098248573
 21
150.5218618397
  0
LINE
  5
233
100
AcDbEntity
  8
0
100
AcDbLine
 62
2
  6
CONTINUOUS
 10
188.8783673523
 20
242.7218618397
 11
188.8783673523
 21
150.5218618397
  0
LINE
  5
234
100
AcDbEntity
  8
0
100
AcDbLine
 62
2
  6
CONTINUOUS
 10
26.3098248573
 20
152.0218618397
 11
107.5940961048
 21
152.0218618397
  0
LINE
  5
235
100
AcDbEntity
  8
0
100
AcDbLine
 62
2
  6
CONTINUOUS
 10
188.8783673523
 20
152.0218618397
 11
107.5940961048
 21
152.0218618397
  0
INSERT
  5
236
100
AcDbEntity
  8
0
100
AcDbBlockReference
 62
2
  6
CONTINUOUS
  2
_FILLED
 10
26.3098248573
 20
152.0218618397
 41
3.5
 42
3.5
 43
3.5
 50
180.0
  0
INSERT
  5
237
100
AcDbEntity
  8
0
100
AcDbBlockReference
 62
2
  6
CONTINUOUS
  2
_FILLED
 10
188.8783673523
 20
152.0218618397
 41
3.5
 42
3.5
 43
3.5
  0
ENDBLK
  5
238
100
AcDbEntity
  8
0
  6
BYBLOCK
 62
0
100
AcDbBlockEnd
  0
BLOCK
  5
239
100
AcDbEntity
  8
0
100
AcDbBlockBegin
 62
2
  6
CONTINUOUS
  2
*D1
 70
65
 10
0.0
 20
0.0
  3
*D1
  1

  0
MTEXT
  5
23A
100
AcDbEntity
  8
0
100
AcDbMText
 62
2
  6
CONTINUOUS
  7
STANDARD
 71
2
 72
1
 10
9.2348248573
 20
231.7218618397
 30
0.0
 11
0.0
 21
1.0
 31
0.0
 73
2
 44
0.9
  1
30
 40
3.5
 41
5.95
  0
LINE
  5
23B
100
AcDbEntity
  8
0
100
AcDbLine
 62
2
  6
CONTINUOUS
 10
73.2978431107
 20
246.7218618397
 11
12.1098248573
 21
246.7218618397
  0
LINE
  5
23C
100
AcDbEntity
  8
0
100
AcDbLine
 62
2
  6
CONTINUOUS
 10
22.8946318559
 20
216.7218618397
 11
12.1098248573
 21
216.7218618397
  0
LINE
  5
23D
100
AcDbEntity
  8
0
100
AcDbLine
 62
2
  6
CONTINUOUS
 10
13.6098248573
 20
246.7218618397
 11
13.6098248573
 21
231.7218618397
  0
LINE
  5
23E
100
AcDbEntity
  8
0
100
AcDbLine
 62
2
  6
CONTINUOUS
 10
13.6098248573
 20
216.7218618397
 11
13.6098248573
 21
231.7218618397
  0
INSERT
  5
23F
100
AcDbEntity
  8
0
100
AcDbBlockReference
 62
2
  6
CONTINUOUS
  2
_FILLED
 10
13.6098248573
 20
246.7218618397
 41
3.5
 42
3.5
 43
3.5
 50
90.0
  0
INSERT
  5
240
100
AcDbEntity
  8
0
100
AcDbBlockReference
 62
2
  6
CONTINUOUS
  2
_FILLED
 10
13.6098248573
 20
216.7218618397
 41
3.5
 42
3.5
 43
3.5
 50
270.0
  0
ENDBLK
  5
241
100
AcDbEntity
  8
0
  6
BYBLOCK
 62
0
100
AcDbBlockEnd
  0
BLOCK
  5
242
100
AcDbEntity
  8
0
100
AcDbBlockBegin
 62
2
  6
CONTINUOUS
  2
*D2
 70
65
 10
0.0
 20
0.0
  3
*D2
  1

  0
MTEXT
  5
243
100
AcDbEntity
  8
0
100
AcDbMText
 62
2
  6
CONTINUOUS
  7
STANDARD
 71
2
 72
1
 10
129.5909163383
 20
176.3968618397
 30
0.0
 11
1.0
 21
0.0
 31
0.0
 73
2
 44
0.9
  1
(112)
 40
3.5
 41
14.875
  0
LINE
  5
244
100
AcDbEntity
  8
0
100
AcDbLine
 62
2
  6
CONTINUOUS
 10
76.5626020685
 20
241.0218618397
 11
76.5626020685
 21
170.5218618397
  0
LINE
  5
245
100
AcDbEntity
  8
0
100
AcDbLine
 62
2
  6
CONTINUOUS
 10
188.8783673523
 20
242.7218618397
 11
188.8783673523
 21
170.5218618397
  0
LINE
  5
246
100
AcDbEntity
  8
0
100
AcDbLine
 62
2
  6
CONTINUOUS
 10
76.5626020685
 20
172.0218618397
 11
132.7204847104
 21
172.0218618397
  0
LINE
  5
247
100
AcDbEntity
  8
0
100
AcDbLine
 62
2
  6
CONTINUOUS
 10
188.8783673523
 20
172.0218618397
 11
132.7204847104
 21
172.0218618397
  0
INSERT
  5
248
100
AcDbEntity
  8
0
100
AcDbBlockReference
 62
2
  6
CONTINUOUS
  2
_FILLED
 10
76.5626020685
 20
172.0218618397
 41
3.5
 42
3.5
 43
3.5
 50
180.0
  0
INSERT
  5
249
100
AcDbEntity
  8
0
100
AcDbBlockReference
 62
2
  6
CONTINUOUS
  2
_FILLED
 10
188.8783673523
 20
172.0218618397
 41
3.5
 42
3.5
 43
3.5
 50
360.0
  0
ENDBLK
  5
24A
100
AcDbEntity
  8
0
  6
BYBLOCK
 62
0
100
AcDbBlockEnd
  0
BLOCK
  5
24B
100
AcDbEntity
  8
0
100
AcDbBlockBegin
 62
2
  6
CONTINUOUS
  2
*D3
 70
65
 10
0.0
 20
0.0
  3
*D3
  1

  0
MTEXT
  5
24C
100
AcDbEntity
  8
0
100
AcDbMText
 62
2
  6
CONTINUOUS
  7
STANDARD
 71
2
 72
1
 10
207.049630716
 20
130.7338413059
 30
0.0
 11
0.0
 21
1.0
 31
0.0
 73
2
 44
0.9
  1
50
 40
3.5
 41
5.95
  0
LINE
  5
24D
100
AcDbEntity
  8
0
100
AcDbLine
 62
2
  6
CONTINUOUS
 10
262.124630716
 20
105.7338413059
 11
209.924630716
 21
105.7338413059
  0
LINE
  5
24E
100
AcDbEntity
  8
0
100
AcDbLine
 62
2
  6
CONTINUOUS
 10
262.124630716
 20
155.7338413059
 11
209.924630716
 21
155.7338413059
  0
LINE
  5
24F
100
AcDbEntity
  8
0
100
AcDbLine
 62
2
  6
CONTINUOUS
 10
211.424630716
 20
105.7338413059
 11
211.424630716
 21
130.7338413059
  0
LINE
  5
250
100
AcDbEntity
  8
0
100
AcDbLine
 62
2
  6
CONTINUOUS
 10
211.424630716
 20
155.7338413059
 11
211.424630716
 21
130.7338413059
  0
INSERT
  5
251
100
AcDbEntity
  8
0
100
AcDbBlockReference
 62
2
  6
CONTINUOUS
  2
_FILLED
 10
211.424630716
 20
105.7338413059
 41
3.5
 42
3.5
 43
3.5
 50
270.0
  0
INSERT
  5
252
100
AcDbEntity
  8
0
100
AcDbBlockReference
 62
2
  6
CONTINUOUS
  2
_FILLED
 10
211.424630716
 20
155.7338413059
 41
3.5
 42
3.5
 43
3.5
 50
90.0
  0
ENDBLK
  5
253
100
AcDbEntity
  8
0
  6
BYBLOCK
 62
0
100
AcDbBlockEnd
  0
BLOCK
  5
254
100
AcDbEntity
  8
0
100
AcDbBlockBegin
 62
2
  6
CONTINUOUS
  2
*D4
 70
65
 10
0.0
 20
0.0
  3
*D4
  1

  0
MTEXT
  5
255
100
AcDbEntity
  8
0
100
AcDbMText
 62
2
  6
CONTINUOUS
  7
STANDARD
 71
2
 72
1
 10
395.0181732109
 20
160.7338413059
 30
0.0
 11
0.0
 21
1.0
 31
0.0
 73
2
 44
0.9
  1
50
 40
3.5
 41
5.95
  0
LINE
  5
256
100
AcDbEntity
  8
0
100
AcDbLine
 62
2
  6
CONTINUOUS
 10
356.1931732109
 20
135.7338413059
 11
400.8931732109
 21
135.7338413059
  0
LINE
  5
257
100
AcDbEntity
  8
0
100
AcDbLine
 62
2
  6
CONTINUOUS
 10
356.1931732109
 20
185.7338413059
 11
400.8931732109
 21
185.7338413059
  0
LINE
  5
258
100
AcDbEntity
  8
0
100
AcDbLine
 62
2
  6
CONTINUOUS
 10
399.3931732109
 20
135.7338413059
 11
399.3931732109
 21
160.7338413059
  0
LINE
  5
259
100
AcDbEntity
  8
0
100
AcDbLine
 62
2
  6
CONTINUOUS
 10
399.3931732109
 20
185.7338413059
 11
399.3931732109
 21
160.7338413059
  0
INSERT
  5
25A
100
AcDbEntity
  8
0
100
AcDbBlockReference
 62
2
  6
CONTINUOUS
  2
_FILLED
 10
399.3931732109
 20
135.7338413059
 41
3.5
 42
3.5
 43
3.5
 50
270.0
  0
INSERT
  5
25B
100
AcDbEntity
  8
0
100
AcDbBlockReference
 62
2
  6
CONTINUOUS
  2
_FILLED
 10
399.3931732109
 20
185.7338413059
 41
3.5
 42
3.5
 43
3.5
 50
90.0
  0
ENDBLK
  5
25C
100
AcDbEntity
  8
0
  6
BYBLOCK
 62
0
100
AcDbBlockEnd
  0
BLOCK
  5
25D
100
AcDbEntity
  8
0
100
AcDbBlockBegin
 62
2
  6
CONTINUOUS
  2
*D5
 70
65
 10
0.0
 20
0.0
  3
*D5
  1

  0
MTEXT
  5
25E
100
AcDbEntity
  8
0
100
AcDbMText
 62
2
  6
CONTINUOUS
  7
STANDARD
 71
2
 72
1
 10
340.1931732109
 20
90.4088413059
 30
0.0
 11
1.0
 21
0.0
 31
0.0
 73
2
 44
0.9
  1
15
 40
3.5
 41
5.95
  0
LINE
  5
25F
100
AcDbEntity
  8
0
100
AcDbLine
 62
2
  6
CONTINUOUS
 10
347.6931732109
 20
127.2338413059
 11
347.6931732109
 21
84.5338413059
  0
LINE
  5
260
100
AcDbEntity
  8
0
100
AcDbLine
 62
2
  6
CONTINUOUS
 10
332.6931732109
 20
127.7338413059
 11
332.6931732109
 21
84.5338413059
  0
LINE
  5
261
100
AcDbEntity
  8
0
100
AcDbLine
 62
2
  6
CONTINUOUS
 10
347.6931732109
 20
86.0338413059
 11
352.6931732109
 21
86.0338413059
  0
LINE
  5
262
100
AcDbEntity
  8
0
100
AcDbLine
 62
2
  6
CONTINUOUS
 10
352.6931732109
 20
86.0338413059
 11
340.1931732109
 21
86.0338413059
  0
LINE
  5
263
100
AcDbEntity
  8
0
100
AcDbLine
 62
2
  6
CONTINUOUS
 10
332.6931732109
 20
86.0338413059
 11
327.6931732109
 21
86.0338413059
  0
LINE
  5
264
100
AcDbEntity
  8
0
100
AcDbLine
 62
2
  6
CONTINUOUS
 10
327.6931732109
 20
86.0338413059
 11
340.1931732109
 21
86.0338413059
  0
INSERT
  5
265
100
AcDbEntity
  8
0
100
AcDbBlockReference
 62
2
  6
CONTINUOUS
  2
_FILLED
 10
347.6931732109
 20
86.0338413059
 41
3.5
 42
3.5
 43
3.5
 50
180.0
  0
INSERT
  5
266
100
AcDbEntity
  8
0
100
AcDbBlockReference
 62
2
  6
CONTINUOUS
  2
_FILLED
 10
332.6931732109
 20
86.0338413059
 41
3.5
 42
3.5
 43
3.5
  0
ENDBLK
  5
267
100
AcDbEntity
  8
0
  6
BYBLOCK
 62
0
100
AcDbBlockEnd
  0
BLOCK
  5
268
100
AcDbEntity
  8
0
100
AcDbBlockBegin
 62
2
  6
CONTINUOUS
  2
*D6
 70
65
 10
0.0
 20
0.0
  3
*D6
  1

  0
MTEXT
  5
269
100
AcDbEntity
  8
0
100
AcDbMText
 62
2
  6
CONTINUOUS
  7
STANDARD
 71
2
 72
1
 10
270.624630716
 20
90.4088413059
 30
0.0
 11
1.0
 21
0.0
 31
0.0
 73
2
 44
0.9
  1
15
 40
3.5
 41
5.95
  0
LINE
  5
26A
100
AcDbEntity
  8
0
100
AcDbLine
 62
2
  6
CONTINUOUS
 10
263.124630716
 20
97.2338413059
 11
263.124630716
 21
84.5338413059
  0
LINE
  5
26B
100
AcDbEntity
  8
0
100
AcDbLine
 62
2
  6
CONTINUOUS
 10
278.124630716
 20
97.7338413059
 11
278.124630716
 21
84.5338413059
  0
LINE
  5
26C
100
AcDbEntity
  8
0
100
AcDbLine
 62
2
  6
CONTINUOUS
 10
263.124630716
 20
86.0338413059
 11
258.124630716
 21
86.0338413059
  0
LINE
  5
26D
100
AcDbEntity
  8
0
100
AcDbLine
 62
2
  6
CONTINUOUS
 10
258.124630716
 20
86.0338413059
 11
270.624630716
 21
86.0338413059
  0
LINE
  5
26E
100
AcDbEntity
  8
0
100
AcDbLine
 62
2
  6
CONTINUOUS
 10
278.124630716
 20
86.0338413059
 11
283.124630716
 21
86.0338413059
  0
LINE
  5
26F
100
AcDbEntity
  8
0
100
AcDbLine
 62
2
  6
CONTINUOUS
 10
283.124630716
 20
86.0338413059
 11
270.624630716
 21
86.0338413059
  0
INSERT
  5
270
100
AcDbEntity
  8
0
100
AcDbBlockReference
 62
2
  6
CONTINUOUS
  2
_FILLED
 10
263.124630716
 20
86.0338413059
 41
3.5
 42
3.5
 43
3.5
  0
INSERT
  5
271
100
AcDbEntity
  8
0
100
AcDbBlockReference
 62
2
  6
CONTINUOUS
  2
_FILLED
 10
278.124630716
 20
86.0338413059
 41
3.5
 42
3.5
 43
3.5
 50
180.0
  0
ENDBLK
  5
272
100
AcDbEntity
  8
0
  6
BYBLOCK
 62
0
100
AcDbBlockEnd
  0
BLOCK
  5
273
100
AcDbEntity
  8
0
100
AcDbBlockBegin
 62
2
  6
CONTINUOUS
  2
*D7
 70
65
 10
0.0
 20
0.0
  3
*D7
  1

  0
MTEXT
  5
274
100
AcDbEntity
  8
0
100
AcDbMText
 62
2
  6
CONTINUOUS
  7
STANDARD
 71
2
 72
1
 10
263.124630716
 20
80.4088413059
 30
0.0
 11
1.0
 21
0.0
 31
0.0
 73
2
 44
0.9
  1
30
 40
3.5
 41
5.95
  0
LINE
  5
275
100
AcDbEntity
  8
0
100
AcDbLine
 62
2
  6
CONTINUOUS
 10
248.124630716
 20
97.7338413059
 11
248.124630716
 21
74.5338413059
  0
LINE
  5
276
100
AcDbEntity
  8
0
100
AcDbLine
 62
2
  6
CONTINUOUS
 10
278.124630716
 20
97.7338413059
 11
278.124630716
 21
74.5338413059
  0
LINE
  5
277
100
AcDbEntity
  8
0
100
AcDbLine
 62
2
  6
CONTINUOUS
 10
248.124630716
 20
76.0338413059
 11
263.124630716
 21
76.0338413059
  0
LINE
  5
278
100
AcDbEntity
  8
0
100
AcDbLine
 62
2
  6
CONTINUOUS
 10
278.124630716
 20
76.0338413059
 11
263.124630716
 21
76.0338413059
  0
INSERT
  5
279
100
AcDbEntity
  8
0
100
AcDbBlockReference
 62
2
  6
CONTINUOUS
  2
_FILLED
 10
248.124630716
 20
76.0338413059
 41
3.5
 42
3.5
 43
3.5
 50
180.0
  0
INSERT
  5
27A
100
AcDbEntity
  8
0
100
AcDbBlockReference
 62
2
  6
CONTINUOUS
  2
_FILLED
 10
278.124630716
 20
76.0338413059
 41
3.5
 42
3.5
 43
3.5
  0
ENDBLK
  5
27B
100
AcDbEntity
  8
0
  6
BYBLOCK
 62
0
100
AcDbBlockEnd
  0
BLOCK
  5
27C
100
AcDbEntity
  8
0
100
AcDbBlockBegin
 62
2
  6
CONTINUOUS
  2
*D8
 70
65
 10
0.0
 20
0.0
  3
*D8
  1

  0
MTEXT
  5
27D
100
AcDbEntity
  8
0
100
AcDbMText
 62
2
  6
CONTINUOUS
  7
STANDARD
 71
2
 72
1
 10
197.049630716
 20
130.7338413059
 30
0.0
 11
0.0
 21
1.0
 31
0.0
 73
2
 44
0.9
  1
64
 40
3.5
 41
5.95
  0
LINE
  5
27E
100
AcDbEntity
  8
0
100
AcDbLine
 62
2
  6
CONTINUOUS
 10
247.124630716
 20
98.7338413059
 11
199.924630716
 21
98.7338413059
  0
LINE
  5
27F
100
AcDbEntity
  8
0
100
AcDbLine
 62
2
  6
CONTINUOUS
 10
247.124630716
 20
162.7338413059
 11
199.924630716
 21
162.7338413059
  0
LINE
  5
280
100
AcDbEntity
  8
0
100
AcDbLine
 62
2
  6
CONTINUOUS
 10
201.424630716
 20
98.7338413059
 11
201.424630716
 21
130.7338413059
  0
LINE
  5
281
100
AcDbEntity
  8
0
100
AcDbLine
 62
2
  6
CONTINUOUS
 10
201.424630716
 20
162.7338413059
 11
201.424630716
 21
130.7338413059
  0
INSERT
  5
282
100
AcDbEntity
  8
0
100
AcDbBlockReference
 62
2
  6
CONTINUOUS
  2
_FILLED
 10
201.424630716
 20
98.7338413059
 41
3.5
 42
3.5
 43
3.5
 50
270.0
  0
INSERT
  5
283
100
AcDbEntity
  8
0
100
AcDbBlockReference
 62
2
  6
CONTINUOUS
  2
_FILLED
 10
201.424630716
 20
162.7338413059
 41
3.5
 42
3.5
 43
3.5
 50
90.0
  0
ENDBLK
  5
284
100
AcDbEntity
  8
0
  6
BYBLOCK
 62
0
100
AcDbBlockEnd
  0
BLOCK
  5
285
100
AcDbEntity
  8
0
100
AcDbBlockBegin
 62
2
  6
CONTINUOUS
  2
*D9
 70
65
 10
0.0
 20
0.0
  3
*D9
  1

  0
MTEXT
  5
286
100
AcDbEntity
  8
0
100
AcDbMText
 62
2
  6
CONTINUOUS
  7
STANDARD
 71
2
 72
1
 10
197.2033673523
 20
76.7854784733
 30
0.0
 11
0.0
 21
1.0
 31
0.0
 73
2
 44
0.9
  1
15,9
 40
3.5
 41
11.9
  0
LINE
  5
287
100
AcDbEntity
  8
0
100
AcDbLine
 62
2
  6
CONTINUOUS
 10
165.8783673523
 20
84.7354784733
 11
203.0783673523
 21
84.7354784733
  0
LINE
  5
288
100
AcDbEntity
  8
0
100
AcDbLine
 62
2
  6
CONTINUOUS
 10
191.0837032788
 20
68.8354784733
 11
203.0783673523
 21
68.8354784733
  0
LINE
  5
289
100
AcDbEntity
  8
0
100
AcDbLine
 62
2
  6
CONTINUOUS
 10
201.5783673523
 20
84.7354784733
 11
201.5783673523
 21
89.7354784733
  0
LINE
  5
28A
100
AcDbEntity
  8
0
100
AcDbLine
 62
2
  6
CONTINUOUS
 10
201.5783673523
 20
89.7354784733
 11
201.5783673523
 21
76.7854784733
  0
LINE
  5
28B
100
AcDbEntity
  8
0
100
AcDbLine
 62
2
  6
CONTINUOUS
 10
201.5783673523
 20
68.8354784733
 11
201.5783673523
 21
63.8354784733
  0
LINE
  5
28C
100
AcDbEntity
  8
0
100
AcDbLine
 62
2
  6
CONTINUOUS
 10
201.5783673523
 20
63.8354784733
 11
201.5783673523
 21
76.7854784733
  0
INSERT
  5
28D
100
AcDbEntity
  8
0
100
AcDbBlockReference
 62
2
  6
CONTINUOUS
  2
_FILLED
 10
201.5783673523
 20
84.7354784733
 41
3.5
 42
3.5
 43
3.5
 50
270.0
  0
INSERT
  5
28E
100
AcDbEntity
  8
0
100
AcDbBlockReference
 62
2
  6
CONTINUOUS
  2
_FILLED
 10
201.5783673523
 20
68.8354784733
 41
3.5
 42
3.5
 43
3.5
 50
90.0
  0
ENDBLK
  5
28F
100
AcDbEntity
  8
0
  6
BYBLOCK
 62
0
100
AcDbBlockEnd
  0
BLOCK
  5
290
100
AcDbEntity
  8
0
100
AcDbBlockBegin
 62
2
  6
CONTINUOUS
  2
*D10
 70
65
 10
0.0
 20
0.0
  3
*D10
  1

  0
MTEXT
  5
291
100
AcDbEntity
  8
0
100
AcDbMText
 62
2
  6
CONTINUOUS
  7
STANDARD
 71
1
 72
1
 10
213.5857840925
 20
142.3030457424
 30
0.0
 11
0.0
 21
1.0
 31
0.0
 73
2
 44
0.9
  1
M10
 40
3.5
 41
8.925
  0
LINE
  5
292
100
AcDbEntity
  8
0
100
AcDbLine
 62
2
  6
CONTINUOUS
 10
228.324630716
 20
135.7338413059
 11
216.4607840925
 21
135.7338413059
  0
LINE
  5
293
100
AcDbEntity
  8
0
100
AcDbLine
 62
2
  6
CONTINUOUS
 10
228.324630716
 20
125.7338413059
 11
216.4607840925
 21
125.7338413059
  0
LINE
  5
294
100
AcDbEntity
  8
0
100
AcDbLine
 62
2
  6
CONTINUOUS
 10
217.9607840925
 20
135.7338413059
 11
217.9607840925
 21
151.2280457424
  0
LINE
  5
295
100
AcDbEntity
  8
0
100
AcDbLine
 62
2
  6
CONTINUOUS
 10
217.9607840925
 20
151.2280457424
 11
217.9607840925
 21
130.7338413059
  0
LINE
  5
296
100
AcDbEntity
  8
0
100
AcDbLine
 62
2
  6
CONTINUOUS
 10
217.9607840925
 20
125.7338413059
 11
217.9607840925
 21
120.7338413059
  0
LINE
  5
297
100
AcDbEntity
  8
0
100
AcDbLine
 62
2
  6
CONTINUOUS
 10
217.9607840925
 20
120.7338413059
 11
217.9607840925
 21
130.7338413059
  0
INSERT
  5
298
100
AcDbEntity
  8
0
100
AcDbBlockReference
 62
2
  6
CONTINUOUS
  2
_FILLED
 10
217.9607840925
 20
135.7338413059
 41
3.5
 42
3.5
 43
3.5
 50
270.0
  0
INSERT
  5
299
100
AcDbEntity
  8
0
100
AcDbBlockReference
 62
2
  6
CONTINUOUS
  2
_FILLED
 10
217.9607840925
 20
125.7338413059
 41
3.5
 42
3.5
 43
3.5
 50
90.0
  0
ENDBLK
  5
29A
100
AcDbEntity
  8
0
  6
BYBLOCK
 62
0
100
AcDbBlockEnd
  0
BLOCK
  5
29B
100
AcDbEntity
  8
0
100
AcDbBlockBegin
 62
2
  6
CONTINUOUS
  2
*D11
 70
65
 10
0.0
 20
0.0
  3
*D11
  1

  0
MTEXT
  5
29C
100
AcDbEntity
  8
0
100
AcDbMText
 62
2
  6
CONTINUOUS
  7
STANDARD
 71
1
 72
1
 10
239.2127866855
 20
153.437942272
 30
0.0
 11
1.0
 21
0.0
 31
0.0
 73
2
 44
0.9
  1
7,5
 40
3.5
 41
8.925
  0
LINE
  5
29D
100
AcDbEntity
  8
0
100
AcDbLine
 62
2
  6
CONTINUOUS
 10
229.124630716
 20
136.5338413059
 11
229.124630716
 21
150.562942272
  0
LINE
  5
29E
100
AcDbEntity
  8
0
100
AcDbLine
 62
2
  6
CONTINUOUS
 10
236.624630716
 20
137.5338413059
 11
236.624630716
 21
150.562942272
  0
LINE
  5
29F
100
AcDbEntity
  8
0
100
AcDbLine
 62
2
  6
CONTINUOUS
 10
229.124630716
 20
149.062942272
 11
224.124630716
 21
149.062942272
  0
LINE
  5
2A0
100
AcDbEntity
  8
0
100
AcDbLine
 62
2
  6
CONTINUOUS
 10
224.124630716
 20
149.062942272
 11
232.874630716
 21
149.062942272
  0
LINE
  5
2A1
100
AcDbEntity
  8
0
100
AcDbLine
 62
2
  6
CONTINUOUS
 10
236.624630716
 20
149.062942272
 11
248.1377866855
 21
149.062942272
  0
LINE
  5
2A2
100
AcDbEntity
  8
0
100
AcDbLine
 62
2
  6
CONTINUOUS
 10
248.1377866855
 20
149.062942272
 11
232.874630716
 21
149.062942272
  0
INSERT
  5
2A3
100
AcDbEntity
  8
0
100
AcDbBlockReference
 62
2
  6
CONTINUOUS
  2
_FILLED
 10
229.124630716
 20
149.062942272
 41
3.5
 42
3.5
 43
3.5
  0
INSERT
  5
2A4
100
AcDbEntity
  8
0
100
AcDbBlockReference
 62
2
  6
CONTINUOUS
  2
_FILLED
 10
236.624630716
 20
149.062942272
 41
3.5
 42
3.5
 43
3.5
 50
180.0
  0
ENDBLK
  5
2A5
100
AcDbEntity
  8
0
  6
BYBLOCK
 62
0
100
AcDbBlockEnd
  0
BLOCK
  5
2A6
100
AcDbEntity
  8
0
100
AcDbBlockBegin
 62
2
  6
CONTINUOUS
  2
*D12
 70
65
 10
0.0
 20
0.0
  3
*D12
  1

  0
MTEXT
  5
2A7
100
AcDbEntity
  8
0
100
AcDbMText
 62
2
  6
CONTINUOUS
  7
STANDARD
 71
3
 72
1
 10
386.2379052137
 20
148.6948374877
 30
0.0
 11
0.0
 21
1.0
 31
0.0
 73
2
 44
0.9
  1
M12
 40
3.5
 41
8.925
  0
LINE
  5
2A8
100
AcDbEntity
  8
0
100
AcDbLine
 62
2
  6
CONTINUOUS
 10
382.4931732109
 20
154.7338413059
 11
392.1129052137
 21
154.7338413059
  0
LINE
  5
2A9
100
AcDbEntity
  8
0
100
AcDbLine
 62
2
  6
CONTINUOUS
 10
382.4931732109
 20
166.7338413059
 11
392.1129052137
 21
166.7338413059
  0
LINE
  5
2AA
100
AcDbEntity
  8
0
100
AcDbLine
 62
2
  6
CONTINUOUS
 10
390.6129052137
 20
154.7338413059
 11
390.6129052137
 21
160.7338413059
  0
LINE
  5
2AB
100
AcDbEntity
  8
0
100
AcDbLine
 62
2
  6
CONTINUOUS
 10
390.6129052137
 20
160.7338413059
 11
390.6129052137
 21
139.7698374877
  0
LINE
  5
2AC
100
AcDbEntity
  8
0
100
AcDbLine
 62
2
  6
CONTINUOUS
 10
390.6129052137
 20
166.7338413059
 11
390.6129052137
 21
160.7338413059
  0
INSERT
  5
2AD
100
AcDbEntity
  8
0
100
AcDbBlockReference
 62
2
  6
CONTINUOUS
  2
_FILLED
 10
390.6129052137
 20
154.7338413059
 41
3.5
 42
3.5
 43
3.5
 50
270.0
  0
INSERT
  5
2AE
100
AcDbEntity
  8
0
100
AcDbBlockReference
 62
2
  6
CONTINUOUS
  2
_FILLED
 10
390.6129052137
 20
166.7338413059
 41
3.5
 42
3.5
 43
3.5
 50
90.0
  0
ENDBLK
  5
2AF
100
AcDbEntity
  8
0
  6
BYBLOCK
 62
0
100
AcDbBlockEnd
  0
BLOCK
  5
2B0
100
AcDbEntity
  8
0
100
AcDbBlockBegin
 62
2
  6
CONTINUOUS
  2
*D13
 70
65
 10
0.0
 20
0.0
  3
*D13
  1

  0
MTEXT
  5
2B1
100
AcDbEntity
  8
0
100
AcDbMText
 62
2
  6
CONTINUOUS
  7
STANDARD
 71
1
 72
1
 10
387.8182152109
 20
181.6785990572
 30
0.0
 11
1.0
 21
0.0
 31
0.0
 73
2
 44
0.9
  1
6,5
 40
3.5
 41
8.925
  0
LINE
  5
2B2
100
AcDbEntity
  8
0
100
AcDbLine
 62
2
  6
CONTINUOUS
 10
381.6931732109
 20
167.5338413059
 11
381.6931732109
 21
178.8035990572
  0
LINE
  5
2B3
100
AcDbEntity
  8
0
100
AcDbLine
 62
2
  6
CONTINUOUS
 10
375.1931732109
 20
168.3838413059
 11
375.1931732109
 21
178.8035990572
  0
LINE
  5
2B4
100
AcDbEntity
  8
0
100
AcDbLine
 62
2
  6
CONTINUOUS
 10
381.6931732109
 20
177.3035990572
 11
396.7432152109
 21
177.3035990572
  0
LINE
  5
2B5
100
AcDbEntity
  8
0
100
AcDbLine
 62
2
  6
CONTINUOUS
 10
396.7432152109
 20
177.3035990572
 11
378.4431732109
 21
177.3035990572
  0
LINE
  5
2B6
100
AcDbEntity
  8
0
100
AcDbLine
 62
2
  6
CONTINUOUS
 10
375.1931732109
 20
177.3035990572
 11
370.1931732109
 21
177.3035990572
  0
LINE
  5
2B7
100
AcDbEntity
  8
0
100
AcDbLine
 62
2
  6
CONTINUOUS
 10
370.1931732109
 20
177.3035990572
 11
378.4431732109
 21
177.3035990572
  0
INSERT
  5
2B8
100
AcDbEntity
  8
0
100
AcDbBlockReference
 62
2
  6
CONTINUOUS
  2
_FILLED
 10
381.6931732109
 20
177.3035990572
 41
3.5
 42
3.5
 43
3.5
 50
180.0
  0
INSERT
  5
2B9
100
AcDbEntity
  8
0
100
AcDbBlockReference
 62
2
  6
CONTINUOUS
  2
_FILLED
 10
375.1931732109
 20
177.3035990572
 41
3.5
 42
3.5
 43
3.5
  0
ENDBLK
  5
2BA
100
AcDbEntity
  8
0
  6
BYBLOCK
 62
0
100
AcDbBlockEnd
  0
BLOCK
  5
2BB
100
AcDbEntity
  8
0
100
AcDbBlockBegin
 62
2
  6
CONTINUOUS
  2
*D14
 70
65
 10
0.0
 20
0.0
  3
*D14
  1

  0
MTEXT
  5
2BC
100
AcDbEntity
  8
0
100
AcDbMText
 62
2
  6
CONTINUOUS
  7
STANDARD
 71
1
 72
1
 10
263.364277258
 20
174.1142393582
 30
0.0
 11
0.0
 21
1.0
 31
0.0
 73
2
 44
0.9
  1
3/8" UNF
 40
3.5
 41
23.8
  0
LINE
  5
2BD
100
AcDbEntity
  8
0
100
AcDbLine
 62
2
  6
CONTINUOUS
 10
273.3774079271
 20
156.0338413059
 11
266.864277258
 21
156.0338413059
  0
LINE
  5
2BE
100
AcDbEntity
  8
0
100
AcDbLine
 62
2
  6
CONTINUOUS
 10
266.864277258
 20
156.0338413059
 11
266.239277258
 21
156.0338413059
  0
LINE
  5
2BF
100
AcDbEntity
  8
0
100
AcDbLine
 62
2
  6
CONTINUOUS
 10
273.3774079271
 20
165.4338413059
 11
266.864277258
 21
165.4338413059
  0
LINE
  5
2C0
100
AcDbEntity
  8
0
100
AcDbLine
 62
2
  6
CONTINUOUS
 10
266.864277258
 20
165.4338413059
 11
266.239277258
 21
165.4338413059
  0
LINE
  5
2C1
100
AcDbEntity
  8
0
100
AcDbLine
 62
2
  6
CONTINUOUS
 10
267.739277258
 20
156.0338413059
 11
267.739277258
 21
151.0338413059
  0
LINE
  5
2C2
100
AcDbEntity
  8
0
100
AcDbLine
 62
2
  6
CONTINUOUS
 10
267.739277258
 20
151.0338413059
 11
267.739277258
 21
160.7338413059
  0
LINE
  5
2C3
100
AcDbEntity
  8
0
100
AcDbLine
 62
2
  6
CONTINUOUS
 10
267.739277258
 20
165.4338413059
 11
267.739277258
 21
197.9142393582
  0
LINE
  5
2C4
100
AcDbEntity
  8
0
100
AcDbLine
 62
2
  6
CONTINUOUS
 10
267.739277258
 20
197.9142393582
 11
267.739277258
 21
160.7338413059
  0
INSERT
  5
2C5
100
AcDbEntity
  8
0
100
AcDbBlockReference
 62
2
  6
CONTINUOUS
  2
_FILLED
 10
267.739277258
 20
156.0338413059
 41
3.5
 42
3.5
 43
3.5
 50
90.0
  0
INSERT
  5
2C6
100
AcDbEntity
  8
0
100
AcDbBlockReference
 62
2
  6
CONTINUOUS
  2
_FILLED
 10
267.739277258
 20
165.4338413059
 41
3.5
 42
3.5
 43
3.5
 50
270.0
  0
ENDBLK
  5
2C7
100
AcDbEntity
  8
0
  6
BYBLOCK
 62
0
100
AcDbBlockEnd
  0
BLOCK
  5
2C8
100
AcDbEntity
  8
0
100
AcDbBlockBegin
 62
2
  6
CONTINUOUS
  2
*D15
 70
65
 10
0.0
 20
0.0
  3
*D15
  1

  0
MTEXT
  5
2C9
100
AcDbEntity
  8
0
100
AcDbMText
 62
2
  6
CONTINUOUS
  7
STANDARD
 71
1
 72
1
 10
286.1469737414
 20
191.7695399574
 30
0.0
 11
1.0
 21
0.0
 31
0.0
 73
2
 44
0.9
  1
7
 40
3.5
 41
2.975
  0
LINE
  5
2CA
100
AcDbEntity
  8
0
100
AcDbLine
 62
2
  6
CONTINUOUS
 10
274.3774079271
 20
166.4338413059
 11
274.3774079271
 21
188.8945399574
  0
LINE
  5
2CB
100
AcDbEntity
  8
0
100
AcDbLine
 62
2
  6
CONTINUOUS
 10
281.3774079271
 20
166.4338413059
 11
281.3774079271
 21
188.8945399574
  0
LINE
  5
2CC
100
AcDbEntity
  8
0
100
AcDbLine
 62
2
  6
CONTINUOUS
 10
274.3774079271
 20
187.3945399574
 11
269.3774079271
 21
187.3945399574
  0
LINE
  5
2CD
100
AcDbEntity
  8
0
100
AcDbLine
 62
2
  6
CONTINUOUS
 10
269.3774079271
 20
187.3945399574
 11
277.8774079271
 21
187.3945399574
  0
LINE
  5
2CE
100
AcDbEntity
  8
0
100
AcDbLine
 62
2
  6
CONTINUOUS
 10
281.3774079271
 20
187.3945399574
 11
289.1219737414
 21
187.3945399574
  0
LINE
  5
2CF
100
AcDbEntity
  8
0
100
AcDbLine
 62
2
  6
CONTINUOUS
 10
289.1219737414
 20
187.3945399574
 11
277.8774079271
 21
187.3945399574
  0
INSERT
  5
2D0
100
AcDbEntity
  8
0
100
AcDbBlockReference
 62
2
  6
CONTINUOUS
  2
_FILLED
 10
274.3774079271
 20
187.3945399574
 41
3.5
 42
3.5
 43
3.5
  0
INSERT
  5
2D1
100
AcDbEntity
  8
0
100
AcDbBlockReference
 62
2
  6
CONTINUOUS
  2
_FILLED
 10
281.3774079271
 20
187.3945399574
 41
3.5
 42
3.5
 43
3.5
 50
180.0
  0
ENDBLK
  5
2D2
100
AcDbEntity
  8
0
  6
BYBLOCK
 62
0
100
AcDbBlockEnd
  0
BLOCK
  5
2D3
100
AcDbEntity
  8
0
100
AcDbBlockBegin
 62
2
  6
CONTINUOUS
  2
*D16
 70
65
 10
0.0
 20
0.0
  3
*D16
  1

  0
MTEXT
  5
2D4
100
AcDbEntity
  8
0
100
AcDbMText
 62
2
  6
CONTINUOUS
  7
STANDARD
 71
2
 72
1
 10
347.6931732109
 20
80.7357082013
 30
0.0
 11
1.0
 21
0.0
 31
0.0
 73
2
 44
0.9
  1
30
 40
3.5
 41
5.95
  0
LINE
  5
2D5
100
AcDbEntity
  8
0
100
AcDbLine
 62
2
  6
CONTINUOUS
 10
332.6931732109
 20
127.7338413059
 11
332.6931732109
 21
74.8607082013
  0
LINE
  5
2D6
100
AcDbEntity
  8
0
100
AcDbLine
 62
2
  6
CONTINUOUS
 10
362.6931732109
 20
127.7338413059
 11
362.6931732109
 21
74.8607082013
  0
LINE
  5
2D7
100
AcDbEntity
  8
0
100
AcDbLine
 62
2
  6
CONTINUOUS
 10
332.6931732109
 20
76.3607082013
 11
347.6931732109
 21
76.3607082013
  0
LINE
  5
2D8
100
AcDbEntity
  8
0
100
AcDbLine
 62
2
  6
CONTINUOUS
 10
362.6931732109
 20
76.3607082013
 11
347.6931732109
 21
76.3607082013
  0
INSERT
  5
2D9
100
AcDbEntity
  8
0
100
AcDbBlockReference
 62
2
  6
CONTINUOUS
  2
_FILLED
 10
332.6931732109
 20
76.3607082013
 41
3.5
 42
3.5
 43
3.5
 50
180.0
  0
INSERT
  5
2DA
100
AcDbEntity
  8
0
100
AcDbBlockReference
 62
2
  6
CONTINUOUS
  2
_FILLED
 10
362.6931732109
 20
76.3607082013
 41
3.5
 42
3.5
 43
3.5
  0
ENDBLK
  5
2DB
100
AcDbEntity
  8
0
  6
BYBLOCK
 62
0
100
AcDbBlockEnd
  0
BLOCK
  5
2DC
100
AcDbEntity
  8
0
100
AcDbBlockBegin
 62
2
  6
CONTINUOUS
  2
*D17
 70
65
 10
0.0
 20
0.0
  3
*D17
  1

  0
MTEXT
  5
2DD
100
AcDbEntity
  8
0
100
AcDbMText
 62
2
  6
CONTINUOUS
  7
STANDARD
 71
2
 72
1
 10
405.0181732109
 20
160.7338413059
 30
0.0
 11
0.0
 21
1.0
 31
0.0
 73
2
 44
0.9
  1
64
 40
3.5
 41
5.95
  0
LINE
  5
2DE
100
AcDbEntity
  8
0
100
AcDbLine
 62
2
  6
CONTINUOUS
 10
363.6931732109
 20
192.7338413059
 11
410.8931732109
 21
192.7338413059
  0
LINE
  5
2DF
100
AcDbEntity
  8
0
100
AcDbLine
 62
2
  6
CONTINUOUS
 10
363.6931732109
 20
128.7338413059
 11
410.8931732109
 21
128.7338413059
  0
LINE
  5
2E0
100
AcDbEntity
  8
0
100
AcDbLine
 62
2
  6
CONTINUOUS
 10
409.3931732109
 20
192.7338413059
 11
409.3931732109
 21
160.7338413059
  0
LINE
  5
2E1
100
AcDbEntity
  8
0
100
AcDbLine
 62
2
  6
CONTINUOUS
 10
409.3931732109
 20
128.7338413059
 11
409.3931732109
 21
160.7338413059
  0
INSERT
  5
2E2
100
AcDbEntity
  8
0
100
AcDbBlockReference
 62
2
  6
CONTINUOUS
  2
_FILLED
 10
409.3931732109
 20
192.7338413059
 41
3.5
 42
3.5
 43
3.5
 50
90.0
  0
INSERT
  5
2E3
100
AcDbEntity
  8
0
100
AcDbBlockReference
 62
2
  6
CONTINUOUS
  2
_FILLED
 10
409.3931732109
 20
128.7338413059
 41
3.5
 42
3.5
 43
3.5
 50
270.0
  0
ENDBLK
  5
2E4
100
AcDbEntity
  8
0
  6
BYBLOCK
 62
0
100
AcDbBlockEnd
  0
ENDSEC
  0
SECTION
  2
ENTITIES
  0
DIMENSION
  5
2E5
100
AcDbEntity
  8
0
100
AcDbDimension
 62
2
  6
CONTINUOUS
  2
*D0
 10
188.8783673523
 20
152.0218618397
 11
107.5940961048
 21
152.0218618397
 70
160
 71
2
 72
2
 41
0.9
 42
162.5685424949
  1
<>max
  3
DIMSTYLE_1
100
AcDbAlignedDimension
 13
26.3098248573
 23
214.7218618397
 14
188.8783673523
 24
243.7218618397
100
AcDbRotatedDimension
  0
DIMENSION
  5
2E6
100
AcDbEntity
  8
0
100
AcDbDimension
 62
2
  6
CONTINUOUS
  2
*D1
 10
13.6098248573
 20
216.7218618397
 11
13.6098248573
 21
231.7218624981
 70
160
 71
2
 72
2
 41
0.9
 42
30.0
  3
DIMSTYLE_1
100
AcDbAlignedDimension
 13
74.2978431107
 23
246.7218618397
 14
23.8946318559
 24
216.7218618397
 50
270.0
100
AcDbRotatedDimension
  0
DIMENSION
  5
2E7
100
AcDbEntity
  8
0
100
AcDbDimension
 62
2
  6
CONTINUOUS
  2
*D2
 10
188.8783673523
 20
172.0218618397
 11
129.5909163383
 21
172.0218618397
 70
160
 71
2
 72
2
 41
0.9
 42
112.3157652838
  1
(<>)
  3
DIMSTYLE_1
100
AcDbAlignedDimension
 13
76.5626020685
 23
242.0218618397
 14
188.8783673523
 24
243.7218618397
 50
360.0
100
AcDbRotatedDimension
  0
DIMENSION
  5
2E8
100
AcDbEntity
  8
0
100
AcDbDimension
 62
2
  6
CONTINUOUS
  2
*D3
 10
211.424630716
 20
155.7338413059
 11
211.424630716
 21
130.7338370547
 70
160
 71
2
 72
2
 41
0.9
 42
50.0
  3
DIMSTYLE_1
100
AcDbAlignedDimension
 13
263.124630716
 23
105.7338413059
 14
263.124630716
 24
155.7338413059
 50
90.0
100
AcDbRotatedDimension
  0
DIMENSION
  5
2E9
100
AcDbEntity
  8
0
100
AcDbDimension
 62
2
  6
CONTINUOUS
  2
*D4
 10
399.3931732109
 20
185.7338413059
 11
399.3931732109
 21
160.7338284954
 70
160
 71
2
 72
2
 41
0.9
 42
50.0
  3
DIMSTYLE_1
100
AcDbAlignedDimension
 13
355.1931732109
 23
135.7338413059
 14
355.1931732109
 24
185.7338413059
 50
90.0
100
AcDbRotatedDimension
  0
DIMENSION
  5
2EA
100
AcDbEntity
  8
0
100
AcDbDimension
 62
2
  6
CONTINUOUS
  2
*D5
 10
332.6931732109
 20
86.0338413059
 11
340.6580163574
 21
86.0338413059
 70
160
 71
2
 72
2
 41
0.9
 42
15.0
  3
DIMSTYLE_1
100
AcDbAlignedDimension
 13
347.6931732109
 23
128.2338413059
 14
332.6931732109
 24
128.7338413059
 50
180.0
100
AcDbRotatedDimension
  0
DIMENSION
  5
2EB
100
AcDbEntity
  8
0
100
AcDbDimension
 62
2
  6
CONTINUOUS
  2
*D6
 10
278.124630716
 20
86.0338413059
 11
271.0894665527
 21
86.0338413059
 70
160
 71
2
 72
2
 41
0.9
 42
15.0
  3
DIMSTYLE_1
100
AcDbAlignedDimension
 13
263.124630716
 23
98.2338413059
 14
278.124630716
 24
98.7338413059
100
AcDbRotatedDimension
  0
DIMENSION
  5
2EC
100
AcDbEntity
  8
0
100
AcDbDimension
 62
2
  6
CONTINUOUS
  2
*D7
 10
278.124630716
 20
76.0338413059
 11
263.124642334
 21
76.0338413059
 70
160
 71
2
 72
2
 41
0.9
 42
30.0
  3
DIMSTYLE_1
100
AcDbAlignedDimension
 13
248.124630716
 23
98.7338413059
 14
278.124630716
 24
98.7338413059
100
AcDbRotatedDimension
  0
DIMENSION
  5
2ED
100
AcDbEntity
  8
0
100
AcDbDimension
 62
2
  6
CONTINUOUS
  2
*D8
 10
201.424630716
 20
162.7338413059
 11
201.424630716
 21
130.8268140445
 70
160
 71
2
 72
2
 41
0.9
 42
64.0
  3
DIMSTYLE_1
100
AcDbAlignedDimension
 13
248.124630716
 23
98.7338413059
 14
248.124630716
 24
162.7338413059
 50
90.0
100
AcDbRotatedDimension
  0
DIMENSION
  5
2EE
100
AcDbEntity
  8
0
100
AcDbDimension
 62
2
  6
CONTINUOUS
  2
*D9
 10
201.5783673523
 20
68.8354784733
 11
201.5783673523
 21
77.1573567875
 70
160
 71
2
 72
2
 41
0.9
 42
15.9
  3
DIMSTYLE_1
100
AcDbAlignedDimension
 13
164.8783673523
 23
84.7354784733
 14
190.0837032788
 24
68.8354784733
 50
270.0
100
AcDbRotatedDimension
  0
DIMENSION
  5
2EF
100
AcDbEntity
  8
0
100
AcDbDimension
 62
2
  6
CONTINUOUS
  2
*D10
 10
217.9607840925
 20
125.7338413059
 11
217.9607840925
 21
146.7655457424
 70
160
 71
1
 72
2
 41
0.9
 42
10.0
  1
M<>
  3
DIMSTYLE_1
100
AcDbAlignedDimension
 13
229.324630716
 23
135.7338413059
 14
229.324630716
 24
125.7338413059
 50
270.0
100
AcDbRotatedDimension
  0
DIMENSION
  5
2F0
100
AcDbEntity
  8
0
100
AcDbDimension
 62
2
  6
CONTINUOUS
  2
*D11
 10
236.624630716
 20
149.062942272
 11
243.7682537842
 21
149.062942272
 70
160
 71
1
 72
2
 41
0.9
 42
7.5
  3
DIMSTYLE_1
100
AcDbAlignedDimension
 13
229.124630716
 23
135.5338413059
 14
236.624630716
 24
136.5338413059
100
AcDbRotatedDimension
  0
DIMENSION
  5
2F1
100
AcDbEntity
  8
0
100
AcDbDimension
 62
2
  6
CONTINUOUS
  2
*D12
 10
390.6129052137
 20
166.7338413059
 11
390.6129052137
 21
144.2323374877
 70
160
 71
3
 72
2
 41
0.9
 42
12.0
  1
M<>
  3
DIMSTYLE_1
100
AcDbAlignedDimension
 13
381.4931732109
 23
154.7338413059
 14
381.4931732109
 24
166.7338413059
 50
90.0
100
AcDbRotatedDimension
  0
DIMENSION
  5
2F2
100
AcDbEntity
  8
0
100
AcDbDimension
 62
2
  6
CONTINUOUS
  2
*D13
 10
375.1931732109
 20
177.3035990572
 11
392.373682251
 21
177.3035990572
 70
160
 71
1
 72
2
 41
0.9
 42
6.5
  3
DIMSTYLE_1
100
AcDbAlignedDimension
 13
381.6931732109
 23
166.5338413059
 14
375.1931732109
 24
167.3838413059
 50
180.0
100
AcDbRotatedDimension
  0
DIMENSION
  5
2F3
100
AcDbEntity
  8
0
100
AcDbDimension
 62
2
  6
CONTINUOUS
  2
*D14
 10
267.739277258
 20
165.4338413059
 11
267.739277258
 21
186.0142467682
 70
160
 71
1
 72
2
 41
0.9
 42
9.4
  1
3/8" UNF
  3
DIMSTYLE_1
100
AcDbAlignedDimension
 13
274.3774079271
 23
156.0338413059
 14
274.3774079271
 24
165.4338413059
 50
90.0
100
AcDbRotatedDimension
  0
DIMENSION
  5
2F4
100
AcDbEntity
  8
0
100
AcDbDimension
 62
2
  6
CONTINUOUS
  2
*D15
 10
281.3774079271
 20
187.3945399574
 11
287.6344775391
 21
187.3945399574
 70
160
 71
1
 72
2
 41
0.9
 42
7.0
  3
DIMSTYLE_1
100
AcDbAlignedDimension
 13
274.3774079271
 23
165.4338413059
 14
281.3774079271
 24
165.4338413059
100
AcDbRotatedDimension
  0
DIMENSION
  5
2F5
100
AcDbEntity
  8
0
100
AcDbDimension
 62
2
  6
CONTINUOUS
  2
*D16
 10
362.6931732109
 20
76.3607082013
 11
347.693170166
 21
76.3607082013
 70
160
 71
2
 72
2
 41
0.9
 42
30.0
  3
DIMSTYLE_1
100
AcDbAlignedDimension
 13
332.6931732109
 23
128.7338413059
 14
362.6931732109
 24
128.7338413059
100
AcDbRotatedDimension
  0
DIMENSION
  5
2F6
100
AcDbEntity
  8
0
100
AcDbDimension
 62
2
  6
CONTINUOUS
  2
*D17
 10
409.3931732109
 20
128.7338413059
 11
409.3931732109
 21
160.8268125042
 70
160
 71
2
 72
2
 41
0.9
 42
64.0
  3
DIMSTYLE_1
100
AcDbAlignedDimension
 13
362.6931732109
 23
192.7338413059
 14
362.6931732109
 24
128.7338413059
 50
270.0
100
AcDbRotatedDimension
  0
MTEXT
  5
2F7
100
AcDbEntity
  8
0
100
AcDbMText
 62
2
  6
CONTINUOUS
  7
STANDARD
 71
1
 72
1
 10
327.855752061
 20
40.3658935225
 30
0.0
 11
1.0
 21
0.0
 31
0.0
 73
2
 44
0.9
  1
Sensoradapter Ø10 / Etage 45°\PAnschlussstücke CK4 oder CK6\PWerkstoff: 1.4435\P \PBlattmaßstab: 1:1\P \PIndex: A vom 24.11.2017
 40
3.5
 41
86.275
  0
MTEXT
  5
2F8
100
AcDbEntity
  8
0
100
AcDbMText
 62
2
  6
CONTINUOUS
  7
STANDARD
 71
3
 72
1
 10
279.33877753
 20
7.7740968052
 30
0.0
 11
1.0
 21
0.0
 31
0.0
 73
2
 44
0.9
  1
MASSSTAB 0,500
 40
3.5
 41
41.65
  0
LEADER
  5
2F9
100
AcDbEntity
  8
0
100
AcDbLeader
 62
2
  6
CONTINUOUS
  3
STANDARD
 71
1
 72
0
 73
0
 75
0
 40
3.5
 41
38.675
 76
3
 10
172.1122386364
 20
253.5718618397
 30
0.0
 10
177.6444084565
 20
271.9112727273
 30
0.0
 10
183.6444084565
 20
271.9112727273
 30
0.0
340
2FA
1001
ACAD
1000
DSTYLE
1002
{
1070
77
1070
0
1002
}
  0
MTEXT
  5
2FA
102
{ACAD_REACTORS
330
2F9
102
}
100
AcDbEntity
  8
0
100
AcDbMText
 62
2
  6
CONTINUOUS
  7
STANDARD
 71
1
 72
1
 10
183.6444084565
 20
273.6612727273
 30
0.0
 11
1.0
 21
0.0
 31
0.0
 73
2
 44
0.9
  1
Anschluss CK6
 40
3.5
 41
38.675
  0
LEADER
  5
2FB
100
AcDbEntity
  8
0
100
AcDbLeader
 62
2
  6
CONTINUOUS
  3
STANDARD
 71
1
 72
0
 73
0
 75
0
 40
3.5
 41
38.675
 76
3
 10
32.918875
 20
211.7218618397
 30
0.0
 10
45.3092909499
 20
162.0218618397
 30
0.0
 10
51.3092909499
 20
162.0218618397
 30
0.0
340
2FC
1001
ACAD
1000
DSTYLE
1002
{
1070
77
1070
0
1002
}
  0
MTEXT
  5
2FC
102
{ACAD_REACTORS
330
2FB
102
}
100
AcDbEntity
  8
0
100
AcDbMText
 62
2
  6
CONTINUOUS
  7
STANDARD
 71
1
 72
1
 10
51.3092909499
 20
163.7718618397
 30
0.0
 11
1.0
 21
0.0
 31
0.0
 73
2
 44
0.9
  1
Anschluss CK4
 40
3.5
 41
38.675
  0
LINE
  5
2FD
100
AcDbEntity
  8
0
100
AcDbLine
 62
7
  6
CONTINUOUS
 10
0.0
 20
0.0
 11
0.0
 21
297.0
  0
LINE
  5
2FE
100
AcDbEntity
  8
0
100
AcDbLine
 62
7
  6
CONTINUOUS
 10
0.0
 20
0.0
 11
420.0
 21
0.0
  0
LINE
  5
2FF
100
AcDbEntity
  8
0
100
AcDbLine
 62
7
  6
CONTINUOUS
 10
0.0
 20
297.0
 11
420.0
 21
297.0
  0
LINE
  5
300
100
AcDbEntity
  8
0
100
AcDbLine
 62
7
  6
CONTINUOUS
 10
420.0
 20
0.0
 11
420.0
 21
297.0
  0
LINE
  5
301
100
AcDbEntity
  8
02___PRT_ALL_AXES
100
AcDbLine
 62
7
  6
CONTINUOUS
 10
256.3436423035
 20
11.6240968052
 11
255.2739589462
 21
11.9120355809
  0
LINE
  5
302
100
AcDbEntity
  8
0
100
AcDbLine
 62
7
  6
CONTINUOUS
 10
256.0228909695
 20
18.3293347255
 11
256.2455874058
 21
18.2046444162
  0
LINE
  5
303
100
AcDbEntity
  8
0
100
AcDbLine
 62
7
  6
CONTINUOUS
 10
260.0076157386
 20
17.3214658506
 11
260.230312175
 21
17.1967755414
  0
LINE
  5
304
100
AcDbEntity
  8
0
100
AcDbLine
 62
7
  6
CONTINUOUS
 10
260.8008099656
 20
17.0432081944
 11
261.0235064019
 21
16.9185178851
  0
LINE
  5
305
100
AcDbEntity
  8
0
100
AcDbLine
 62
7
  6
CONTINUOUS
 10
265.016990936
 20
15.8435464562
 11
261.0235064019
 21
16.9185178851
  0
LINE
  5
306
100
AcDbEntity
  8
0
100
AcDbLine
 62
7
  6
CONTINUOUS
 10
256.2455874058
 20
18.2046444162
 11
260.2390719399
 21
17.1296729873
  0
LINE
  5
307
100
AcDbEntity
  8
0
100
AcDbLine
 62
7
  6
CONTINUOUS
 10
264.7855347347
 20
16.0353393195
 11
260.7920502007
 21
17.1103107485
  0
LINE
  5
308
100
AcDbEntity
  8
0
100
AcDbLine
 62
7
  6
CONTINUOUS
 10
256.0141312046
 20
18.3964372796
 11
260.0076157386
 21
17.3214658506
  0
LINE
  5
309
100
AcDbEntity
  8
0
100
AcDbLine
 62
7
  6
CONTINUOUS
 10
264.7855347347
 20
16.0353393195
 11
265.0082311711
 21
15.9106490103
  0
LINE
  5
30A
100
AcDbEntity
  8
02___PRT_ALL_AXES
100
AcDbLine
 62
7
  6
CONTINUOUS
 10
255.2739589462
 20
11.9120355809
 11
254.5948407401
 21
20.4470390517
  0
LINE
  5
30B
100
AcDbEntity
  8
02___PRT_ALL_AXES
100
AcDbLine
 62
7
  6
CONTINUOUS
 10
254.1474524561
 20
26.0697134601
 11
252.8917221445
 21
41.8514469977
  0
LINE
  5
30C
100
AcDbEntity
  8
02___PRT_ALL_AXES
100
AcDbLine
 62
7
  6
CONTINUOUS
 10
256.3436423035
 20
11.6240968052
 11
255.6073683157
 21
20.877421169
  0
LINE
  5
30D
100
AcDbEntity
  8
02___PRT_ALL_AXES
100
AcDbLine
 62
7
  6
CONTINUOUS
 10
255.147404303
 20
26.6581444803
 11
253.9614055018
 21
41.563508222
  0
LINE
  5
30E
100
AcDbEntity
  8
0
100
AcDbLine
 62
7
  6
CONTINUOUS
 10
256.0141312046
 20
18.3964372796
 11
255.8103575828
 21
20.957417907
  0
LINE
  5
30F
100
AcDbEntity
  8
0
100
AcDbLine
 62
7
  6
CONTINUOUS
 10
255.3499098181
 20
26.7442209038
 11
254.7187899436
 21
34.6759922375
  0
LINE
  5
310
100
AcDbEntity
  8
0
100
AcDbLine
 62
7
  6
CONTINUOUS
 10
254.7187899436
 20
34.6759922375
 11
254.7052162385
 21
34.8895716654
  0
LINE
  5
311
100
AcDbEntity
  8
0
100
AcDbLine
 62
7
  6
CONTINUOUS
 10
256.0141312046
 20
18.3964372796
 11
256.0228909695
 21
18.3293347255
  0
LINE
  5
312
100
AcDbEntity
  8
02___PRT_ALL_AXES
100
AcDbLine
 62
7
  6
CONTINUOUS
 10
281.2503896154
 20
68.4142514519
 11
291.7065261771
 21
72.8587073865
  0
LINE
  5
313
100
AcDbEntity
  8
02___PRT_ALL_AXES
100
AcDbLine
 62
7
  6
CONTINUOUS
 10
282.3200729727
 20
68.1263126763
 11
292.7762095344
 21
72.5707686109
  0
LINE
  5
314
100
AcDbEntity
  8
0
100
AcDbLine
 62
7
  6
CONTINUOUS
 10
260.2390719399
 20
17.1296729873
 11
260.230312175
 21
17.1967755414
  0
LINE
  5
315
100
AcDbEntity
  8
0
100
AcDbLine
 62
7
  6
CONTINUOUS
 10
258.7122744777
 20
33.6010208085
 11
259.155560299
 21
28.0299052204
  0
LINE
  5
316
100
AcDbEntity
  8
0
100
AcDbLine
 62
7
  6
CONTINUOUS
 10
259.6317916896
 20
22.044737196
 11
260.0076157386
 21
17.3214658506
  0
LINE
  5
317
100
AcDbEntity
  8
0
100
AcDbLine
 62
7
  6
CONTINUOUS
 10
259.1353338804
 20
33.6323221721
 11
259.5978251601
 21
27.8198367427
  0
LINE
  5
318
100
AcDbEntity
  8
0
100
AcDbLine
 62
7
  6
CONTINUOUS
 10
260.043419936
 20
22.2197027381
 11
260.4306751413
 21
17.3527672142
  0
LINE
  5
319
100
AcDbEntity
  8
0
100
AcDbLine
 62
7
  6
CONTINUOUS
 10
260.7920502007
 20
17.1103107485
 11
260.3723688552
 21
22.3847706417
  0
LINE
  5
31A
100
AcDbEntity
  8
0
100
AcDbLine
 62
7
  6
CONTINUOUS
 10
259.9399947611
 20
27.8187501183
 11
259.4967089397
 21
33.3898657064
  0
LINE
  5
31B
100
AcDbEntity
  8
0
100
AcDbLine
 62
7
  6
CONTINUOUS
 10
258.912637444
 20
33.7570124813
 11
258.8990637389
 21
33.9705919092
  0
LINE
  5
31C
100
AcDbEntity
  8
0
100
AcDbLine
 62
7
  6
CONTINUOUS
 10
259.4967089397
 20
33.3898657064
 11
259.4831352346
 21
33.6034451343
  0
LINE
  5
31D
100
AcDbEntity
  8
02___PRT_ALL_AXES
100
AcDbLine
 62
7
  6
CONTINUOUS
 10
251.6397560968
 20
20.8463720899
 11
252.3999576194
 21
20.904236917
  0
LINE
  5
31E
100
AcDbEntity
  8
0
100
AcDbLine
 62
7
  6
CONTINUOUS
 10
260.7920502007
 20
17.1103107485
 11
260.8008099656
 21
17.0432081944
  0
LINE
  5
31F
100
AcDbEntity
  8
0
100
AcDbLine
 62
7
  6
CONTINUOUS
 10
263.4901934738
 20
32.3148942774
 11
264.7855347347
 21
16.0353393195
  0
LINE
  5
320
100
AcDbEntity
  8
0
100
AcDbLine
 62
7
  6
CONTINUOUS
 10
259.1353338804
 20
33.6323221721
 11
258.912637444
 21
33.7570124813
  0
LINE
  5
321
100
AcDbEntity
  8
0
100
AcDbLine
 62
7
  6
CONTINUOUS
 10
265.016990936
 20
15.8435464562
 11
265.0082311711
 21
15.9106490103
  0
LINE
  5
322
100
AcDbEntity
  8
0
100
AcDbLine
 62
7
  6
CONTINUOUS
 10
263.9132528765
 20
32.346195641
 11
265.2085941374
 21
16.0666406831
  0
LINE
  5
323
100
AcDbEntity
  8
02___PRT_ALL_AXES
100
AcDbLine
 62
7
  6
CONTINUOUS
 10
264.4175420635
 20
46.0079641567
 11
264.9502682833
 21
39.3127819411
  0
LINE
  5
324
100
AcDbEntity
  8
02___PRT_ALL_AXES
100
AcDbLine
 62
7
  6
CONTINUOUS
 10
266.7587731321
 20
16.583903487
 11
266.7997788652
 21
16.0685527399
  0
LINE
  5
325
100
AcDbEntity
  8
0
100
AcDbLine
 62
7
  6
CONTINUOUS
 10
263.6905564401
 20
32.4708859502
 11
263.676982735
 21
32.6844653781
  0
LINE
  5
326
100
AcDbEntity
  8
0
100
AcDbLine
 62
7
  6
CONTINUOUS
 10
283.2642466758
 20
61.6083677924
 11
293.302137775
 21
65.8750454897
  0
LINE
  5
327
100
AcDbEntity
  8
0
100
AcDbLine
 62
7
  6
CONTINUOUS
 10
297.2956223091
 20
64.8000740607
 11
287.2577312098
 21
60.5333963634
  0
LINE
  5
328
100
AcDbEntity
  8
0
100
AcDbLine
 62
7
  6
CONTINUOUS
 10
263.4901934738
 20
32.3148942774
 11
259.4967089397
 21
33.3898657064
  0
LINE
  5
329
100
AcDbEntity
  8
0
100
AcDbLine
 62
7
  6
CONTINUOUS
 10
254.7187899436
 20
34.6759922375
 11
258.7122744777
 21
33.6010208085
  0
LINE
  5
32A
100
AcDbEntity
  8
0
100
AcDbLine
 62
7
  6
CONTINUOUS
 10
263.9132528765
 20
32.346195641
 11
263.6905564401
 21
32.4708859502
  0
LINE
  5
32B
100
AcDbEntity
  8
0
100
AcDbLine
 62
7
  6
CONTINUOUS
 10
283.2642466758
 20
61.6083677924
 11
283.0638837094
 21
61.4523761196
  0
LINE
  5
32C
100
AcDbEntity
  8
0
100
AcDbLine
 62
7
  6
CONTINUOUS
 10
297.5318924506
 20
64.4618043236
 11
287.4940013513
 21
60.1951266263
  0
LINE
  5
32D
100
AcDbEntity
  8
0
100
AcDbLine
 62
7
  6
CONTINUOUS
 10
288.0421656719
 20
60.3222412613
 11
298.0800567711
 21
64.5889189586
  0
LINE
  5
32E
100
AcDbEntity
  8
0
100
AcDbLine
 62
7
  6
CONTINUOUS
 10
263.676982735
 20
32.6844653781
 11
259.6834982009
 21
33.7594368071
  0
LINE
  5
32F
100
AcDbEntity
  8
0
100
AcDbLine
 62
7
  6
CONTINUOUS
 10
254.9055792049
 20
35.0455633382
 11
258.8990637389
 21
33.9705919092
  0
LINE
  5
330
100
AcDbEntity
  8
0
100
AcDbLine
 62
7
  6
CONTINUOUS
 10
269.1813745932
 20
37.7965773752
 11
269.1732249796
 21
37.8989998693
  0
LINE
  5
331
100
AcDbEntity
  8
0
100
AcDbLine
 62
7
  6
CONTINUOUS
 10
269.1879918094
 20
37.7993900704
 11
269.1684110394
 21
38.0454767432
  0
LINE
  5
332
100
AcDbEntity
  8
0
100
AcDbLine
 62
7
  6
CONTINUOUS
 10
269.1596512745
 20
38.1125792973
 11
269.1732249796
 21
37.8989998693
  0
LINE
  5
333
100
AcDbEntity
  8
0
100
AcDbLine
 62
7
  6
CONTINUOUS
 10
287.0709419486
 20
60.1638252627
 11
287.271304915
 21
60.3198169355
  0
LINE
  5
334
100
AcDbEntity
  8
0
100
AcDbLine
 62
7
  6
CONTINUOUS
 10
254.9055792049
 20
35.0455633382
 11
254.7052162385
 21
34.8895716654
  0
LINE
  5
335
100
AcDbEntity
  8
0
100
AcDbLine
 62
7
  6
CONTINUOUS
 10
288.0421656719
 20
60.3222412613
 11
287.8418027055
 21
60.1662495885
  0
LINE
  5
336
100
AcDbEntity
  8
0
100
AcDbLine
 62
7
  6
CONTINUOUS
 10
302.0735413052
 20
63.5139475296
 11
292.0356502059
 21
59.2472698323
  0
LINE
  5
337
100
AcDbEntity
  8
0
100
AcDbLine
 62
7
  6
CONTINUOUS
 10
302.3098114466
 20
63.1756777925
 11
292.2719203474
 21
58.9090000952
  0
LINE
  5
338
100
AcDbEntity
  8
02___PRT_ALL_AXES
100
AcDbLine
 62
7
  6
CONTINUOUS
 10
252.8917221445
 20
41.8514469977
 11
263.3478587062
 21
46.2959029323
  0
LINE
  5
339
100
AcDbEntity
  8
02___PRT_ALL_AXES
100
AcDbLine
 62
7
  6
CONTINUOUS
 10
253.9614055018
 20
41.563508222
 11
264.4175420635
 21
46.0079641567
  0
LINE
  5
33A
100
AcDbEntity
  8
02___PRT_ALL_AXES
100
AcDbLine
 62
7
  6
CONTINUOUS
 10
303.9459229768
 20
61.9090544739
 11
302.6662074174
 21
61.3651021853
  0
LINE
  5
33B
100
AcDbEntity
  8
0
100
AcDbLine
 62
7
  6
CONTINUOUS
 10
268.9369548381
 20
38.2372696065
 11
269.1596512745
 21
38.1125792973
  0
LINE
  5
33C
100
AcDbEntity
  8
0
100
AcDbLine
 62
7
  6
CONTINUOUS
 10
269.1684110394
 20
38.0454767432
 11
269.1596512745
 21
38.1125792973
  0
LINE
  5
33D
100
AcDbEntity
  8
0
100
AcDbLine
 62
7
  6
CONTINUOUS
 10
275.2464852366
 20
20.3333183804
 11
273.9511439757
 21
36.6128733382
  0
LINE
  5
33E
100
AcDbEntity
  8
0
100
AcDbLine
 62
7
  6
CONTINUOUS
 10
275.2416712964
 20
20.4797952542
 11
273.9463300355
 21
36.7593502121
  0
LINE
  5
33F
100
AcDbEntity
  8
0
100
AcDbLine
 62
7
  6
CONTINUOUS
 10
273.9511439757
 20
36.6128733382
 11
273.9375702706
 21
36.8264527662
  0
LINE
  5
340
100
AcDbEntity
  8
0
100
AcDbLine
 62
7
  6
CONTINUOUS
 10
275.2416712964
 20
20.4797952542
 11
275.2552450015
 21
20.2662158262
  0
LINE
  5
341
100
AcDbEntity
  8
0
100
AcDbLine
 62
7
  6
CONTINUOUS
 10
258.7122744777
 20
33.6010208085
 11
258.912637444
 21
33.7570124813
  0
LINE
  5
342
100
AcDbEntity
  8
0
100
AcDbLine
 62
7
  6
CONTINUOUS
 10
291.8488609447
 20
58.8776987316
 11
292.049223911
 21
59.0336904044
  0
LINE
  5
343
100
AcDbEntity
  8
0
100
AcDbLine
 62
7
  6
CONTINUOUS
 10
259.6834982009
 20
33.7594368071
 11
259.4831352346
 21
33.6034451343
  0
LINE
  5
344
100
AcDbEntity
  8
0
100
AcDbLine
 62
7
  6
CONTINUOUS
 10
285.7387152349
 20
53.6266560421
 11
287.3419896828
 21
54.3081393599
  0
LINE
  5
345
100
AcDbEntity
  8
02___PRT_ALL_AXES
100
AcDbLine
 62
7
  6
CONTINUOUS
 10
269.3060562393
 20
46.4788481188
 11
266.8662910415
 21
45.4418084007
  0
LINE
  5
346
100
AcDbEntity
  8
0
100
AcDbLine
 62
7
  6
CONTINUOUS
 10
287.956492631
 20
54.3826411969
 11
288.2873846067
 21
54.5232892074
  0
LINE
  5
347
100
AcDbEntity
  8
02___PRT_ALL_AXES
100
AcDbLine
 62
7
  6
CONTINUOUS
 10
283.4826923671
 20
52.1244232919
 11
270.1722666834
 21
46.4667312684
  0
LINE
  5
348
100
AcDbEntity
  8
02___PRT_ALL_AXES
100
AcDbLine
 62
7
  6
CONTINUOUS
 10
253.9614055018
 20
41.563508222
 11
252.8917221445
 21
41.8514469977
  0
LINE
  5
349
100
AcDbEntity
  8
0
100
AcDbLine
 62
7
  6
CONTINUOUS
 10
273.7148738342
 20
36.9511430754
 11
269.7213893002
 21
38.0261145044
  0
LINE
  5
34A
100
AcDbEntity
  8
0
100
AcDbLine
 62
7
  6
CONTINUOUS
 10
264.9434703041
 20
39.3122410355
 11
268.9369548381
 21
38.2372696065
  0
LINE
  5
34B
100
AcDbEntity
  8
0
100
AcDbLine
 62
7
  6
CONTINUOUS
 10
273.7148738342
 20
36.9511430754
 11
273.9375702706
 21
36.8264527662
  0
LINE
  5
34C
100
AcDbEntity
  8
0
100
AcDbLine
 62
7
  6
CONTINUOUS
 10
275.2464852366
 20
20.3333183804
 11
275.2552450015
 21
20.2662158262
  0
LINE
  5
34D
100
AcDbEntity
  8
0
100
AcDbLine
 62
7
  6
CONTINUOUS
 10
273.9375702706
 20
36.8264527662
 11
273.9463300355
 21
36.7593502121
  0
LINE
  5
34E
100
AcDbEntity
  8
02___PRT_ALL_AXES
100
AcDbLine
 62
7
  6
CONTINUOUS
 10
250.8757685533
 20
22.6437480127
 11
251.4449731899
 21
23.1509568205
  0
LINE
  5
34F
100
AcDbEntity
  8
02___PRT_ALL_AXES
100
AcDbLine
 62
7
  6
CONTINUOUS
 10
281.0858795154
 20
46.7592885457
 11
271.7408324767
 21
42.7871091919
  0
LINE
  5
350
100
AcDbEntity
  8
02___PRT_ALL_AXES
100
AcDbLine
 62
7
  6
CONTINUOUS
 10
271.1446267425
 20
42.1533818428
 11
268.7048615448
 21
41.1163421247
  0
LINE
  5
351
100
AcDbEntity
  8
0
100
AcDbLine
 62
7
  6
CONTINUOUS
 10
287.6946413022
 20
49.0250961741
 11
289.2979153998
 21
49.7065793429
  0
LINE
  5
352
100
AcDbEntity
  8
0
100
AcDbLine
 62
7
  6
CONTINUOUS
 10
254.9055792049
 20
35.0455633382
 11
264.9434703041
 21
39.3122410355
  0
LINE
  5
353
100
AcDbEntity
  8
02___PRT_ALL_AXES
100
AcDbLine
 62
7
  6
CONTINUOUS
 10
306.2930342575
 20
56.3871826323
 11
305.008490715
 21
55.8411781748
  0
LINE
  5
354
100
AcDbEntity
  8
02___PRT_ALL_AXES
100
AcDbLine
 62
7
  6
CONTINUOUS
 10
284.7023097744
 20
38.1869012595
 11
283.6326264171
 21
38.4748400351
  0
LINE
  5
355
100
AcDbEntity
  8
0
100
AcDbLine
 62
7
  6
CONTINUOUS
 10
274.0822681824
 20
36.3558818698
 11
278.8627805643
 21
45.8143443717
  0
LINE
  5
356
100
AcDbEntity
  8
0
100
AcDbLine
 62
7
  6
CONTINUOUS
 10
263.4901934738
 20
32.3148942774
 11
263.6905564401
 21
32.4708859502
  0
LINE
  5
357
100
AcDbEntity
  8
02___PRT_ALL_AXES
100
AcDbLine
 62
7
  6
CONTINUOUS
 10
304.1937917182
 20
55.033084591
 11
303.0047615666
 21
54.5276787862
  0
LINE
  5
358
100
AcDbEntity
  8
0
100
AcDbLine
 62
7
  6
CONTINUOUS
 10
268.9369548381
 20
38.2372696065
 11
258.8990637389
 21
33.9705919092
  0
LINE
  5
359
100
AcDbEntity
  8
0
100
AcDbLine
 62
7
  6
CONTINUOUS
 10
269.1732249796
 20
37.8989998693
 11
259.1353338804
 21
33.6323221721
  0
LINE
  5
35A
100
AcDbEntity
  8
0
100
AcDbLine
 62
7
  6
CONTINUOUS
 10
259.6834982009
 20
33.7594368071
 11
269.7213893002
 21
38.0261145044
  0
LINE
  5
35B
100
AcDbEntity
  8
02___PRT_ALL_AXES
100
AcDbLine
 62
7
  6
CONTINUOUS
 10
264.4175420635
 20
46.0079641567
 11
263.3478587062
 21
46.2959029323
  0
LINE
  5
35C
100
AcDbEntity
  8
0
100
AcDbLine
 62
7
  6
CONTINUOUS
 10
278.5446846649
 20
34.1004796579
 11
284.2368605286
 21
45.3627100761
  0
LINE
  5
35D
100
AcDbEntity
  8
0
100
AcDbLine
 62
7
  6
CONTINUOUS
 10
288.7893426122
 20
43.9155716684
 11
289.120234588
 21
44.0562196789
  0
LINE
  5
35E
100
AcDbEntity
  8
0
100
AcDbLine
 62
7
  6
CONTINUOUS
 10
288.5977394108
 20
43.6924774415
 11
289.1311369016
 21
43.9192018755
  0
LINE
  5
35F
100
AcDbEntity
  8
0
100
AcDbLine
 62
7
  6
CONTINUOUS
 10
273.7148738342
 20
36.9511430754
 11
263.676982735
 21
32.6844653781
  0
LINE
  5
360
100
AcDbEntity
  8
0
100
AcDbLine
 62
7
  6
CONTINUOUS
 10
273.9511439757
 20
36.6128733382
 11
263.9132528765
 21
32.346195641
  0
LINE
  5
361
100
AcDbEntity
  8
0
100
AcDbLine
 62
7
  6
CONTINUOUS
 10
267.6646033306
 20
44.7994359987
 11
267.4158789913
 21
44.830892471
  0
LINE
  5
362
100
AcDbEntity
  8
02___PRT_ALL_AXES
100
AcDbLine
 62
7
  6
CONTINUOUS
 10
283.6326264171
 20
38.4748400351
 11
283.2412995607
 21
43.3929471447
  0
LINE
  5
363
100
AcDbEntity
  8
02___PRT_ALL_AXES
100
AcDbLine
 62
7
  6
CONTINUOUS
 10
282.5771740189
 20
51.7395262152
 11
281.2503896154
 21
68.4142514519
  0
LINE
  5
364
100
AcDbEntity
  8
02___PRT_ALL_AXES
100
AcDbLine
 62
7
  6
CONTINUOUS
 10
284.7023097744
 20
38.1869012595
 11
284.145693247
 21
45.1823314378
  0
LINE
  5
365
100
AcDbEntity
  8
02___PRT_ALL_AXES
100
AcDbLine
 62
7
  6
CONTINUOUS
 10
283.5783399903
 20
52.3126983944
 11
282.3200729727
 21
68.1263126763
  0
LINE
  5
366
100
AcDbEntity
  8
0
100
AcDbLine
 62
7
  6
CONTINUOUS
 10
284.3727986755
 20
44.9592417338
 11
284.3281193376
 21
45.520761512
  0
LINE
  5
367
100
AcDbEntity
  8
0
100
AcDbLine
 62
7
  6
CONTINUOUS
 10
283.7758625721
 20
52.4613991921
 11
283.0774574146
 21
61.2387966917
  0
LINE
  5
368
100
AcDbEntity
  8
0
100
AcDbLine
 62
7
  6
CONTINUOUS
 10
283.0774574146
 20
61.2387966917
 11
283.0638837094
 21
61.4523761196
  0
LINE
  5
369
100
AcDbEntity
  8
0
100
AcDbLine
 62
7
  6
CONTINUOUS
 10
288.5889796459
 20
43.7595799956
 11
288.7893426122
 21
43.9155716684
  0
LINE
  5
36A
100
AcDbEntity
  8
02___PRT_ALL_AXES
100
AcDbLine
 62
7
  6
CONTINUOUS
 10
254.6401285939
 20
26.4425232973
 11
257.8118233509
 21
27.7906749308
  0
LINE
  5
36B
100
AcDbEntity
  8
0
100
AcDbLine
 62
7
  6
CONTINUOUS
 10
293.5672616083
 20
42.6294451373
 11
303.6051527076
 21
46.8961228346
  0
LINE
  5
36C
100
AcDbEntity
  8
0
100
AcDbLine
 62
7
  6
CONTINUOUS
 10
293.3756584069
 20
42.4063509104
 11
303.4135495061
 21
46.6730286077
  0
LINE
  5
36D
100
AcDbEntity
  8
02___PRT_ALL_AXES
100
AcDbLine
 62
7
  6
CONTINUOUS
 10
252.2216870602
 20
24.8712533268
 11
254.7660136235
 21
25.9527376042
  0
LINE
  5
36E
100
AcDbEntity
  8
0
100
AcDbLine
 62
7
  6
CONTINUOUS
 10
259.5978251601
 20
27.8198367427
 11
259.9287171358
 21
27.9604847532
  0
LINE
  5
36F
100
AcDbEntity
  8
02___PRT_ALL_AXES
100
AcDbLine
 62
7
  6
CONTINUOUS
 10
295.1584463361
 20
42.6313571941
 11
284.7023097744
 21
38.1869012595
  0
LINE
  5
370
100
AcDbEntity
  8
0
100
AcDbLine
 62
7
  6
CONTINUOUS
 10
293.3756584069
 20
42.4063509104
 11
289.3821738728
 21
43.4813223394
  0
LINE
  5
371
100
AcDbEntity
  8
0
100
AcDbLine
 62
7
  6
CONTINUOUS
 10
284.6042548768
 20
44.7674488705
 11
288.5977394108
 21
43.6924774415
  0
LINE
  5
372
100
AcDbEntity
  8
0
100
AcDbLine
 62
7
  6
CONTINUOUS
 10
293.1442022056
 20
42.5981437737
 11
289.1507176716
 21
43.6731152027
  0
LINE
  5
373
100
AcDbEntity
  8
0
100
AcDbLine
 62
7
  6
CONTINUOUS
 10
284.3727986755
 20
44.9592417338
 11
288.3662832095
 21
43.8842703048
  0
LINE
  5
374
100
AcDbEntity
  8
0
100
AcDbLine
 62
7
  6
CONTINUOUS
 10
284.3815584404
 20
44.8921391797
 11
284.6042548768
 21
44.7674488705
  0
LINE
  5
375
100
AcDbEntity
  8
0
100
AcDbLine
 62
7
  6
CONTINUOUS
 10
288.3662832095
 20
43.8842703048
 11
288.5889796459
 21
43.7595799956
  0
LINE
  5
376
100
AcDbEntity
  8
0
100
AcDbLine
 62
7
  6
CONTINUOUS
 10
284.3727986755
 20
44.9592417338
 11
284.3815584404
 21
44.8921391797
  0
LINE
  5
377
100
AcDbEntity
  8
02___PRT_ALL_AXES
100
AcDbLine
 62
7
  6
CONTINUOUS
 10
307.699102426
 20
58.6530204422
 11
307.2678259439
 21
58.2687171246
  0
LINE
  5
378
100
AcDbEntity
  8
0
100
AcDbLine
 62
7
  6
CONTINUOUS
 10
260.230312175
 20
17.1967755414
 11
260.4306751413
 21
17.3527672142
  0
LINE
  5
379
100
AcDbEntity
  8
0
100
AcDbLine
 62
7
  6
CONTINUOUS
 10
293.366898642
 20
42.4734534645
 11
293.5672616083
 21
42.6294451373
  0
LINE
  5
37A
100
AcDbEntity
  8
02___PRT_ALL_AXES
100
AcDbLine
 62
7
  6
CONTINUOUS
 10
251.9197533093
 20
23.2760203396
 11
252.6800795213
 21
23.5992024562
  0
LINE
  5
37B
100
AcDbEntity
  8
0
100
AcDbLine
 62
7
  6
CONTINUOUS
 10
289.1594774365
 20
43.6060126486
 11
289.3821738728
 21
43.4813223394
  0
LINE
  5
37C
100
AcDbEntity
  8
0
100
AcDbLine
 62
7
  6
CONTINUOUS
 10
293.1442022056
 20
42.5981437737
 11
293.366898642
 21
42.4734534645
  0
LINE
  5
37D
100
AcDbEntity
  8
0
100
AcDbLine
 62
7
  6
CONTINUOUS
 10
287.0709419486
 20
60.1638252627
 11
287.51422777
 21
54.5927096746
  0
LINE
  5
37E
100
AcDbEntity
  8
0
100
AcDbLine
 62
7
  6
CONTINUOUS
 10
287.9486442503
 20
49.1330619512
 11
288.3662832095
 21
43.8842703048
  0
LINE
  5
37F
100
AcDbEntity
  8
0
100
AcDbLine
 62
7
  6
CONTINUOUS
 10
287.4940013513
 20
60.1951266263
 11
287.956492631
 21
54.3826411969
  0
LINE
  5
380
100
AcDbEntity
  8
0
100
AcDbLine
 62
7
  6
CONTINUOUS
 10
288.3602724966
 20
49.3080274934
 11
288.7893426122
 21
43.9155716684
  0
LINE
  5
381
100
AcDbEntity
  8
0
100
AcDbLine
 62
7
  6
CONTINUOUS
 10
289.1507176716
 20
43.6731152027
 11
288.7074318502
 21
49.2442307908
  0
LINE
  5
382
100
AcDbEntity
  8
0
100
AcDbLine
 62
7
  6
CONTINUOUS
 10
288.298662232
 20
54.3815545725
 11
287.8553764107
 21
59.9526701606
  0
LINE
  5
383
100
AcDbEntity
  8
0
100
AcDbLine
 62
7
  6
CONTINUOUS
 10
287.271304915
 20
60.3198169355
 11
287.2577312098
 21
60.5333963634
  0
LINE
  5
384
100
AcDbEntity
  8
0
100
AcDbLine
 62
7
  6
CONTINUOUS
 10
287.8553764107
 20
59.9526701606
 11
287.8418027055
 21
60.1662495885
  0
LINE
  5
385
100
AcDbEntity
  8
0
100
AcDbLine
 62
7
  6
CONTINUOUS
 10
303.6139124725
 20
46.8290202805
 11
303.4135495061
 21
46.6730286077
  0
LINE
  5
386
100
AcDbEntity
  8
02___PRT_ALL_AXES
100
AcDbLine
 62
7
  6
CONTINUOUS
 10
252.8195567809
 20
21.159335734
 11
253.5798055122
 21
21.4824849169
  0
LINE
  5
387
100
AcDbEntity
  8
02___PRT_ALL_AXES
100
AcDbLine
 62
7
  6
CONTINUOUS
 10
254.1776131275
 20
20.2696934587
 11
256.7219396908
 21
21.3511777362
  0
LINE
  5
388
100
AcDbEntity
  8
02___PRT_ALL_AXES
100
AcDbLine
 62
7
  6
CONTINUOUS
 10
256.9872398746
 20
20.9206514556
 11
260.1589346317
 21
22.2688030891
  0
LINE
  5
389
100
AcDbEntity
  8
0
100
AcDbLine
 62
7
  6
CONTINUOUS
 10
288.5977394108
 20
43.6924774415
 11
288.5889796459
 21
43.7595799956
  0
LINE
  5
38A
100
AcDbEntity
  8
0
100
AcDbLine
 62
7
  6
CONTINUOUS
 10
289.1507176716
 20
43.6731152027
 11
289.1594774365
 21
43.6060126486
  0
LINE
  5
38B
100
AcDbEntity
  8
0
100
AcDbLine
 62
7
  6
CONTINUOUS
 10
291.8488609447
 20
58.8776987316
 11
293.1442022056
 21
42.5981437737
  0
LINE
  5
38C
100
AcDbEntity
  8
0
100
AcDbLine
 62
7
  6
CONTINUOUS
 10
292.2719203474
 20
58.9090000952
 11
293.5672616083
 21
42.6294451373
  0
LINE
  5
38D
100
AcDbEntity
  8
0
100
AcDbLine
 62
7
  6
CONTINUOUS
 10
292.049223911
 20
59.0336904044
 11
292.0356502059
 21
59.2472698323
  0
LINE
  5
38E
100
AcDbEntity
  8
0
100
AcDbLine
 62
7
  6
CONTINUOUS
 10
265.0082311711
 20
15.9106490103
 11
265.2085941374
 21
16.0666406831
  0
LINE
  5
38F
100
AcDbEntity
  8
0
100
AcDbLine
 62
7
  6
CONTINUOUS
 10
293.3756584069
 20
42.4063509104
 11
293.366898642
 21
42.4734534645
  0
LINE
  5
390
100
AcDbEntity
  8
02___PRT_ALL_AXES
100
AcDbLine
 62
7
  6
CONTINUOUS
 10
292.7762095344
 20
72.5707686109
 11
293.3089357543
 21
65.8755863953
  0
LINE
  5
391
100
AcDbEntity
  8
02___PRT_ALL_AXES
100
AcDbLine
 62
7
  6
CONTINUOUS
 10
295.117440603
 20
43.1467079412
 11
295.1584463361
 21
42.6313571941
  0
LINE
  5
392
100
AcDbEntity
  8
0
100
AcDbLine
 62
7
  6
CONTINUOUS
 10
275.2552450015
 20
20.2662158262
 11
275.0548820352
 21
20.1102241534
  0
LINE
  5
393
100
AcDbEntity
  8
0
100
AcDbLine
 62
7
  6
CONTINUOUS
 10
260.4306751413
 20
17.3527672142
 11
260.761567117
 21
17.4934152247
  0
LINE
  5
394
100
AcDbEntity
  8
0
100
AcDbLine
 62
7
  6
CONTINUOUS
 10
260.2390719399
 20
17.1296729873
 11
260.7724694307
 21
17.3563974212
  0
LINE
  5
395
100
AcDbEntity
  8
02___PRT_ALL_AXES
100
AcDbLine
 62
7
  6
CONTINUOUS
 10
306.5531211106
 20
61.3490843264
 11
305.9774001503
 21
61.3052617441
  0
LINE
  5
396
100
AcDbEntity
  8
0
100
AcDbLine
 62
7
  6
CONTINUOUS
 10
297.5400420642
 20
64.3593818294
 11
297.5318924506
 21
64.4618043236
  0
LINE
  5
397
100
AcDbEntity
  8
0
100
AcDbLine
 62
7
  6
CONTINUOUS
 10
297.5466592803
 20
64.3621945246
 11
297.5270785103
 21
64.6082811974
  0
LINE
  5
398
100
AcDbEntity
  8
0
100
AcDbLine
 62
7
  6
CONTINUOUS
 10
297.5183187454
 20
64.6753837515
 11
297.5318924506
 21
64.4618043236
  0
LINE
  5
399
100
AcDbEntity
  8
0
100
AcDbLine
 62
7
  6
CONTINUOUS
 10
265.2085941374
 20
16.0666406831
 11
275.2464852366
 21
20.3333183804
  0
LINE
  5
39A
100
AcDbEntity
  8
0
100
AcDbLine
 62
7
  6
CONTINUOUS
 10
265.016990936
 20
15.8435464562
 11
275.0548820352
 21
20.1102241534
  0
LINE
  5
39B
100
AcDbEntity
  8
02___PRT_ALL_AXES
100
AcDbLine
 62
7
  6
CONTINUOUS
 10
266.7997788652
 20
16.0685527399
 11
256.3436423035
 21
11.6240968052
  0
LINE
  5
39C
100
AcDbEntity
  8
0
100
AcDbLine
 62
7
  6
CONTINUOUS
 10
291.8488609447
 20
58.8776987316
 11
287.8553764107
 21
59.9526701606
  0
LINE
  5
39D
100
AcDbEntity
  8
0
100
AcDbLine
 62
7
  6
CONTINUOUS
 10
283.0774574146
 20
61.2387966917
 11
287.0709419486
 21
60.1638252627
  0
LINE
  5
39E
100
AcDbEntity
  8
0
100
AcDbLine
 62
7
  6
CONTINUOUS
 10
292.0356502059
 20
59.2472698323
 11
288.0421656719
 21
60.3222412613
  0
LINE
  5
39F
100
AcDbEntity
  8
0
100
AcDbLine
 62
7
  6
CONTINUOUS
 10
283.2642466758
 20
61.6083677924
 11
287.2577312098
 21
60.5333963634
  0
LINE
  5
3A0
100
AcDbEntity
  8
0
100
AcDbLine
 62
7
  6
CONTINUOUS
 10
287.4940013513
 20
60.1951266263
 11
287.271304915
 21
60.3198169355
  0
LINE
  5
3A1
100
AcDbEntity
  8
0
100
AcDbLine
 62
7
  6
CONTINUOUS
 10
292.2719203474
 20
58.9090000952
 11
292.049223911
 21
59.0336904044
  0
LINE
  5
3A2
100
AcDbEntity
  8
0
100
AcDbLine
 62
7
  6
CONTINUOUS
 10
297.5270785103
 20
64.6082811974
 11
297.5183187454
 21
64.6753837515
  0
LINE
  5
3A3
100
AcDbEntity
  8
0
100
AcDbLine
 62
7
  6
CONTINUOUS
 10
303.6051527076
 20
46.8961228346
 11
302.3098114466
 21
63.1756777925
  0
LINE
  5
3A4
100
AcDbEntity
  8
0
100
AcDbLine
 62
7
  6
CONTINUOUS
 10
303.6003387673
 20
47.0425997084
 11
302.3049975064
 21
63.3221546663
  0
LINE
  5
3A5
100
AcDbEntity
  8
0
100
AcDbLine
 62
7
  6
CONTINUOUS
 10
302.3098114466
 20
63.1756777925
 11
302.2962377415
 21
63.3892572204
  0
LINE
  5
3A6
100
AcDbEntity
  8
0
100
AcDbLine
 62
7
  6
CONTINUOUS
 10
303.6003387673
 20
47.0425997084
 11
303.6139124725
 21
46.8290202805
  0
LINE
  5
3A7
100
AcDbEntity
  8
0
100
AcDbLine
 62
7
  6
CONTINUOUS
 10
303.6051527076
 20
46.8961228346
 11
303.6139124725
 21
46.8290202805
  0
LINE
  5
3A8
100
AcDbEntity
  8
0
100
AcDbLine
 62
7
  6
CONTINUOUS
 10
302.2962377415
 20
63.3892572204
 11
302.3049975064
 21
63.3221546663
  0
LINE
  5
3A9
100
AcDbEntity
  8
02___PRT_ALL_AXES
100
AcDbLine
 62
7
  6
CONTINUOUS
 10
282.3200729727
 20
68.1263126763
 11
281.2503896154
 21
68.4142514519
  0
LINE
  5
3AA
100
AcDbEntity
  8
0
100
AcDbLine
 62
7
  6
CONTINUOUS
 10
302.0735413052
 20
63.5139475296
 11
298.0800567711
 21
64.5889189586
  0
LINE
  5
3AB
100
AcDbEntity
  8
0
100
AcDbLine
 62
7
  6
CONTINUOUS
 10
293.302137775
 20
65.8750454897
 11
297.2956223091
 21
64.8000740607
  0
LINE
  5
3AC
100
AcDbEntity
  8
0
100
AcDbLine
 62
7
  6
CONTINUOUS
 10
297.2956223091
 20
64.8000740607
 11
297.5183187454
 21
64.6753837515
  0
LINE
  5
3AD
100
AcDbEntity
  8
0
100
AcDbLine
 62
7
  6
CONTINUOUS
 10
302.0735413052
 20
63.5139475296
 11
302.2962377415
 21
63.3892572204
  0
LINE
  5
3AE
100
AcDbEntity
  8
02___PRT_ALL_AXES
100
AcDbLine
 62
7
  6
CONTINUOUS
 10
292.7762095344
 20
72.5707686109
 11
291.7065261771
 21
72.8587073865
  0
LINE
  5
3AF
100
AcDbEntity
  8
02___PRT_ALL_AXES
100
AcDbLine
 62
7
  6
CONTINUOUS
 10
26.3098248573
 20
214.7218618397
 11
26.3098248573
 21
218.7218618397
  0
LINE
  5
3B0
100
AcDbEntity
  8
02___PRT_ALL_AXES
100
AcDbLine
 62
7
  6
CONTINUOUS
 10
28.3098248573
 20
214.2218618397
 11
28.3098248573
 21
219.2218618397
  0
LINE
  5
3B1
100
AcDbEntity
  8
0
100
AcDbLine
 62
7
  6
CONTINUOUS
 10
31.3098248573
 20
221.5218618397
 11
31.3098248573
 21
211.9218618397
  0
LINE
  5
3B2
100
AcDbEntity
  8
0
100
AcDbLine
 62
7
  6
CONTINUOUS
 10
31.5098248573
 20
221.7218618397
 11
31.5098248573
 21
211.7218618397
  0
LINE
  5
3B3
100
AcDbEntity
  8
0
100
AcDbLine
 62
7
  6
CONTINUOUS
 10
38.8098248573
 20
222.5218618397
 11
38.8098248573
 21
210.9218618397
  0
LINE
  5
3B4
100
AcDbEntity
  8
0
100
AcDbLine
 62
7
  6
CONTINUOUS
 10
39.0098248573
 20
222.7218618397
 11
39.0098248573
 21
210.7218618397
  0
LINE
  5
3B5
100
AcDbEntity
  8
0
100
AcDbLine
 62
7
  6
CONTINUOUS
 10
31.3098248572
 20
211.9218618398
 11
31.5098248572
 21
211.7218618398
  0
LINE
  5
3B6
100
AcDbEntity
  8
0
100
AcDbLine
 62
7
  6
CONTINUOUS
 10
50.9098248573
 20
198.7218618397
 11
50.3098248573
 21
199.3218618397
  0
LINE
  5
3B7
100
AcDbEntity
  8
0
100
AcDbLine
 62
7
  6
CONTINUOUS
 10
38.8098248573
 20
210.9218618398
 11
39.0098248573
 21
210.7218618398
  0
LINE
  5
3B8
100
AcDbEntity
  8
0
100
AcDbLine
 62
7
  6
CONTINUOUS
 10
48.1098248573
 20
222.7218618397
 11
48.1098248573
 21
210.7218618397
  0
LINE
  5
3B9
100
AcDbEntity
  8
0
100
AcDbLine
 62
7
  6
CONTINUOUS
 10
48.3098248573
 20
222.5218618397
 11
48.3098248573
 21
210.9218618397
  0
LINE
  5
3BA
100
AcDbEntity
  8
0
100
AcDbLine
 62
7
  6
CONTINUOUS
 10
50.3098248573
 20
234.1218618397
 11
50.3098248573
 21
199.3218618397
  0
LINE
  5
3BB
100
AcDbEntity
  8
02___PRT_ALL_AXES
100
AcDbLine
 62
7
  6
CONTINUOUS
 10
50.3098248573
 20
184.7218618397
 11
50.3098248573
 21
199.3218618397
  0
LINE
  5
3BC
100
AcDbEntity
  8
02___PRT_ALL_AXES
100
AcDbLine
 62
7
  6
CONTINUOUS
 10
50.3098248573
 20
234.1218618397
 11
50.3098248573
 21
248.7218618397
  0
LINE
  5
3BD
100
AcDbEntity
  8
0
100
AcDbLine
 62
7
  6
CONTINUOUS
 10
50.9098248573
 20
234.1218618397
 11
50.9098248573
 21
199.3218618397
  0
LINE
  5
3BE
100
AcDbEntity
  8
0
100
AcDbLine
 62
7
  6
CONTINUOUS
 10
31.3098248572
 20
221.5218618396
 11
31.5098248572
 21
221.7218618396
  0
LINE
  5
3BF
100
AcDbEntity
  8
02___PRT_ALL_AXES
100
AcDbLine
 62
7
  6
CONTINUOUS
 10
80.3098248573
 20
184.7218618397
 11
50.3098248573
 21
184.7218618397
  0
LINE
  5
3C0
100
AcDbEntity
  8
0
100
AcDbLine
 62
7
  6
CONTINUOUS
 10
48.3098248574
 20
222.5218618396
 11
48.1098248574
 21
222.7218618396
  0
LINE
  5
3C1
100
AcDbEntity
  8
02___PRT_ALL_AXES
100
AcDbLine
 62
7
  6
CENTER
 10
65.3098248573
 20
241.7218618397
 11
65.3098248573
 21
234.2218618397
  0
LINE
  5
3C2
100
AcDbEntity
  8
02___PRT_ALL_AXES
100
AcDbLine
 62
7
  6
CENTER
 10
65.3098248573
 20
226.7718618397
 11
65.3098248573
 21
222.7718368397
  0
LINE
  5
3C3
100
AcDbEntity
  8
02___PRT_ALL_AXES
100
AcDbLine
 62
7
  6
CENTER
 10
65.3098248573
 20
206.6718618397
 11
65.3098248573
 21
202.6718368397
  0
LINE
  5
3C4
100
AcDbEntity
  8
02___PRT_ALL_AXES
100
AcDbLine
 62
7
  6
CENTER
 10
65.3098248573
 20
191.7218618397
 11
65.3098248573
 21
184.2218618397
  0
LINE
  5
3C5
100
AcDbEntity
  8
02___PRT_ALL_AXES
100
AcDbLine
 62
7
  6
CENTER
 10
65.3098248573
 20
191.7218618397
 11
65.3098248573
 21
199.2218618397
  0
LINE
  5
3C6
100
AcDbEntity
  8
02___PRT_ALL_AXES
100
AcDbLine
 62
7
  6
CENTER
 10
65.3098248573
 20
206.6718618397
 11
65.3098248573
 21
210.6718868397
  0
LINE
  5
3C7
100
AcDbEntity
  8
02___PRT_ALL_AXES
100
AcDbLine
 62
7
  6
CENTER
 10
65.3098248573
 20
226.7718618397
 11
65.3098248573
 21
230.7718868397
  0
LINE
  5
3C8
100
AcDbEntity
  8
02___PRT_ALL_AXES
100
AcDbLine
 62
7
  6
CENTER
 10
65.3098248573
 20
241.7218618397
 11
65.3098248573
 21
249.2218618397
  0
LINE
  5
3C9
100
AcDbEntity
  8
0
100
AcDbLine
 62
7
  6
CONTINUOUS
 10
50.3098248573
 20
234.1218618397
 11
50.9098248573
 21
234.7218618397
  0
LINE
  5
3CA
100
AcDbEntity
  8
0
100
AcDbLine
 62
7
  6
CONTINUOUS
 10
38.8098248573
 20
222.5218618396
 11
39.0098248573
 21
222.7218618396
  0
LINE
  5
3CB
100
AcDbEntity
  8
02___PRT_ALL_AXES
100
AcDbLine
 62
7
  6
CENTER
 10
65.3098248573
 20
191.7218618397
 11
57.8098248573
 21
191.7218618397
  0
LINE
  5
3CC
100
AcDbEntity
  8
02___PRT_ALL_AXES
100
AcDbLine
 62
7
  6
CENTER
 10
65.3098248573
 20
191.7218618397
 11
72.8098248573
 21
191.7218618397
  0
LINE
  5
3CD
100
AcDbEntity
  8
0
100
AcDbLine
 62
7
  6
CONTINUOUS
 10
79.7098248573
 20
199.3218618397
 11
80.0098248573
 21
199.0218618397
  0
LINE
  5
3CE
100
AcDbEntity
  8
0
100
AcDbLine
 62
7
  6
CONTINUOUS
 10
50.9098248573
 20
234.1218618397
 11
50.6098248573
 21
234.4218618397
  0
LINE
  5
3CF
100
AcDbEntity
  8
02___PRT_ALL_AXES
100
AcDbLine
 62
7
  6
CONTINUOUS
 10
76.5626020685
 20
251.4218618397
 11
76.5626020685
 21
242.0218618397
  0
LINE
  5
3D0
100
AcDbEntity
  8
0
100
AcDbLine
 62
7
  6
CONTINUOUS
 10
50.9098248573
 20
198.7218618397
 11
79.7098248573
 21
198.7218618397
  0
LINE
  5
3D1
100
AcDbEntity
  8
0
100
AcDbLine
 62
7
  6
CONTINUOUS
 10
50.9098248573
 20
199.3218618397
 11
79.7098248573
 21
199.3218618397
  0
LINE
  5
3D2
100
AcDbEntity
  8
02___PRT_ALL_AXES
100
AcDbLine
 62
7
  6
CONTINUOUS
 10
26.3098248573
 20
214.7218618397
 11
28.3098248573
 21
214.2218618397
  0
LINE
  5
3D3
100
AcDbEntity
  8
0
100
AcDbLine
 62
7
  6
CONTINUOUS
 10
79.7098248573
 20
199.3218618397
 11
79.7098248573
 21
234.1218618397
  0
LINE
  5
3D4
100
AcDbEntity
  8
02___PRT_ALL_AXES
100
AcDbLine
 62
7
  6
CONTINUOUS
 10
80.3098248573
 20
242.0218618397
 11
80.3098248573
 21
234.1218618397
  0
LINE
  5
3D5
100
AcDbEntity
  8
02___PRT_ALL_AXES
100
AcDbLine
 62
7
  6
CONTINUOUS
 10
80.3098248573
 20
199.3218618397
 11
80.3098248573
 21
184.7218618397
  0
LINE
  5
3D6
100
AcDbEntity
  8
0
100
AcDbLine
 62
7
  6
CONTINUOUS
 10
80.3098248573
 20
199.3218618397
 11
80.3098248573
 21
234.1218618397
  0
LINE
  5
3D7
100
AcDbEntity
  8
0
100
AcDbLine
 62
7
  6
CONTINUOUS
 10
48.3098248575
 20
210.9218618399
 11
48.1098248575
 21
210.7218618399
  0
LINE
  5
3D8
100
AcDbEntity
  8
02___PRT_ALL_AXES
100
AcDbLine
 62
7
  6
CENTER
 10
65.3098248573
 20
206.6718618397
 11
61.3097998573
 21
206.6718618397
  0
LINE
  5
3D9
100
AcDbEntity
  8
02___PRT_ALL_AXES
100
AcDbLine
 62
7
  6
CENTER
 10
65.3098248573
 20
206.6718618397
 11
69.3098498573
 21
206.6718618397
  0
LINE
  5
3DA
100
AcDbEntity
  8
02___PRT_ALL_AXES
100
AcDbLine
 62
7
  6
CONTINUOUS
 10
83.5626020685
 20
251.4218618397
 11
83.5626020685
 21
242.0218618397
  0
LINE
  5
3DB
100
AcDbEntity
  8
0
100
AcDbLine
 62
7
  6
CONTINUOUS
 10
84.3098248573
 20
221.7218618397
 11
84.3098248573
 21
211.7218618397
  0
LINE
  5
3DC
100
AcDbEntity
  8
0
100
AcDbLine
 62
7
  6
CONTINUOUS
 10
79.7098248573
 20
234.1218618397
 11
80.0098248573
 21
234.4218618397
  0
LINE
  5
3DD
100
AcDbEntity
  8
02___PRT_ALL_AXES
100
AcDbLine
 62
7
  6
CONTINUOUS
 10
39.0098248573
 20
210.7218618397
 11
48.1098248573
 21
210.7218618397
  0
LINE
  5
3DE
100
AcDbEntity
  8
0
100
AcDbLine
 62
7
  6
CONTINUOUS
 10
39.0098248573
 20
210.7218618397
 11
48.1098248573
 21
210.7218618397
  0
LINE
  5
3DF
100
AcDbEntity
  8
02___PRT_ALL_AXES
100
AcDbLine
 62
7
  6
CONTINUOUS
 10
31.5098248573
 20
211.7218618397
 11
38.8098248573
 21
211.7218618397
  0
LINE
  5
3E0
100
AcDbEntity
  8
0
100
AcDbLine
 62
7
  6
CONTINUOUS
 10
31.5098248573
 20
211.7218618397
 11
38.8098248573
 21
211.7218618397
  0
LINE
  5
3E1
100
AcDbEntity
  8
0
100
AcDbLine
 62
7
  6
CONTINUOUS
 10
48.3098248573
 20
211.7218618397
 11
50.3098248573
 21
211.7218618397
  0
LINE
  5
3E2
100
AcDbEntity
  8
0
100
AcDbLine
 62
7
  6
CONTINUOUS
 10
80.3098248573
 20
211.7218618397
 11
84.3098248573
 21
211.7218618397
  0
LINE
  5
3E3
100
AcDbEntity
  8
0
100
AcDbLine
 62
7
  6
CONTINUOUS
 10
50.6098248573
 20
199.0218618397
 11
50.9098248573
 21
199.3218618397
  0
LINE
  5
3E4
100
AcDbEntity
  8
02___PRT_ALL_AXES
100
AcDbLine
 62
7
  6
CONTINUOUS
 10
28.3098248573
 20
214.4218618397
 11
31.3098248573
 21
214.4218618397
  0
LINE
  5
3E5
100
AcDbEntity
  8
02___PRT_ALL_AXES
100
AcDbLine
 62
7
  6
CONTINUOUS
 10
164.8783673523
 20
214.7218618397
 11
134.8783673523
 21
214.7218618397
  0
LINE
  5
3E6
100
AcDbEntity
  8
02___PRT_ALL_AXES
100
AcDbLine
 62
7
  6
CENTER
 10
89.3098248573
 20
216.7218618397
 11
23.8946318559
 21
216.7218618397
  0
LINE
  5
3E7
100
AcDbEntity
  8
02___PRT_ALL_AXES
100
AcDbLine
 62
7
  6
CONTINUOUS
 10
28.3098248573
 20
219.0218618397
 11
31.3098248573
 21
219.0218618397
  0
LINE
  5
3E8
100
AcDbEntity
  8
0
100
AcDbLine
 62
7
  6
CONTINUOUS
 10
79.7098248573
 20
234.7218618397
 11
80.3098248573
 21
234.1218618397
  0
LINE
  5
3E9
100
AcDbEntity
  8
0
100
AcDbLine
 62
7
  6
CONTINUOUS
 10
94.9164265751
 20
226.1152601219
 11
101.987494387
 21
219.0441923101
  0
LINE
  5
3EA
100
AcDbEntity
  8
0
100
AcDbLine
 62
7
  6
CONTINUOUS
 10
111.128419068
 20
242.3272526147
 11
125.0669943769
 21
251.0370411346
  0
LINE
  5
3EB
100
AcDbEntity
  8
02___PRT_ALL_AXES
100
AcDbLine
 62
7
  6
CONTINUOUS
 10
188.8783673523
 20
243.7218618397
 11
186.8783673523
 21
243.2218618397
  0
LINE
  5
3EC
100
AcDbEntity
  8
02___PRT_ALL_AXES
100
AcDbLine
 62
7
  6
CENTER
 10
149.8783673523
 20
221.7218618397
 11
142.3783673523
 21
221.7218618397
  0
LINE
  5
3ED
100
AcDbEntity
  8
02___PRT_ALL_AXES
100
AcDbLine
 62
7
  6
CONTINUOUS
 10
31.5098248573
 20
221.7218618397
 11
38.8098248573
 21
221.7218618397
  0
LINE
  5
3EE
100
AcDbEntity
  8
0
100
AcDbLine
 62
7
  6
CONTINUOUS
 10
31.5098248573
 20
221.7218618397
 11
38.8098248573
 21
221.7218618397
  0
LINE
  5
3EF
100
AcDbEntity
  8
0
100
AcDbLine
 62
7
  6
CONTINUOUS
 10
48.3098248573
 20
221.7218618397
 11
50.3098248573
 21
221.7218618397
  0
LINE
  5
3F0
100
AcDbEntity
  8
0
100
AcDbLine
 62
7
  6
CONTINUOUS
 10
80.3098248573
 20
221.7218618397
 11
84.3098248573
 21
221.7218618397
  0
LINE
  5
3F1
100
AcDbEntity
  8
02___PRT_ALL_AXES
100
AcDbLine
 62
7
  6
CENTER
 10
149.8783673523
 20
221.7218618397
 11
157.3783673523
 21
221.7218618397
  0
LINE
  5
3F2
100
AcDbEntity
  8
02___PRT_ALL_AXES
100
AcDbLine
 62
7
  6
CONTINUOUS
 10
39.0098248573
 20
222.7218618397
 11
48.1098248573
 21
222.7218618397
  0
LINE
  5
3F3
100
AcDbEntity
  8
0
100
AcDbLine
 62
7
  6
CONTINUOUS
 10
39.0098248573
 20
222.7218618397
 11
48.1098248573
 21
222.7218618397
  0
LINE
  5
3F4
100
AcDbEntity
  8
0
100
AcDbLine
 62
7
  6
CONTINUOUS
 10
94.9164265751
 20
226.1152601219
 11
111.128419068
 21
242.3272526147
  0
LINE
  5
3F5
100
AcDbEntity
  8
0
100
AcDbLine
 62
7
  6
CONTINUOUS
 10
134.8783673523
 20
264.1218618397
 11
135.4783673523
 21
264.7218618397
  0
LINE
  5
3F6
100
AcDbEntity
  8
02___PRT_ALL_AXES
100
AcDbLine
 62
7
  6
CENTER
 10
65.3098248573
 20
226.7718618397
 11
61.3097998573
 21
226.7718618397
  0
LINE
  5
3F7
100
AcDbEntity
  8
02___PRT_ALL_AXES
100
AcDbLine
 62
7
  6
CENTER
 10
65.3098248573
 20
226.7718618397
 11
69.3098498573
 21
226.7718618397
  0
LINE
  5
3F8
100
AcDbEntity
  8
0
100
AcDbLine
 62
7
  6
CONTINUOUS
 10
135.4783673523
 20
228.7218618397
 11
164.2783673523
 21
228.7218618397
  0
LINE
  5
3F9
100
AcDbEntity
  8
0
100
AcDbLine
 62
7
  6
CONTINUOUS
 10
135.4783673523
 20
229.3218618397
 11
164.2783673523
 21
229.3218618397
  0
LINE
  5
3FA
100
AcDbEntity
  8
0
100
AcDbLine
 62
7
  6
CONTINUOUS
 10
80.3098248573
 20
199.3218618397
 11
79.7098248573
 21
198.7218618397
  0
LINE
  5
3FB
100
AcDbEntity
  8
0
100
AcDbLine
 62
7
  6
CONTINUOUS
 10
101.987494387
 20
219.0441923101
 11
120.2717656345
 21
237.3284635575
  0
LINE
  5
3FC
100
AcDbEntity
  8
0
100
AcDbLine
 62
7
  6
CONTINUOUS
 10
79.7098248573
 20
234.1218618397
 11
50.9098248573
 21
234.1218618397
  0
LINE
  5
3FD
100
AcDbEntity
  8
0
100
AcDbLine
 62
7
  6
CONTINUOUS
 10
79.7098248573
 20
234.7218618397
 11
50.9098248573
 21
234.7218618397
  0
LINE
  5
3FE
100
AcDbEntity
  8
02___PRT_ALL_AXES
100
AcDbLine
 62
7
  6
CENTER
 10
149.8783673523
 20
236.6718618397
 11
145.8783423523
 21
236.6718618397
  0
LINE
  5
3FF
100
AcDbEntity
  8
02___PRT_ALL_AXES
100
AcDbLine
 62
7
  6
CENTER
 10
149.8783673523
 20
236.6718618397
 11
153.8783923523
 21
236.6718618397
  0
LINE
  5
400
100
AcDbEntity
  8
02___PRT_ALL_AXES
100
AcDbLine
 62
7
  6
CONTINUOUS
 10
26.3098248573
 20
218.7218618397
 11
28.3098248573
 21
219.2218618397
  0
LINE
  5
401
100
AcDbEntity
  8
02___PRT_ALL_AXES
100
AcDbLine
 62
7
  6
CONTINUOUS
 10
177.1783673523
 20
239.8718618397
 11
167.0783673523
 21
239.8718618397
  0
LINE
  5
402
100
AcDbEntity
  8
0
100
AcDbLine
 62
7
  6
CONTINUOUS
 10
177.1783673523
 20
239.8718618397
 11
167.0783673523
 21
239.8718618397
  0
LINE
  5
403
100
AcDbEntity
  8
02___PRT_ALL_AXES
100
AcDbLine
 62
7
  6
CONTINUOUS
 10
183.6783673523
 20
240.7218618397
 11
177.3783673523
 21
240.7218618397
  0
LINE
  5
404
100
AcDbEntity
  8
0
100
AcDbLine
 62
7
  6
CONTINUOUS
 10
183.6783673523
 20
240.7218618397
 11
177.3783673523
 21
240.7218618397
  0
LINE
  5
405
100
AcDbEntity
  8
02___PRT_ALL_AXES
100
AcDbLine
 62
7
  6
CENTER
 10
65.3098248573
 20
241.7218618397
 11
57.8098248573
 21
241.7218618397
  0
LINE
  5
406
100
AcDbEntity
  8
02___PRT_ALL_AXES
100
AcDbLine
 62
7
  6
CENTER
 10
65.3098248573
 20
241.7218618397
 11
72.8098248573
 21
241.7218618397
  0
LINE
  5
407
100
AcDbEntity
  8
0
100
AcDbLine
 62
7
  6
CONTINUOUS
 10
130.8783673523
 20
241.7218618397
 11
134.8783673523
 21
241.7218618397
  0
LINE
  5
408
100
AcDbEntity
  8
0
100
AcDbLine
 62
7
  6
CONTINUOUS
 10
164.8783673523
 20
241.7218618397
 11
166.8783673523
 21
241.7218618397
  0
LINE
  5
409
100
AcDbEntity
  8
02___PRT_ALL_AXES
100
AcDbLine
 62
7
  6
CONTINUOUS
 10
83.5626020685
 20
242.0218618397
 11
76.5626020685
 21
242.0218618397
  0
LINE
  5
40A
100
AcDbEntity
  8
02___PRT_ALL_AXES
100
AcDbLine
 62
7
  6
CONTINUOUS
 10
111.7599258362
 20
242.7218618397
 11
83.5626020685
 21
242.7218618397
  0
LINE
  5
40B
100
AcDbEntity
  8
0
100
AcDbLine
 62
7
  6
CONTINUOUS
 10
111.7599258362
 20
242.7218618397
 11
83.5626020685
 21
242.7218618397
  0
LINE
  5
40C
100
AcDbEntity
  8
02___PRT_ALL_AXES
100
AcDbLine
 62
7
  6
CONTINUOUS
 10
186.8783673523
 20
243.4718618397
 11
183.8783673523
 21
243.4718618397
  0
LINE
  5
40D
100
AcDbEntity
  8
0
100
AcDbLine
 62
7
  6
CONTINUOUS
 10
113.6791210702
 20
243.9211081218
 11
120.2717656345
 21
237.3284635575
  0
LINE
  5
40E
100
AcDbEntity
  8
0
100
AcDbLine
 62
7
  6
CONTINUOUS
 10
164.2783673523
 20
264.1218618397
 11
164.5783673523
 21
264.4218618397
  0
LINE
  5
40F
100
AcDbEntity
  8
02___PRT_ALL_AXES
100
AcDbLine
 62
7
  6
CENTER
 10
192.4953665085
 20
246.7218618397
 11
74.2978431107
 21
246.7218618397
  0
LINE
  5
410
100
AcDbEntity
  8
02___PRT_ALL_AXES
100
AcDbLine
 62
7
  6
CONTINUOUS
 10
50.3098248573
 20
248.7218618397
 11
76.5626020685
 21
248.7218618397
  0
LINE
  5
411
100
AcDbEntity
  8
02___PRT_ALL_AXES
100
AcDbLine
 62
7
  6
CONTINUOUS
 10
186.8783673523
 20
249.9718618397
 11
183.8783673523
 21
249.9718618397
  0
LINE
  5
412
100
AcDbEntity
  8
02___PRT_ALL_AXES
100
AcDbLine
 62
7
  6
CONTINUOUS
 10
124.5626020685
 20
250.7218618397
 11
83.5626020685
 21
250.7218618397
  0
LINE
  5
413
100
AcDbEntity
  8
0
100
AcDbLine
 62
7
  6
CONTINUOUS
 10
124.5626020685
 20
250.7218618397
 11
83.5626020685
 21
250.7218618397
  0
LINE
  5
414
100
AcDbEntity
  8
0
100
AcDbLine
 62
7
  6
CONTINUOUS
 10
135.4783673523
 20
228.7218618397
 11
134.8783673523
 21
229.3218618397
  0
LINE
  5
415
100
AcDbEntity
  8
0
100
AcDbLine
 62
7
  6
CONTINUOUS
 10
130.8783673523
 20
251.7218618397
 11
130.8783673523
 21
241.7218618397
  0
LINE
  5
416
100
AcDbEntity
  8
0
100
AcDbLine
 62
7
  6
CONTINUOUS
 10
135.1783673523
 20
229.0218618397
 11
135.4783673523
 21
229.3218618397
  0
LINE
  5
417
100
AcDbEntity
  8
02___PRT_ALL_AXES
100
AcDbLine
 62
7
  6
CONTINUOUS
 10
83.5626020685
 20
251.4218618397
 11
76.5626020685
 21
251.4218618397
  0
LINE
  5
418
100
AcDbEntity
  8
0
100
AcDbLine
 62
7
  6
CONTINUOUS
 10
130.8783673523
 20
251.7218618397
 11
134.8783673523
 21
251.7218618397
  0
LINE
  5
419
100
AcDbEntity
  8
0
100
AcDbLine
 62
7
  6
CONTINUOUS
 10
164.8783673523
 20
251.7218618397
 11
166.8783673523
 21
251.7218618397
  0
LINE
  5
41A
100
AcDbEntity
  8
02___PRT_ALL_AXES
100
AcDbLine
 62
7
  6
CONTINUOUS
 10
183.6783673523
 20
252.7218618397
 11
177.3783673523
 21
252.7218618397
  0
LINE
  5
41B
100
AcDbEntity
  8
0
100
AcDbLine
 62
7
  6
CONTINUOUS
 10
183.6783673523
 20
252.7218618397
 11
177.3783673523
 21
252.7218618397
  0
LINE
  5
41C
100
AcDbEntity
  8
02___PRT_ALL_AXES
100
AcDbLine
 62
7
  6
CONTINUOUS
 10
177.1783673523
 20
253.5718618397
 11
167.0783673523
 21
253.5718618397
  0
LINE
  5
41D
100
AcDbEntity
  8
0
100
AcDbLine
 62
7
  6
CONTINUOUS
 10
177.1783673523
 20
253.5718618397
 11
167.0783673523
 21
253.5718618397
  0
LINE
  5
41E
100
AcDbEntity
  8
02___PRT_ALL_AXES
100
AcDbLine
 62
7
  6
CENTER
 10
149.8783673523
 20
256.7718618397
 11
145.8783423523
 21
256.7718618397
  0
LINE
  5
41F
100
AcDbEntity
  8
02___PRT_ALL_AXES
100
AcDbLine
 62
7
  6
CENTER
 10
149.8783673523
 20
256.7718618397
 11
153.8783923523
 21
256.7718618397
  0
LINE
  5
420
100
AcDbEntity
  8
0
100
AcDbLine
 62
7
  6
CONTINUOUS
 10
134.8783673523
 20
264.1218618397
 11
134.8783673523
 21
229.3218618397
  0
LINE
  5
421
100
AcDbEntity
  8
02___PRT_ALL_AXES
100
AcDbLine
 62
7
  6
CONTINUOUS
 10
134.8783673523
 20
214.7218618397
 11
134.8783673523
 21
229.3218618397
  0
LINE
  5
422
100
AcDbEntity
  8
02___PRT_ALL_AXES
100
AcDbLine
 62
7
  6
CONTINUOUS
 10
134.8783673523
 20
264.1218618397
 11
134.8783673523
 21
278.7218618397
  0
LINE
  5
423
100
AcDbEntity
  8
0
100
AcDbLine
 62
7
  6
CONTINUOUS
 10
135.4783673523
 20
264.1218618397
 11
135.4783673523
 21
229.3218618397
  0
LINE
  5
424
100
AcDbEntity
  8
0
100
AcDbLine
 62
7
  6
CONTINUOUS
 10
166.8783673521
 20
253.3718618396
 11
167.0783673521
 21
253.5718618396
  0
LINE
  5
425
100
AcDbEntity
  8
0
100
AcDbLine
 62
7
  6
CONTINUOUS
 10
164.2783673523
 20
264.1218618397
 11
135.4783673523
 21
264.1218618397
  0
LINE
  5
426
100
AcDbEntity
  8
0
100
AcDbLine
 62
7
  6
CONTINUOUS
 10
164.2783673523
 20
264.7218618397
 11
135.4783673523
 21
264.7218618397
  0
LINE
  5
427
100
AcDbEntity
  8
02___PRT_ALL_AXES
100
AcDbLine
 62
7
  6
CONTINUOUS
 10
188.8783673523
 20
249.7218618397
 11
186.8783673523
 21
250.2218618397
  0
LINE
  5
428
100
AcDbEntity
  8
0
100
AcDbLine
 62
7
  6
CONTINUOUS
 10
164.2783673523
 20
229.3218618397
 11
164.5783673523
 21
229.0218618397
  0
LINE
  5
429
100
AcDbEntity
  8
02___PRT_ALL_AXES
100
AcDbLine
 62
7
  6
CENTER
 10
149.8783673523
 20
271.7218618397
 11
149.8783673523
 21
264.2218618397
  0
LINE
  5
42A
100
AcDbEntity
  8
02___PRT_ALL_AXES
100
AcDbLine
 62
7
  6
CENTER
 10
149.8783673523
 20
256.7718618397
 11
149.8783673523
 21
252.7718368397
  0
LINE
  5
42B
100
AcDbEntity
  8
02___PRT_ALL_AXES
100
AcDbLine
 62
7
  6
CENTER
 10
149.8783673523
 20
236.6718618397
 11
149.8783673523
 21
232.6718368397
  0
LINE
  5
42C
100
AcDbEntity
  8
02___PRT_ALL_AXES
100
AcDbLine
 62
7
  6
CENTER
 10
149.8783673523
 20
221.7218618397
 11
149.8783673523
 21
214.2218618397
  0
LINE
  5
42D
100
AcDbEntity
  8
02___PRT_ALL_AXES
100
AcDbLine
 62
7
  6
CENTER
 10
149.8783673523
 20
221.7218618397
 11
149.8783673523
 21
229.2218618397
  0
LINE
  5
42E
100
AcDbEntity
  8
02___PRT_ALL_AXES
100
AcDbLine
 62
7
  6
CENTER
 10
149.8783673523
 20
236.6718618397
 11
149.8783673523
 21
240.6718868397
  0
LINE
  5
42F
100
AcDbEntity
  8
02___PRT_ALL_AXES
100
AcDbLine
 62
7
  6
CENTER
 10
149.8783673523
 20
256.7718618397
 11
149.8783673523
 21
260.7718868397
  0
LINE
  5
430
100
AcDbEntity
  8
02___PRT_ALL_AXES
100
AcDbLine
 62
7
  6
CENTER
 10
149.8783673523
 20
271.7218618397
 11
149.8783673523
 21
279.2218618397
  0
LINE
  5
431
100
AcDbEntity
  8
0
100
AcDbLine
 62
7
  6
CONTINUOUS
 10
164.8783673523
 20
229.3218618397
 11
164.2783673523
 21
228.7218618397
  0
LINE
  5
432
100
AcDbEntity
  8
0
100
AcDbLine
 62
7
  6
CONTINUOUS
 10
177.3783673524
 20
240.0718618398
 11
177.1783673524
 21
239.8718618398
  0
LINE
  5
433
100
AcDbEntity
  8
02___PRT_ALL_AXES
100
AcDbLine
 62
7
  6
CENTER
 10
149.8783673523
 20
271.7218618397
 11
142.3783673523
 21
271.7218618397
  0
LINE
  5
434
100
AcDbEntity
  8
02___PRT_ALL_AXES
100
AcDbLine
 62
7
  6
CENTER
 10
149.8783673523
 20
271.7218618397
 11
157.3783673523
 21
271.7218618397
  0
LINE
  5
435
100
AcDbEntity
  8
0
100
AcDbLine
 62
7
  6
CONTINUOUS
 10
135.4783673523
 20
264.1218618397
 11
135.1783673523
 21
264.4218618397
  0
LINE
  5
436
100
AcDbEntity
  8
0
100
AcDbLine
 62
7
  6
CONTINUOUS
 10
183.8783673524
 20
240.9218618398
 11
183.6783673524
 21
240.7218618398
  0
LINE
  5
437
100
AcDbEntity
  8
02___PRT_ALL_AXES
100
AcDbLine
 62
7
  6
CONTINUOUS
 10
134.8783673523
 20
278.7218618397
 11
164.8783673523
 21
278.7218618397
  0
LINE
  5
438
100
AcDbEntity
  8
0
100
AcDbLine
 62
7
  6
CONTINUOUS
 10
166.8783673522
 20
240.0718618398
 11
167.0783673522
 21
239.8718618398
  0
LINE
  5
439
100
AcDbEntity
  8
0
100
AcDbLine
 62
7
  6
CONTINUOUS
 10
164.2783673523
 20
229.3218618397
 11
164.2783673523
 21
264.1218618397
  0
LINE
  5
43A
100
AcDbEntity
  8
02___PRT_ALL_AXES
100
AcDbLine
 62
7
  6
CONTINUOUS
 10
164.8783673523
 20
278.7218618397
 11
164.8783673523
 21
264.1218618397
  0
LINE
  5
43B
100
AcDbEntity
  8
02___PRT_ALL_AXES
100
AcDbLine
 62
7
  6
CONTINUOUS
 10
164.8783673523
 20
229.3218618397
 11
164.8783673523
 21
214.7218618397
  0
LINE
  5
43C
100
AcDbEntity
  8
0
100
AcDbLine
 62
7
  6
CONTINUOUS
 10
164.8783673523
 20
229.3218618397
 11
164.8783673523
 21
264.1218618397
  0
LINE
  5
43D
100
AcDbEntity
  8
0
100
AcDbLine
 62
7
  6
CONTINUOUS
 10
166.8783673523
 20
240.0718618397
 11
166.8783673523
 21
253.3718618397
  0
LINE
  5
43E
100
AcDbEntity
  8
0
100
AcDbLine
 62
7
  6
CONTINUOUS
 10
167.0783673523
 20
239.8718618397
 11
167.0783673523
 21
253.5718618397
  0
LINE
  5
43F
100
AcDbEntity
  8
0
100
AcDbLine
 62
7
  6
CONTINUOUS
 10
164.2783673523
 20
264.7218618397
 11
164.8783673523
 21
264.1218618397
  0
LINE
  5
440
100
AcDbEntity
  8
0
100
AcDbLine
 62
7
  6
CONTINUOUS
 10
177.1783673523
 20
239.8718618397
 11
177.1783673523
 21
253.5718618397
  0
LINE
  5
441
100
AcDbEntity
  8
0
100
AcDbLine
 62
7
  6
CONTINUOUS
 10
177.3783673523
 20
253.3718618396
 11
177.1783673523
 21
253.5718618396
  0
LINE
  5
442
100
AcDbEntity
  8
0
100
AcDbLine
 62
7
  6
CONTINUOUS
 10
183.8783673524
 20
252.5218618396
 11
183.6783673524
 21
252.7218618396
  0
LINE
  5
443
100
AcDbEntity
  8
0
100
AcDbLine
 62
7
  6
CONTINUOUS
 10
177.3783673523
 20
240.0718618397
 11
177.3783673523
 21
253.3718618397
  0
LINE
  5
444
100
AcDbEntity
  8
0
100
AcDbLine
 62
7
  6
CONTINUOUS
 10
183.6783673523
 20
240.7218618397
 11
183.6783673523
 21
252.7218618397
  0
LINE
  5
445
100
AcDbEntity
  8
0
100
AcDbLine
 62
7
  6
CONTINUOUS
 10
183.8783673523
 20
240.9218618397
 11
183.8783673523
 21
252.5218618397
  0
LINE
  5
446
100
AcDbEntity
  8
02___PRT_ALL_AXES
100
AcDbLine
 62
7
  6
CONTINUOUS
 10
186.8783673523
 20
250.2218618397
 11
186.8783673523
 21
243.2218618397
  0
LINE
  5
447
100
AcDbEntity
  8
02___PRT_ALL_AXES
100
AcDbLine
 62
7
  6
CONTINUOUS
 10
188.8783673523
 20
249.7218618397
 11
188.8783673523
 21
243.7218618397
  0
LINE
  5
448
100
AcDbEntity
  8
02___PRT_ALL_AXES
100
AcDbLine
 62
7
  6
CONTINUOUS
 10
26.3098248573
 20
66.8355683378
 11
26.3098248573
 21
70.8353886088
  0
LINE
  5
449
100
AcDbEntity
  8
02___PRT_ALL_AXES
100
AcDbLine
 62
7
  6
CONTINUOUS
 10
28.3098248573
 20
66.3354784733
 11
28.3098248573
 21
71.3354784733
  0
LINE
  5
44A
100
AcDbEntity
  8
0
100
AcDbLine
 62
7
  6
CONTINUOUS
 10
31.3098248573
 20
73.6354784733
 11
31.3098248573
 21
64.0354784733
  0
LINE
  5
44B
100
AcDbEntity
  8
0
100
AcDbLine
 62
7
  6
CONTINUOUS
 10
31.5098248573
 20
73.8354784733
 11
31.5098248573
 21
63.8354784733
  0
LINE
  5
44C
100
AcDbEntity
  8
0
100
AcDbLine
 62
7
  6
CONTINUOUS
 10
38.8098248573
 20
74.6354784733
 11
38.8098248573
 21
63.0354784733
  0
LINE
  5
44D
100
AcDbEntity
  8
0
100
AcDbLine
 62
7
  6
CONTINUOUS
 10
39.0098248573
 20
74.8354784733
 11
39.0098248573
 21
62.8354784733
  0
LINE
  5
44E
100
AcDbEntity
  8
0
100
AcDbLine
 62
7
  6
CONTINUOUS
 10
48.1098248573
 20
74.8354784733
 11
48.1098248573
 21
62.8354784733
  0
LINE
  5
44F
100
AcDbEntity
  8
0
100
AcDbLine
 62
7
  6
CONTINUOUS
 10
48.3098248573
 20
74.6354784733
 11
48.3098248573
 21
63.0354784733
  0
LINE
  5
450
100
AcDbEntity
  8
0
100
AcDbLine
 62
7
  6
CONTINUOUS
 10
50.3098248573
 20
81.1354784733
 11
50.3098248573
 21
69.9354784733
  0
LINE
  5
451
100
AcDbEntity
  8
0
100
AcDbLine
 62
7
  6
CONTINUOUS
 10
50.3098248573
 20
56.5354784733
 11
50.3098248573
 21
67.7354784733
  0
LINE
  5
452
100
AcDbEntity
  8
02___PRT_ALL_AXES
100
AcDbLine
 62
7
  6
CONTINUOUS
 10
50.3098248573
 20
81.7354784733
 11
50.3098248573
 21
84.7354784733
  0
LINE
  5
453
100
AcDbEntity
  8
0
100
AcDbLine
 62
7
  6
CONTINUOUS
 10
50.9098248573
 20
81.1354784733
 11
50.9098248573
 21
69.9354784733
  0
LINE
  5
454
100
AcDbEntity
  8
0
100
AcDbLine
 62
7
  6
CONTINUOUS
 10
50.9098248573
 20
56.5354784733
 11
50.9098248573
 21
67.7354784733
  0
LINE
  5
455
100
AcDbEntity
  8
0
100
AcDbLine
 62
7
  6
CONTINUOUS
 10
31.3098248573
 20
73.6354784733
 11
31.5098248573
 21
73.8354784733
  0
LINE
  5
456
100
AcDbEntity
  8
0
100
AcDbLine
 62
7
  6
CONTINUOUS
 10
31.3098248573
 20
64.0354784733
 11
31.5098248573
 21
63.8354784733
  0
LINE
  5
457
100
AcDbEntity
  8
0
100
AcDbLine
 62
7
  6
CONTINUOUS
 10
38.8098248573
 20
74.6354784733
 11
39.0098248573
 21
74.8354784733
  0
LINE
  5
458
100
AcDbEntity
  8
0
100
AcDbLine
 62
7
  6
CONTINUOUS
 10
38.8098248573
 20
63.0354784733
 11
39.0098248573
 21
62.8354784733
  0
LINE
  5
459
100
AcDbEntity
  8
0
100
AcDbLine
 62
7
  6
CONTINUOUS
 10
50.9098248573
 20
55.9354784733
 11
50.3098248573
 21
56.5354784733
  0
LINE
  5
45A
100
AcDbEntity
  8
0
100
AcDbLine
 62
7
  6
CONTINUOUS
 10
50.3098248573
 20
81.1354784733
 11
50.9098248573
 21
81.7354784733
  0
LINE
  5
45B
100
AcDbEntity
  8
02___PRT_ALL_AXES
100
AcDbLine
 62
7
  6
CENTER
 10
65.3098248573
 20
89.7354784733
 11
65.3098248573
 21
76.7354784733
  0
LINE
  5
45C
100
AcDbEntity
  8
0
100
AcDbLine
 62
7
  6
CONTINUOUS
 10
50.6098248573
 20
69.6354784733
 11
50.9098248573
 21
69.9354784733
  0
LINE
  5
45D
100
AcDbEntity
  8
0
100
AcDbLine
 62
7
  6
CONTINUOUS
 10
50.3098248573
 20
67.7354784733
 11
50.9098248573
 21
68.3354784733
  0
LINE
  5
45E
100
AcDbEntity
  8
0
100
AcDbLine
 62
7
  6
CONTINUOUS
 10
50.9098248573
 20
67.7354784733
 11
50.6098248573
 21
68.0354784733
  0
LINE
  5
45F
100
AcDbEntity
  8
0
100
AcDbLine
 62
7
  6
CONTINUOUS
 10
50.9098248573
 20
69.3354784733
 11
50.3098248573
 21
69.9354784733
  0
LINE
  5
460
100
AcDbEntity
  8
0
100
AcDbLine
 62
7
  6
CONTINUOUS
 10
48.3098248573
 20
74.6354784733
 11
48.1098248573
 21
74.8354784733
  0
LINE
  5
461
100
AcDbEntity
  8
0
100
AcDbLine
 62
7
  6
CONTINUOUS
 10
48.3098248573
 20
63.0354784733
 11
48.1098248573
 21
62.8354784733
  0
LINE
  5
462
100
AcDbEntity
  8
0
100
AcDbLine
 62
7
  6
CONTINUOUS
 10
50.9098248573
 20
81.1354784733
 11
50.6098248573
 21
81.4354784733
  0
LINE
  5
463
100
AcDbEntity
  8
02___PRT_ALL_AXES
100
AcDbLine
 62
7
  6
CONTINUOUS
 10
76.5626020685
 20
64.1354784733
 11
76.5626020685
 21
73.5354784733
  0
LINE
  5
464
100
AcDbEntity
  8
0
100
AcDbLine
 62
7
  6
CONTINUOUS
 10
79.7098248573
 20
81.1354784733
 11
79.7098248573
 21
73.5354784733
  0
LINE
  5
465
100
AcDbEntity
  8
0
100
AcDbLine
 62
7
  6
CONTINUOUS
 10
79.7098248573
 20
56.5354784733
 11
79.7098248573
 21
64.1354784733
  0
LINE
  5
466
100
AcDbEntity
  8
0
100
AcDbLine
 62
7
  6
CONTINUOUS
 10
80.3098248573
 20
81.1354784733
 11
80.3098248573
 21
73.5354784733
  0
LINE
  5
467
100
AcDbEntity
  8
0
100
AcDbLine
 62
7
  6
CONTINUOUS
 10
80.3098248573
 20
56.5354784733
 11
80.3098248573
 21
64.1354784733
  0
LINE
  5
468
100
AcDbEntity
  8
02___PRT_ALL_AXES
100
AcDbLine
 62
7
  6
CONTINUOUS
 10
80.3098248573
 20
81.7354784733
 11
80.3098248573
 21
84.7354784733
  0
LINE
  5
469
100
AcDbEntity
  8
0
100
AcDbLine
 62
7
  6
CONTINUOUS
 10
50.6098248573
 20
56.2354784733
 11
50.9098248573
 21
56.5354784733
  0
LINE
  5
46A
100
AcDbEntity
  8
0
100
AcDbLine
 62
7
  6
CONTINUOUS
 10
80.0098248573
 20
81.4354784733
 11
79.7098248573
 21
81.1354784733
  0
LINE
  5
46B
100
AcDbEntity
  8
0
100
AcDbLine
 62
7
  6
CONTINUOUS
 10
79.7098248573
 20
56.5354784733
 11
80.0098248573
 21
56.2354784733
  0
LINE
  5
46C
100
AcDbEntity
  8
02___PRT_ALL_AXES
100
AcDbLine
 62
7
  6
CONTINUOUS
 10
83.5626020685
 20
64.1354784733
 11
83.5626020685
 21
73.5354784733
  0
LINE
  5
46D
100
AcDbEntity
  8
0
100
AcDbLine
 62
7
  6
CONTINUOUS
 10
84.3098248573
 20
73.8354784733
 11
84.3098248573
 21
72.8354784733
  0
LINE
  5
46E
100
AcDbEntity
  8
0
100
AcDbLine
 62
7
  6
CONTINUOUS
 10
84.3098248573
 20
64.8354784733
 11
84.3098248573
 21
63.8354784733
  0
LINE
  5
46F
100
AcDbEntity
  8
02___PRT_ALL_AXES
100
AcDbLine
 62
7
  6
CONTINUOUS
 10
188.8783673523
 20
65.8354784733
 11
186.8783673523
 21
65.3354784733
  0
LINE
  5
470
100
AcDbEntity
  8
02___PRT_ALL_AXES
100
AcDbLine
 62
7
  6
CONTINUOUS
 10
26.3098248573
 20
66.8354784733
 11
28.3098248573
 21
66.3354784733
  0
LINE
  5
471
100
AcDbEntity
  8
0
100
AcDbLine
 62
7
  6
CONTINUOUS
 10
164.2783673523
 20
55.9354784733
 11
135.4783673523
 21
55.9354784733
  0
LINE
  5
472
100
AcDbEntity
  8
0
100
AcDbLine
 62
7
  6
CONTINUOUS
 10
79.7098248573
 20
55.9354784733
 11
50.9098248573
 21
55.9354784733
  0
LINE
  5
473
100
AcDbEntity
  8
0
100
AcDbLine
 62
7
  6
CONTINUOUS
 10
164.2783673523
 20
56.5354784733
 11
135.4783673523
 21
56.5354784733
  0
LINE
  5
474
100
AcDbEntity
  8
0
100
AcDbLine
 62
7
  6
CONTINUOUS
 10
79.7098248573
 20
56.5354784733
 11
50.9098248573
 21
56.5354784733
  0
LINE
  5
475
100
AcDbEntity
  8
0
100
AcDbLine
 62
7
  6
CONTINUOUS
 10
80.3098248573
 20
81.1354784733
 11
79.7098248573
 21
81.7354784733
  0
LINE
  5
476
100
AcDbEntity
  8
0
100
AcDbLine
 62
7
  6
CONTINUOUS
 10
79.7098248573
 20
55.9354784733
 11
80.3098248573
 21
56.5354784733
  0
LINE
  5
477
100
AcDbEntity
  8
02___PRT_ALL_AXES
100
AcDbLine
 62
7
  6
CONTINUOUS
 10
177.1783673523
 20
61.9854784733
 11
167.0783673523
 21
61.9854784733
  0
LINE
  5
478
100
AcDbEntity
  8
02___PRT_ALL_AXES
100
AcDbLine
 62
7
  6
CONTINUOUS
 10
183.6783673523
 20
62.8354784733
 11
177.3783673523
 21
62.8354784733
  0
LINE
  5
479
100
AcDbEntity
  8
02___PRT_ALL_AXES
100
AcDbLine
 62
7
  6
CONTINUOUS
 10
39.0098248573
 20
62.8354784733
 11
48.1098248573
 21
62.8354784733
  0
LINE
  5
47A
100
AcDbEntity
  8
02___PRT_ALL_AXES
100
AcDbLine
 62
7
  6
CONTINUOUS
 10
31.5098248573
 20
63.8354784733
 11
38.8098248573
 21
63.8354784733
  0
LINE
  5
47B
100
AcDbEntity
  8
0
100
AcDbLine
 62
7
  6
CONTINUOUS
 10
48.3098248573
 20
63.8354784733
 11
50.3098248573
 21
63.8354784733
  0
LINE
  5
47C
100
AcDbEntity
  8
0
100
AcDbLine
 62
7
  6
CONTINUOUS
 10
80.3098248573
 20
63.8354784733
 11
134.8783673523
 21
63.8354784733
  0
LINE
  5
47D
100
AcDbEntity
  8
0
100
AcDbLine
 62
7
  6
CONTINUOUS
 10
164.8783673523
 20
63.8354784733
 11
166.8783673523
 21
63.8354784733
  0
LINE
  5
47E
100
AcDbEntity
  8
02___PRT_ALL_AXES
100
AcDbLine
 62
7
  6
CONTINUOUS
 10
83.5626020685
 20
64.1354784733
 11
76.5626020685
 21
64.1354784733
  0
LINE
  5
47F
100
AcDbEntity
  8
02___PRT_ALL_AXES
100
AcDbLine
 62
7
  6
CONTINUOUS
 10
118.161262851
 20
64.8354784733
 11
83.5626020685
 21
64.8354784733
  0
LINE
  5
480
100
AcDbEntity
  8
02___PRT_ALL_AXES
100
AcDbLine
 62
7
  6
CONTINUOUS
 10
186.8783673523
 20
65.5854784733
 11
183.8783673523
 21
65.5854784733
  0
LINE
  5
481
100
AcDbEntity
  8
02___PRT_ALL_AXES
100
AcDbLine
 62
7
  6
CONTINUOUS
 10
28.3098248573
 20
66.5354784733
 11
31.3098248573
 21
66.5354784733
  0
LINE
  5
482
100
AcDbEntity
  8
0
100
AcDbLine
 62
7
  6
CONTINUOUS
 10
50.9098248573
 20
67.7354784733
 11
76.5626020685
 21
67.7354784733
  0
LINE
  5
483
100
AcDbEntity
  8
0
100
AcDbLine
 62
7
  6
CONTINUOUS
 10
135.4783673523
 20
67.7354784733
 11
164.2783673523
 21
67.7354784733
  0
LINE
  5
484
100
AcDbEntity
  8
0
100
AcDbLine
 62
7
  6
CONTINUOUS
 10
50.9098248573
 20
68.3354784733
 11
76.5626020685
 21
68.3354784733
  0
LINE
  5
485
100
AcDbEntity
  8
0
100
AcDbLine
 62
7
  6
CONTINUOUS
 10
135.4783673523
 20
68.3354784733
 11
164.2783673523
 21
68.3354784733
  0
LINE
  5
486
100
AcDbEntity
  8
02___PRT_ALL_AXES
100
AcDbLine
 62
7
  6
CENTER
 10
190.0837032788
 20
68.8354784733
 11
24.4787798175
 21
68.8354784733
  0
LINE
  5
487
100
AcDbEntity
  8
0
100
AcDbLine
 62
7
  6
CONTINUOUS
 10
164.2783673523
 20
69.3354784733
 11
135.4783673523
 21
69.3354784733
  0
LINE
  5
488
100
AcDbEntity
  8
0
100
AcDbLine
 62
7
  6
CONTINUOUS
 10
76.5626020685
 20
69.3354784733
 11
50.9098248573
 21
69.3354784733
  0
LINE
  5
489
100
AcDbEntity
  8
0
100
AcDbLine
 62
7
  6
CONTINUOUS
 10
164.2783673523
 20
69.9354784733
 11
135.4783673523
 21
69.9354784733
  0
LINE
  5
48A
100
AcDbEntity
  8
0
100
AcDbLine
 62
7
  6
CONTINUOUS
 10
76.5626020685
 20
69.9354784733
 11
50.9098248573
 21
69.9354784733
  0
LINE
  5
48B
100
AcDbEntity
  8
02___PRT_ALL_AXES
100
AcDbLine
 62
7
  6
CONTINUOUS
 10
28.3098248573
 20
71.1354784733
 11
31.3098248573
 21
71.1354784733
  0
LINE
  5
48C
100
AcDbEntity
  8
02___PRT_ALL_AXES
100
AcDbLine
 62
7
  6
CONTINUOUS
 10
186.8783673523
 20
72.0854784733
 11
183.8783673523
 21
72.0854784733
  0
LINE
  5
48D
100
AcDbEntity
  8
02___PRT_ALL_AXES
100
AcDbLine
 62
7
  6
CONTINUOUS
 10
118.1612650537
 20
72.8354784733
 11
83.5626020685
 21
72.8354784733
  0
LINE
  5
48E
100
AcDbEntity
  8
02___PRT_ALL_AXES
100
AcDbLine
 62
7
  6
CONTINUOUS
 10
83.5626020685
 20
73.5354784733
 11
76.5626020685
 21
73.5354784733
  0
LINE
  5
48F
100
AcDbEntity
  8
02___PRT_ALL_AXES
100
AcDbLine
 62
7
  6
CONTINUOUS
 10
31.5098248573
 20
73.8354784733
 11
38.8098248573
 21
73.8354784733
  0
LINE
  5
490
100
AcDbEntity
  8
0
100
AcDbLine
 62
7
  6
CONTINUOUS
 10
48.3098248573
 20
73.8354784733
 11
50.3098248573
 21
73.8354784733
  0
LINE
  5
491
100
AcDbEntity
  8
0
100
AcDbLine
 62
7
  6
CONTINUOUS
 10
80.3098248573
 20
73.8354784733
 11
134.8783673523
 21
73.8354784733
  0
LINE
  5
492
100
AcDbEntity
  8
0
100
AcDbLine
 62
7
  6
CONTINUOUS
 10
164.8783673523
 20
73.8354784733
 11
166.8783673523
 21
73.8354784733
  0
LINE
  5
493
100
AcDbEntity
  8
02___PRT_ALL_AXES
100
AcDbLine
 62
7
  6
CONTINUOUS
 10
183.6783673523
 20
74.8354784733
 11
177.3783673523
 21
74.8354784733
  0
LINE
  5
494
100
AcDbEntity
  8
02___PRT_ALL_AXES
100
AcDbLine
 62
7
  6
CONTINUOUS
 10
39.0098248573
 20
74.8354784733
 11
48.1098248573
 21
74.8354784733
  0
LINE
  5
495
100
AcDbEntity
  8
02___PRT_ALL_AXES
100
AcDbLine
 62
7
  6
CONTINUOUS
 10
177.1783673523
 20
75.6854784733
 11
167.0783673523
 21
75.6854784733
  0
LINE
  5
496
100
AcDbEntity
  8
0
100
AcDbLine
 62
7
  6
CONTINUOUS
 10
134.8783673523
 20
81.1354784733
 11
135.4783673523
 21
81.7354784733
  0
LINE
  5
497
100
AcDbEntity
  8
0
100
AcDbLine
 62
7
  6
CONTINUOUS
 10
50.9098248573
 20
81.1354784733
 11
79.7098248573
 21
81.1354784733
  0
LINE
  5
498
100
AcDbEntity
  8
0
100
AcDbLine
 62
7
  6
CONTINUOUS
 10
135.4783673523
 20
81.1354784733
 11
164.2783673523
 21
81.1354784733
  0
LINE
  5
499
100
AcDbEntity
  8
02___PRT_ALL_AXES
100
AcDbLine
 62
7
  6
CONTINUOUS
 10
50.3098248573
 20
81.7354784733
 11
80.3098248573
 21
81.7354784733
  0
LINE
  5
49A
100
AcDbEntity
  8
02___PRT_ALL_AXES
100
AcDbLine
 62
7
  6
CONTINUOUS
 10
134.8783673523
 20
81.7354784733
 11
164.8783673523
 21
81.7354784733
  0
LINE
  5
49B
100
AcDbEntity
  8
0
100
AcDbLine
 62
7
  6
CONTINUOUS
 10
134.8783673523
 20
56.5354784733
 11
135.4783673523
 21
55.9354784733
  0
LINE
  5
49C
100
AcDbEntity
  8
02___PRT_ALL_AXES
100
AcDbLine
 62
7
  6
CONTINUOUS
 10
50.3098248573
 20
84.7354784733
 11
80.3098248573
 21
84.7354784733
  0
LINE
  5
49D
100
AcDbEntity
  8
02___PRT_ALL_AXES
100
AcDbLine
 62
7
  6
CONTINUOUS
 10
134.8783673523
 20
84.7354784733
 11
164.8783673523
 21
84.7354784733
  0
LINE
  5
49E
100
AcDbEntity
  8
0
100
AcDbLine
 62
7
  6
CONTINUOUS
 10
135.1783673523
 20
69.6354784733
 11
135.4783673523
 21
69.9354784733
  0
LINE
  5
49F
100
AcDbEntity
  8
0
100
AcDbLine
 62
7
  6
CONTINUOUS
 10
134.8783673523
 20
67.7354784733
 11
135.4783673523
 21
68.3354784733
  0
LINE
  5
4A0
100
AcDbEntity
  8
02___PRT_ALL_AXES
100
AcDbLine
 62
7
  6
CONTINUOUS
 10
26.3098248573
 20
70.8354784733
 11
28.3098248573
 21
71.3354784733
  0
LINE
  5
4A1
100
AcDbEntity
  8
02___PRT_ALL_AXES
100
AcDbLine
 62
7
  6
CONTINUOUS
 10
188.8783673523
 20
71.8354784733
 11
186.8783673523
 21
72.3354784733
  0
LINE
  5
4A2
100
AcDbEntity
  8
0
100
AcDbLine
 62
7
  6
CONTINUOUS
 10
135.4783673523
 20
67.7354784733
 11
135.1783673523
 21
68.0354784733
  0
LINE
  5
4A3
100
AcDbEntity
  8
0
100
AcDbLine
 62
7
  6
CONTINUOUS
 10
134.8783673523
 20
69.9354784733
 11
135.4783673523
 21
69.3354784733
  0
LINE
  5
4A4
100
AcDbEntity
  8
0
100
AcDbLine
 62
7
  6
CONTINUOUS
 10
130.8783673523
 20
73.8354784733
 11
130.8783673523
 21
63.8354784733
  0
LINE
  5
4A5
100
AcDbEntity
  8
0
100
AcDbLine
 62
7
  6
CONTINUOUS
 10
134.8783673523
 20
81.1354784733
 11
134.8783673523
 21
69.9354784733
  0
LINE
  5
4A6
100
AcDbEntity
  8
0
100
AcDbLine
 62
7
  6
CONTINUOUS
 10
134.8783673523
 20
56.5354784733
 11
134.8783673523
 21
67.7354784733
  0
LINE
  5
4A7
100
AcDbEntity
  8
02___PRT_ALL_AXES
100
AcDbLine
 62
7
  6
CONTINUOUS
 10
134.8783673523
 20
81.7354784733
 11
134.8783673523
 21
84.7354784733
  0
LINE
  5
4A8
100
AcDbEntity
  8
0
100
AcDbLine
 62
7
  6
CONTINUOUS
 10
135.4783673523
 20
81.1354784733
 11
135.4783673523
 21
69.9354784733
  0
LINE
  5
4A9
100
AcDbEntity
  8
0
100
AcDbLine
 62
7
  6
CONTINUOUS
 10
135.4783673523
 20
56.5354784733
 11
135.4783673523
 21
67.7354784733
  0
LINE
  5
4AA
100
AcDbEntity
  8
0
100
AcDbLine
 62
7
  6
CONTINUOUS
 10
135.4783673523
 20
81.1354784733
 11
135.1783673523
 21
81.4354784733
  0
LINE
  5
4AB
100
AcDbEntity
  8
0
100
AcDbLine
 62
7
  6
CONTINUOUS
 10
135.1783673523
 20
56.2354784733
 11
135.4783673523
 21
56.5354784733
  0
LINE
  5
4AC
100
AcDbEntity
  8
0
100
AcDbLine
 62
7
  6
CONTINUOUS
 10
164.5783673523
 20
81.4354784733
 11
164.2783673523
 21
81.1354784733
  0
LINE
  5
4AD
100
AcDbEntity
  8
0
100
AcDbLine
 62
7
  6
CONTINUOUS
 10
164.2783673523
 20
56.5354784733
 11
164.5783673523
 21
56.2354784733
  0
LINE
  5
4AE
100
AcDbEntity
  8
0
100
AcDbLine
 62
7
  6
CONTINUOUS
 10
166.8783673523
 20
75.4854784733
 11
167.0783673523
 21
75.6854784733
  0
LINE
  5
4AF
100
AcDbEntity
  8
0
100
AcDbLine
 62
7
  6
CONTINUOUS
 10
166.8783673523
 20
62.1854784733
 11
167.0783673523
 21
61.9854784733
  0
LINE
  5
4B0
100
AcDbEntity
  8
0
100
AcDbLine
 62
7
  6
CONTINUOUS
 10
164.8783673523
 20
67.7354784733
 11
164.2783673523
 21
68.3354784733
  0
LINE
  5
4B1
100
AcDbEntity
  8
02___PRT_ALL_AXES
100
AcDbLine
 62
7
  6
CENTER
 10
149.8783673523
 20
89.7354784733
 11
149.8783673523
 21
76.7354784733
  0
LINE
  5
4B2
100
AcDbEntity
  8
0
100
AcDbLine
 62
7
  6
CONTINUOUS
 10
164.8783673523
 20
69.9354784733
 11
164.2783673523
 21
69.3354784733
  0
LINE
  5
4B3
100
AcDbEntity
  8
0
100
AcDbLine
 62
7
  6
CONTINUOUS
 10
164.2783673523
 20
67.7354784733
 11
164.5783673523
 21
68.0354784733
  0
LINE
  5
4B4
100
AcDbEntity
  8
0
100
AcDbLine
 62
7
  6
CONTINUOUS
 10
164.2783673523
 20
69.9354784733
 11
164.5783673523
 21
69.6354784733
  0
LINE
  5
4B5
100
AcDbEntity
  8
0
100
AcDbLine
 62
7
  6
CONTINUOUS
 10
164.2783673523
 20
55.9354784733
 11
164.8783673523
 21
56.5354784733
  0
LINE
  5
4B6
100
AcDbEntity
  8
0
100
AcDbLine
 62
7
  6
CONTINUOUS
 10
164.2783673523
 20
81.7354784733
 11
164.8783673523
 21
81.1354784733
  0
LINE
  5
4B7
100
AcDbEntity
  8
0
100
AcDbLine
 62
7
  6
CONTINUOUS
 10
177.3783673523
 20
62.1854784733
 11
177.1783673523
 21
61.9854784733
  0
LINE
  5
4B8
100
AcDbEntity
  8
0
100
AcDbLine
 62
7
  6
CONTINUOUS
 10
177.3783673523
 20
75.4854784733
 11
177.1783673523
 21
75.6854784733
  0
LINE
  5
4B9
100
AcDbEntity
  8
0
100
AcDbLine
 62
7
  6
CONTINUOUS
 10
164.2783673523
 20
81.1354784733
 11
164.2783673523
 21
69.9354784733
  0
LINE
  5
4BA
100
AcDbEntity
  8
0
100
AcDbLine
 62
7
  6
CONTINUOUS
 10
164.2783673523
 20
56.5354784733
 11
164.2783673523
 21
67.7354784733
  0
LINE
  5
4BB
100
AcDbEntity
  8
0
100
AcDbLine
 62
7
  6
CONTINUOUS
 10
164.8783673523
 20
81.1354784733
 11
164.8783673523
 21
69.9354784733
  0
LINE
  5
4BC
100
AcDbEntity
  8
0
100
AcDbLine
 62
7
  6
CONTINUOUS
 10
164.8783673523
 20
56.5354784733
 11
164.8783673523
 21
67.7354784733
  0
LINE
  5
4BD
100
AcDbEntity
  8
02___PRT_ALL_AXES
100
AcDbLine
 62
7
  6
CONTINUOUS
 10
164.8783673523
 20
81.7354784733
 11
164.8783673523
 21
84.7354784733
  0
LINE
  5
4BE
100
AcDbEntity
  8
0
100
AcDbLine
 62
7
  6
CONTINUOUS
 10
166.8783673523
 20
62.1855563894
 11
166.8783673523
 21
75.4854005572
  0
LINE
  5
4BF
100
AcDbEntity
  8
0
100
AcDbLine
 62
7
  6
CONTINUOUS
 10
167.0783673523
 20
61.9854784733
 11
167.0783673523
 21
75.6854784733
  0
LINE
  5
4C0
100
AcDbEntity
  8
0
100
AcDbLine
 62
7
  6
CONTINUOUS
 10
183.8783673523
 20
63.0354784733
 11
183.6783673523
 21
62.8354784733
  0
LINE
  5
4C1
100
AcDbEntity
  8
0
100
AcDbLine
 62
7
  6
CONTINUOUS
 10
183.8783673523
 20
74.6354784733
 11
183.6783673523
 21
74.8354784733
  0
LINE
  5
4C2
100
AcDbEntity
  8
0
100
AcDbLine
 62
7
  6
CONTINUOUS
 10
177.1783673523
 20
61.9854784733
 11
177.1783673523
 21
75.6854784733
  0
LINE
  5
4C3
100
AcDbEntity
  8
0
100
AcDbLine
 62
7
  6
CONTINUOUS
 10
177.3783673523
 20
62.1855563894
 11
177.3783673523
 21
75.4854005571
  0
LINE
  5
4C4
100
AcDbEntity
  8
0
100
AcDbLine
 62
7
  6
CONTINUOUS
 10
183.6783673523
 20
62.8354784733
 11
183.6783673523
 21
74.8354784733
  0
LINE
  5
4C5
100
AcDbEntity
  8
0
100
AcDbLine
 62
7
  6
CONTINUOUS
 10
183.8783673523
 20
63.0354784733
 11
183.8783673523
 21
74.6354784733
  0
LINE
  5
4C6
100
AcDbEntity
  8
02___PRT_ALL_AXES
100
AcDbLine
 62
7
  6
CONTINUOUS
 10
186.8783673523
 20
65.3354784733
 11
186.8783673523
 21
72.3354784733
  0
LINE
  5
4C7
100
AcDbEntity
  8
02___PRT_ALL_AXES
100
AcDbLine
 62
7
  6
CONTINUOUS
 10
188.8783673523
 20
65.8355602445
 11
188.8783673523
 21
71.8353967021
  0
LINE
  5
4C8
100
AcDbEntity
  8
02___PRT_ALL_AXES
100
AcDbLine
 62
7
  6
CONTINUOUS
 10
228.3530242159
 20
184.7218618397
 11
225.3530242159
 21
184.7218618397
  0
LINE
  5
4C9
100
AcDbEntity
  8
0
100
AcDbLine
 62
7
  6
CONTINUOUS
 10
253.5530242159
 20
198.7218618397
 11
242.3530242159
 21
198.7218618397
  0
LINE
  5
4CA
100
AcDbEntity
  8
0
100
AcDbLine
 62
7
  6
CONTINUOUS
 10
228.9530242159
 20
198.7218618397
 11
240.1530242159
 21
198.7218618397
  0
LINE
  5
4CB
100
AcDbEntity
  8
0
100
AcDbLine
 62
7
  6
CONTINUOUS
 10
253.5530242159
 20
199.3218618397
 11
242.3530242159
 21
199.3218618397
  0
LINE
  5
4CC
100
AcDbEntity
  8
0
100
AcDbLine
 62
7
  6
CONTINUOUS
 10
228.9530242159
 20
199.3218618397
 11
240.1530242159
 21
199.3218618397
  0
LINE
  5
4CD
100
AcDbEntity
  8
0
100
AcDbLine
 62
7
  6
CONTINUOUS
 10
228.9530242159
 20
264.7218618397
 11
228.3530242159
 21
264.1218618397
  0
LINE
  5
4CE
100
AcDbEntity
  8
0
100
AcDbLine
 62
7
  6
CONTINUOUS
 10
228.3530242159
 20
199.3218618397
 11
228.9530242159
 21
198.7218618397
  0
LINE
  5
4CF
100
AcDbEntity
  8
0
100
AcDbLine
 62
7
  6
CONTINUOUS
 10
240.1530242159
 20
264.1218618397
 11
240.4530242159
 21
264.4218618397
  0
LINE
  5
4D0
100
AcDbEntity
  8
0
100
AcDbLine
 62
7
  6
CONTINUOUS
 10
240.1530242159
 20
199.3218618397
 11
240.4530242159
 21
199.0218618397
  0
LINE
  5
4D1
100
AcDbEntity
  8
0
100
AcDbLine
 62
7
  6
CONTINUOUS
 10
242.3530242159
 20
264.7218618397
 11
241.7530242159
 21
264.1218618397
  0
LINE
  5
4D2
100
AcDbEntity
  8
0
100
AcDbLine
 62
7
  6
CONTINUOUS
 10
241.7530242159
 20
199.3218618397
 11
242.3530242159
 21
198.7218618397
  0
LINE
  5
4D3
100
AcDbEntity
  8
02___PRT_ALL_AXES
100
AcDbLine
 62
7
  6
CONTINUOUS
 10
225.3530242159
 20
184.7218618397
 11
225.3530242159
 21
278.7218618397
  0
LINE
  5
4D4
100
AcDbEntity
  8
0
100
AcDbLine
 62
7
  6
CONTINUOUS
 10
253.5530242159
 20
264.1218618397
 11
253.8530242159
 21
264.4218618397
  0
LINE
  5
4D5
100
AcDbEntity
  8
02___PRT_ALL_AXES
100
AcDbLine
 62
7
  6
CENTER
 10
241.2530242159
 20
216.7218618397
 11
234.6502253479
 21
216.7218618397
  0
LINE
  5
4D6
100
AcDbEntity
  8
02___PRT_ALL_AXES
100
AcDbLine
 62
7
  6
CENTER
 10
241.2530242159
 20
216.7218618397
 11
248.6413420992
 21
216.7218618397
  0
LINE
  5
4D7
100
AcDbEntity
  8
0
100
AcDbLine
 62
7
  6
CONTINUOUS
 10
253.5530242159
 20
199.3218618397
 11
253.8530242159
 21
199.0218618397
  0
LINE
  5
4D8
100
AcDbEntity
  8
02___PRT_ALL_AXES
100
AcDbLine
 62
7
  6
CONTINUOUS
 10
228.3530242159
 20
184.7218618397
 11
228.3530242159
 21
278.7218618397
  0
LINE
  5
4D9
100
AcDbEntity
  8
0
100
AcDbLine
 62
7
  6
CONTINUOUS
 10
228.9530242159
 20
199.3218618397
 11
228.9530242159
 21
234.1218618397
  0
LINE
  5
4DA
100
AcDbEntity
  8
0
100
AcDbLine
 62
7
  6
CONTINUOUS
 10
228.9530242159
 20
234.7218618397
 11
228.9530242159
 21
264.1218618397
  0
LINE
  5
4DB
100
AcDbEntity
  8
0
100
AcDbLine
 62
7
  6
CONTINUOUS
 10
228.9530242159
 20
234.7218618397
 11
228.3530242159
 21
234.1218618397
  0
LINE
  5
4DC
100
AcDbEntity
  8
0
100
AcDbLine
 62
7
  6
CONTINUOUS
 10
236.2530242159
 20
234.7218618397
 11
236.2530242159
 21
246.7218618397
  0
LINE
  5
4DD
100
AcDbEntity
  8
0
100
AcDbLine
 62
7
  6
CONTINUOUS
 10
228.9530242159
 20
234.1218618397
 11
228.6530242159
 21
234.4218618397
  0
LINE
  5
4DE
100
AcDbEntity
  8
0
100
AcDbLine
 62
7
  6
CONTINUOUS
 10
240.1530242159
 20
264.1218618397
 11
240.1530242159
 21
252.212763405
  0
LINE
  5
4DF
100
AcDbEntity
  8
0
100
AcDbLine
 62
7
  6
CONTINUOUS
 10
240.1530242159
 20
234.1218618397
 11
240.1530242159
 21
222.6078846083
  0
LINE
  5
4E0
100
AcDbEntity
  8
0
100
AcDbLine
 62
7
  6
CONTINUOUS
 10
240.1530242159
 20
210.8358390673
 11
240.1530242159
 21
199.3218618397
  0
LINE
  5
4E1
100
AcDbEntity
  8
0
100
AcDbLine
 62
7
  6
CONTINUOUS
 10
240.1530242159
 20
234.1218618397
 11
240.4530242159
 21
234.4218618397
  0
LINE
  5
4E2
100
AcDbEntity
  8
0
100
AcDbLine
 62
7
  6
CONTINUOUS
 10
242.3530242159
 20
234.7218618397
 11
241.7530242159
 21
234.1218618397
  0
LINE
  5
4E3
100
AcDbEntity
  8
0
100
AcDbLine
 62
7
  6
CONTINUOUS
 10
240.7530242159
 20
264.1218618397
 11
240.7530242159
 21
251.6967990253
  0
LINE
  5
4E4
100
AcDbEntity
  8
0
100
AcDbLine
 62
7
  6
CONTINUOUS
 10
240.7530242159
 20
234.1218618397
 11
240.7530242159
 21
222.6843943764
  0
LINE
  5
4E5
100
AcDbEntity
  8
0
100
AcDbLine
 62
7
  6
CONTINUOUS
 10
240.7530242159
 20
210.7593293092
 11
240.7530242159
 21
199.3218618397
  0
LINE
  5
4E6
100
AcDbEntity
  8
02___PRT_ALL_AXES
100
AcDbLine
 62
7
  6
CENTER
 10
241.2530242159
 20
246.7218618397
 11
241.2530242159
 21
241.0588308277
  0
LINE
  5
4E7
100
AcDbEntity
  8
03___PRT_ALL_CURVES
100
AcDbLine
 62
4
  6
CONTINUOUS
 10
241.2530242159
 20
246.7218618397
 11
241.2530242159
 21
244.3471447615
  0
LINE
  5
4E8
100
AcDbEntity
  8
02___PRT_ALL_AXES
100
AcDbLine
 62
7
  6
CENTER
 10
241.2530242159
 20
216.7218618397
 11
241.2530242159
 21
209.7409374266
  0
LINE
  5
4E9
100
AcDbEntity
  8
03___PRT_ALL_CURVES
100
AcDbLine
 62
4
  6
CONTINUOUS
 10
241.2530242159
 20
216.7218618397
 11
241.2530242159
 21
218.2212594581
  0
LINE
  5
4EA
100
AcDbEntity
  8
02___PRT_ALL_AXES
100
AcDbLine
 62
7
  6
CENTER
 10
241.2530242159
 20
216.7218618397
 11
241.2530242159
 21
223.6210135688
  0
LINE
  5
4EB
100
AcDbEntity
  8
02___PRT_ALL_AXES
100
AcDbLine
 62
7
  6
CENTER
 10
241.2530242159
 20
246.7218618397
 11
241.2530242159
 21
254.1577140764
  0
LINE
  5
4EC
100
AcDbEntity
  8
0
100
AcDbLine
 62
7
  6
CONTINUOUS
 10
241.7530242159
 20
199.3218618397
 11
241.7530242159
 21
210.7593293031
  0
LINE
  5
4ED
100
AcDbEntity
  8
0
100
AcDbLine
 62
7
  6
CONTINUOUS
 10
241.7530242159
 20
222.6843943702
 11
241.7530242159
 21
234.1218618397
  0
LINE
  5
4EE
100
AcDbEntity
  8
0
100
AcDbLine
 62
7
  6
CONTINUOUS
 10
241.7530242159
 20
251.6967990253
 11
241.7530242159
 21
264.1218618397
  0
LINE
  5
4EF
100
AcDbEntity
  8
0
100
AcDbLine
 62
7
  6
CONTINUOUS
 10
242.3530242159
 20
199.3218618397
 11
242.3530242159
 21
210.8358390711
  0
LINE
  5
4F0
100
AcDbEntity
  8
0
100
AcDbLine
 62
7
  6
CONTINUOUS
 10
242.3530242159
 20
222.6078846121
 11
242.3530242159
 21
234.1218618397
  0
LINE
  5
4F1
100
AcDbEntity
  8
0
100
AcDbLine
 62
7
  6
CONTINUOUS
 10
242.3530242159
 20
252.212763405
 11
242.3530242159
 21
264.1218618397
  0
LINE
  5
4F2
100
AcDbEntity
  8
0
100
AcDbLine
 62
7
  6
CONTINUOUS
 10
253.5530242159
 20
234.1218618397
 11
242.3530242159
 21
234.1218618397
  0
LINE
  5
4F3
100
AcDbEntity
  8
0
100
AcDbLine
 62
7
  6
CONTINUOUS
 10
228.9530242159
 20
234.1218618397
 11
240.1530242159
 21
234.1218618397
  0
LINE
  5
4F4
100
AcDbEntity
  8
0
100
AcDbLine
 62
7
  6
CONTINUOUS
 10
253.5530242159
 20
234.7218618397
 11
242.3530242159
 21
234.7218618397
  0
LINE
  5
4F5
100
AcDbEntity
  8
0
100
AcDbLine
 62
7
  6
CONTINUOUS
 10
228.9530242159
 20
234.7218618397
 11
240.1530242159
 21
234.7218618397
  0
LINE
  5
4F6
100
AcDbEntity
  8
0
100
AcDbLine
 62
7
  6
CONTINUOUS
 10
240.7530242159
 20
234.1218618397
 11
240.1530242159
 21
234.7218618397
  0
LINE
  5
4F7
100
AcDbEntity
  8
0
100
AcDbLine
 62
7
  6
CONTINUOUS
 10
242.3530242159
 20
234.1218618397
 11
242.0530242159
 21
234.4218618397
  0
LINE
  5
4F8
100
AcDbEntity
  8
0
100
AcDbLine
 62
7
  6
CONTINUOUS
 10
246.2530242159
 20
234.7218618397
 11
246.2530242159
 21
246.7218618397
  0
LINE
  5
4F9
100
AcDbEntity
  8
0
100
AcDbLine
 62
7
  6
CONTINUOUS
 10
253.5530242159
 20
234.1218618397
 11
253.8530242159
 21
234.4218618397
  0
LINE
  5
4FA
100
AcDbEntity
  8
0
100
AcDbLine
 62
7
  6
CONTINUOUS
 10
254.1530242159
 20
234.1218618397
 11
253.5530242159
 21
234.7218618397
  0
LINE
  5
4FB
100
AcDbEntity
  8
0
100
AcDbLine
 62
7
  6
CONTINUOUS
 10
253.5530242159
 20
264.1218618397
 11
253.5530242159
 21
234.7218618397
  0
LINE
  5
4FC
100
AcDbEntity
  8
0
100
AcDbLine
 62
7
  6
CONTINUOUS
 10
253.5530242159
 20
234.1218618397
 11
253.5530242159
 21
199.3218618397
  0
LINE
  5
4FD
100
AcDbEntity
  8
0
100
AcDbLine
 62
7
  6
CONTINUOUS
 10
254.1530242159
 20
264.1218618397
 11
254.1530242159
 21
199.3218618397
  0
LINE
  5
4FE
100
AcDbEntity
  8
0
100
AcDbLine
 62
7
  6
CONTINUOUS
 10
228.9530242159
 20
199.3218618397
 11
228.6530242159
 21
199.0218618397
  0
LINE
  5
4FF
100
AcDbEntity
  8
02___PRT_ALL_AXES
100
AcDbLine
 62
7
  6
CENTER
 10
241.2530242159
 20
246.7218618397
 11
235.1853877845
 21
246.7218618397
  0
LINE
  5
500
100
AcDbEntity
  8
02___PRT_ALL_AXES
100
AcDbLine
 62
7
  6
CENTER
 10
241.2530242159
 20
246.7218618397
 11
248.4298141804
 21
246.7218618397
  0
LINE
  5
501
100
AcDbEntity
  8
0
100
AcDbLine
 62
7
  6
CONTINUOUS
 10
228.9530242159
 20
264.1218618397
 11
228.6530242159
 21
264.4218618397
  0
LINE
  5
502
100
AcDbEntity
  8
02___PRT_ALL_AXES
100
AcDbLine
 62
7
  6
CONTINUOUS
 10
228.3530242159
 20
248.7218618397
 11
225.3530242159
 21
248.7218618397
  0
LINE
  5
503
100
AcDbEntity
  8
0
100
AcDbLine
 62
7
  6
CONTINUOUS
 10
240.1530242159
 20
198.7218618397
 11
240.7530242159
 21
199.3218618397
  0
LINE
  5
504
100
AcDbEntity
  8
0
100
AcDbLine
 62
7
  6
CONTINUOUS
 10
242.3530242159
 20
199.3218618397
 11
242.0530242159
 21
199.0218618397
  0
LINE
  5
505
100
AcDbEntity
  8
0
100
AcDbLine
 62
7
  6
CONTINUOUS
 10
240.7530242159
 20
264.1218618397
 11
240.1530242159
 21
264.7218618397
  0
LINE
  5
506
100
AcDbEntity
  8
0
100
AcDbLine
 62
7
  6
CONTINUOUS
 10
242.3530242159
 20
264.1218618397
 11
242.0530242159
 21
264.4218618397
  0
LINE
  5
507
100
AcDbEntity
  8
0
100
AcDbLine
 62
7
  6
CONTINUOUS
 10
253.5530242159
 20
198.7218618397
 11
254.1530242159
 21
199.3218618397
  0
LINE
  5
508
100
AcDbEntity
  8
0
100
AcDbLine
 62
7
  6
CONTINUOUS
 10
253.5530242159
 20
264.1218618397
 11
242.3530242159
 21
264.1218618397
  0
LINE
  5
509
100
AcDbEntity
  8
0
100
AcDbLine
 62
7
  6
CONTINUOUS
 10
228.9530242159
 20
264.1218618397
 11
240.1530242159
 21
264.1218618397
  0
LINE
  5
50A
100
AcDbEntity
  8
0
100
AcDbLine
 62
7
  6
CONTINUOUS
 10
253.5530242159
 20
264.7218618397
 11
242.3530242159
 21
264.7218618397
  0
LINE
  5
50B
100
AcDbEntity
  8
0
100
AcDbLine
 62
7
  6
CONTINUOUS
 10
228.9530242159
 20
264.7218618397
 11
240.1530242159
 21
264.7218618397
  0
LINE
  5
50C
100
AcDbEntity
  8
0
100
AcDbLine
 62
7
  6
CONTINUOUS
 10
254.1530242159
 20
264.1218618397
 11
253.5530242159
 21
264.7218618397
  0
LINE
  5
50D
100
AcDbEntity
  8
02___PRT_ALL_AXES
100
AcDbLine
 62
7
  6
CONTINUOUS
 10
228.3530242159
 20
278.7218618397
 11
225.3530242159
 21
278.7218618397
  0
LINE
  5
50E
100
AcDbEntity
  8
02___PRT_ALL_AXES
100
AcDbLine
 62
7
  6
CONTINUOUS
 10
224.124630716
 20
128.7338413059
 11
224.124630716
 21
132.7338413059
  0
LINE
  5
50F
100
AcDbEntity
  8
02___PRT_ALL_AXES
100
AcDbLine
 62
7
  6
CONTINUOUS
 10
226.124630716
 20
128.2338413059
 11
226.124630716
 21
133.2338413059
  0
LINE
  5
510
100
AcDbEntity
  8
0
100
AcDbLine
 62
7
  6
CONTINUOUS
 10
229.124630716
 20
135.5338413059
 11
229.124630716
 21
125.9338413059
  0
LINE
  5
511
100
AcDbEntity
  8
0
100
AcDbLine
 62
7
  6
CONTINUOUS
 10
229.324630716
 20
135.7338413059
 11
229.324630716
 21
125.7338413059
  0
LINE
  5
512
100
AcDbEntity
  8
0
100
AcDbLine
 62
7
  6
CONTINUOUS
 10
236.624630716
 20
136.5338413059
 11
236.624630716
 21
124.9338413059
  0
LINE
  5
513
100
AcDbEntity
  8
0
100
AcDbLine
 62
7
  6
CONTINUOUS
 10
236.824630716
 20
136.7338413059
 11
236.824630716
 21
124.7338413059
  0
LINE
  5
514
100
AcDbEntity
  8
0
100
AcDbLine
 62
7
  6
CONTINUOUS
 10
229.1246307159
 20
125.933841306
 11
229.3246307159
 21
125.733841306
  0
LINE
  5
515
100
AcDbEntity
  8
0
100
AcDbLine
 62
7
  6
CONTINUOUS
 10
248.124630716
 20
113.3338413059
 11
248.724630716
 21
112.7338413059
  0
LINE
  5
516
100
AcDbEntity
  8
0
100
AcDbLine
 62
7
  6
CONTINUOUS
 10
236.6246307159
 20
124.933841306
 11
236.8246307159
 21
124.733841306
  0
LINE
  5
517
100
AcDbEntity
  8
0
100
AcDbLine
 62
7
  6
CONTINUOUS
 10
245.924630716
 20
136.7338413059
 11
245.924630716
 21
124.7338413059
  0
LINE
  5
518
100
AcDbEntity
  8
0
100
AcDbLine
 62
7
  6
CONTINUOUS
 10
246.124630716
 20
136.5338413059
 11
246.124630716
 21
124.9338413059
  0
LINE
  5
519
100
AcDbEntity
  8
0
100
AcDbLine
 62
7
  6
CONTINUOUS
 10
248.124630716
 20
148.1338413059
 11
248.124630716
 21
113.3338413059
  0
LINE
  5
51A
100
AcDbEntity
  8
02___PRT_ALL_AXES
100
AcDbLine
 62
7
  6
CONTINUOUS
 10
248.124630716
 20
98.7338413059
 11
248.124630716
 21
113.3338413059
  0
LINE
  5
51B
100
AcDbEntity
  8
02___PRT_ALL_AXES
100
AcDbLine
 62
7
  6
CONTINUOUS
 10
248.124630716
 20
148.1338413059
 11
248.124630716
 21
162.7338413059
  0
LINE
  5
51C
100
AcDbEntity
  8
0
100
AcDbLine
 62
7
  6
CONTINUOUS
 10
248.724630716
 20
148.1338413059
 11
248.724630716
 21
113.3338413059
  0
LINE
  5
51D
100
AcDbEntity
  8
0
100
AcDbLine
 62
7
  6
CONTINUOUS
 10
229.1246307158
 20
135.5338413058
 11
229.3246307158
 21
135.7338413057
  0
LINE
  5
51E
100
AcDbEntity
  8
02___PRT_ALL_AXES
100
AcDbLine
 62
7
  6
CONTINUOUS
 10
278.124630716
 20
98.7338413059
 11
248.124630716
 21
98.7338413059
  0
LINE
  5
51F
100
AcDbEntity
  8
0
100
AcDbLine
 62
7
  6
CONTINUOUS
 10
246.1246307161
 20
136.5338413058
 11
245.9246307161
 21
136.7338413058
  0
LINE
  5
520
100
AcDbEntity
  8
02___PRT_ALL_AXES
100
AcDbLine
 62
7
  6
CENTER
 10
263.124630716
 20
155.7338413059
 11
263.124630716
 21
148.2338413059
  0
LINE
  5
521
100
AcDbEntity
  8
02___PRT_ALL_AXES
100
AcDbLine
 62
7
  6
CENTER
 10
263.124630716
 20
140.7838413059
 11
263.124630716
 21
136.7838163059
  0
LINE
  5
522
100
AcDbEntity
  8
02___PRT_ALL_AXES
100
AcDbLine
 62
7
  6
CENTER
 10
263.124630716
 20
120.6838413059
 11
263.124630716
 21
116.6838163059
  0
LINE
  5
523
100
AcDbEntity
  8
02___PRT_ALL_AXES
100
AcDbLine
 62
7
  6
CENTER
 10
263.124630716
 20
105.7338413059
 11
263.124630716
 21
98.2338413059
  0
LINE
  5
524
100
AcDbEntity
  8
02___PRT_ALL_AXES
100
AcDbLine
 62
7
  6
CENTER
 10
263.124630716
 20
105.7338413059
 11
263.124630716
 21
113.2338413059
  0
LINE
  5
525
100
AcDbEntity
  8
02___PRT_ALL_AXES
100
AcDbLine
 62
7
  6
CENTER
 10
263.124630716
 20
120.6838413059
 11
263.124630716
 21
124.6838663059
  0
LINE
  5
526
100
AcDbEntity
  8
02___PRT_ALL_AXES
100
AcDbLine
 62
7
  6
CENTER
 10
263.124630716
 20
140.7838413059
 11
263.124630716
 21
144.7838663059
  0
LINE
  5
527
100
AcDbEntity
  8
02___PRT_ALL_AXES
100
AcDbLine
 62
7
  6
CENTER
 10
263.124630716
 20
155.7338413059
 11
263.124630716
 21
163.2338413059
  0
LINE
  5
528
100
AcDbEntity
  8
0
100
AcDbLine
 62
7
  6
CONTINUOUS
 10
248.124630716
 20
148.1338413059
 11
248.724630716
 21
148.7338413059
  0
LINE
  5
529
100
AcDbEntity
  8
0
100
AcDbLine
 62
7
  6
CONTINUOUS
 10
236.6246307159
 20
136.5338413058
 11
236.8246307159
 21
136.7338413058
  0
LINE
  5
52A
100
AcDbEntity
  8
02___PRT_ALL_AXES
100
AcDbLine
 62
7
  6
CENTER
 10
263.124630716
 20
105.7338413059
 11
255.624630716
 21
105.7338413059
  0
LINE
  5
52B
100
AcDbEntity
  8
02___PRT_ALL_AXES
100
AcDbLine
 62
7
  6
CENTER
 10
263.124630716
 20
105.7338413059
 11
270.624630716
 21
105.7338413059
  0
LINE
  5
52C
100
AcDbEntity
  8
0
100
AcDbLine
 62
7
  6
CONTINUOUS
 10
277.524630716
 20
113.3338413059
 11
277.824630716
 21
113.0338413059
  0
LINE
  5
52D
100
AcDbEntity
  8
0
100
AcDbLine
 62
7
  6
CONTINUOUS
 10
248.724630716
 20
148.1338413059
 11
248.424630716
 21
148.4338413059
  0
LINE
  5
52E
100
AcDbEntity
  8
02___PRT_ALL_AXES
100
AcDbLine
 62
7
  6
CONTINUOUS
 10
274.3774079271
 20
165.4338413059
 11
274.3774079271
 21
156.0338413059
  0
LINE
  5
52F
100
AcDbEntity
  8
0
100
AcDbLine
 62
7
  6
CONTINUOUS
 10
248.724630716
 20
112.7338413059
 11
277.524630716
 21
112.7338413059
  0
LINE
  5
530
100
AcDbEntity
  8
0
100
AcDbLine
 62
7
  6
CONTINUOUS
 10
248.724630716
 20
113.3338413059
 11
277.524630716
 21
113.3338413059
  0
LINE
  5
531
100
AcDbEntity
  8
02___PRT_ALL_AXES
100
AcDbLine
 62
7
  6
CONTINUOUS
 10
224.124630716
 20
128.7338413059
 11
226.124630716
 21
128.2338413059
  0
LINE
  5
532
100
AcDbEntity
  8
0
100
AcDbLine
 62
7
  6
CONTINUOUS
 10
277.524630716
 20
113.3338413059
 11
277.524630716
 21
148.1338413059
  0
LINE
  5
533
100
AcDbEntity
  8
02___PRT_ALL_AXES
100
AcDbLine
 62
7
  6
CONTINUOUS
 10
278.124630716
 20
156.0338413059
 11
278.124630716
 21
148.1338413059
  0
LINE
  5
534
100
AcDbEntity
  8
02___PRT_ALL_AXES
100
AcDbLine
 62
7
  6
CONTINUOUS
 10
278.124630716
 20
113.3338413059
 11
278.124630716
 21
98.7338413059
  0
LINE
  5
535
100
AcDbEntity
  8
0
100
AcDbLine
 62
7
  6
CONTINUOUS
 10
278.124630716
 20
113.3338413059
 11
278.124630716
 21
148.1338413059
  0
LINE
  5
536
100
AcDbEntity
  8
0
100
AcDbLine
 62
7
  6
CONTINUOUS
 10
246.1246307161
 20
124.933841306
 11
245.9246307161
 21
124.733841306
  0
LINE
  5
537
100
AcDbEntity
  8
02___PRT_ALL_AXES
100
AcDbLine
 62
7
  6
CENTER
 10
263.124630716
 20
120.6838413059
 11
259.124605716
 21
120.6838413059
  0
LINE
  5
538
100
AcDbEntity
  8
02___PRT_ALL_AXES
100
AcDbLine
 62
7
  6
CENTER
 10
263.124630716
 20
120.6838413059
 11
267.124655716
 21
120.6838413059
  0
LINE
  5
539
100
AcDbEntity
  8
02___PRT_ALL_AXES
100
AcDbLine
 62
7
  6
CONTINUOUS
 10
281.3774079271
 20
165.4338413059
 11
281.3774079271
 21
156.0338413059
  0
LINE
  5
53A
100
AcDbEntity
  8
0
100
AcDbLine
 62
7
  6
CONTINUOUS
 10
282.124630716
 20
135.7338413059
 11
282.124630716
 21
125.7338413059
  0
LINE
  5
53B
100
AcDbEntity
  8
0
100
AcDbLine
 62
7
  6
CONTINUOUS
 10
277.524630716
 20
148.1338413059
 11
277.824630716
 21
148.4338413059
  0
LINE
  5
53C
100
AcDbEntity
  8
02___PRT_ALL_AXES
100
AcDbLine
 62
7
  6
CONTINUOUS
 10
236.824630716
 20
124.7338413059
 11
245.924630716
 21
124.7338413059
  0
LINE
  5
53D
100
AcDbEntity
  8
0
100
AcDbLine
 62
7
  6
CONTINUOUS
 10
236.824630716
 20
124.7338413059
 11
245.924630716
 21
124.7338413059
  0
LINE
  5
53E
100
AcDbEntity
  8
02___PRT_ALL_AXES
100
AcDbLine
 62
7
  6
CONTINUOUS
 10
229.324630716
 20
125.7338413059
 11
236.624630716
 21
125.7338413059
  0
LINE
  5
53F
100
AcDbEntity
  8
0
100
AcDbLine
 62
7
  6
CONTINUOUS
 10
229.324630716
 20
125.7338413059
 11
236.624630716
 21
125.7338413059
  0
LINE
  5
540
100
AcDbEntity
  8
0
100
AcDbLine
 62
7
  6
CONTINUOUS
 10
246.124630716
 20
125.7338413059
 11
248.124630716
 21
125.7338413059
  0
LINE
  5
541
100
AcDbEntity
  8
0
100
AcDbLine
 62
7
  6
CONTINUOUS
 10
278.124630716
 20
125.7338413059
 11
282.124630716
 21
125.7338413059
  0
LINE
  5
542
100
AcDbEntity
  8
0
100
AcDbLine
 62
7
  6
CONTINUOUS
 10
248.424630716
 20
113.0338413059
 11
248.724630716
 21
113.3338413059
  0
LINE
  5
543
100
AcDbEntity
  8
02___PRT_ALL_AXES
100
AcDbLine
 62
7
  6
CONTINUOUS
 10
226.124630716
 20
128.4338413059
 11
229.124630716
 21
128.4338413059
  0
LINE
  5
544
100
AcDbEntity
  8
02___PRT_ALL_AXES
100
AcDbLine
 62
7
  6
CONTINUOUS
 10
362.6931732109
 20
128.7338413059
 11
332.6931732109
 21
128.7338413059
  0
LINE
  5
545
100
AcDbEntity
  8
02___PRT_ALL_AXES
100
AcDbLine
 62
7
  6
CENTER
 10
287.124630716
 20
130.7338413059
 11
234.124630716
 21
130.7338413059
  0
LINE
  5
546
100
AcDbEntity
  8
02___PRT_ALL_AXES
100
AcDbLine
 62
7
  6
CONTINUOUS
 10
226.124630716
 20
133.0338413059
 11
229.124630716
 21
133.0338413059
  0
LINE
  5
547
100
AcDbEntity
  8
0
100
AcDbLine
 62
7
  6
CONTINUOUS
 10
277.524630716
 20
148.7338413059
 11
278.124630716
 21
148.1338413059
  0
LINE
  5
548
100
AcDbEntity
  8
0
100
AcDbLine
 62
7
  6
CONTINUOUS
 10
292.7312324338
 20
140.1272395881
 11
299.8023002456
 21
133.0561717762
  0
LINE
  5
549
100
AcDbEntity
  8
0
100
AcDbLine
 62
7
  6
CONTINUOUS
 10
308.9432249266
 20
156.3392320809
 11
322.8818002355
 21
165.0490206007
  0
LINE
  5
54A
100
AcDbEntity
  8
02___PRT_ALL_AXES
100
AcDbLine
 62
7
  6
CONTINUOUS
 10
386.6931732109
 20
157.7338413059
 11
384.6931732109
 21
157.2338413059
  0
LINE
  5
54B
100
AcDbEntity
  8
02___PRT_ALL_AXES
100
AcDbLine
 62
7
  6
CENTER
 10
347.6931732109
 20
135.7338413059
 11
340.1931732109
 21
135.7338413059
  0
LINE
  5
54C
100
AcDbEntity
  8
02___PRT_ALL_AXES
100
AcDbLine
 62
7
  6
CONTINUOUS
 10
229.324630716
 20
135.7338413059
 11
236.624630716
 21
135.7338413059
  0
LINE
  5
54D
100
AcDbEntity
  8
0
100
AcDbLine
 62
7
  6
CONTINUOUS
 10
229.324630716
 20
135.7338413059
 11
236.624630716
 21
135.7338413059
  0
LINE
  5
54E
100
AcDbEntity
  8
0
100
AcDbLine
 62
7
  6
CONTINUOUS
 10
246.124630716
 20
135.7338413059
 11
248.124630716
 21
135.7338413059
  0
LINE
  5
54F
100
AcDbEntity
  8
0
100
AcDbLine
 62
7
  6
CONTINUOUS
 10
278.124630716
 20
135.7338413059
 11
282.124630716
 21
135.7338413059
  0
LINE
  5
550
100
AcDbEntity
  8
02___PRT_ALL_AXES
100
AcDbLine
 62
7
  6
CENTER
 10
347.6931732109
 20
135.7338413059
 11
355.1931732109
 21
135.7338413059
  0
LINE
  5
551
100
AcDbEntity
  8
02___PRT_ALL_AXES
100
AcDbLine
 62
7
  6
CONTINUOUS
 10
236.824630716
 20
136.7338413059
 11
245.924630716
 21
136.7338413059
  0
LINE
  5
552
100
AcDbEntity
  8
0
100
AcDbLine
 62
7
  6
CONTINUOUS
 10
236.824630716
 20
136.7338413059
 11
245.924630716
 21
136.7338413059
  0
LINE
  5
553
100
AcDbEntity
  8
0
100
AcDbLine
 62
7
  6
CONTINUOUS
 10
292.7312324338
 20
140.1272395881
 11
308.9432249266
 21
156.3392320809
  0
LINE
  5
554
100
AcDbEntity
  8
0
100
AcDbLine
 62
7
  6
CONTINUOUS
 10
332.6931732109
 20
178.1338413059
 11
333.2931732109
 21
178.7338413059
  0
LINE
  5
555
100
AcDbEntity
  8
02___PRT_ALL_AXES
100
AcDbLine
 62
7
  6
CENTER
 10
263.124630716
 20
140.7838413059
 11
259.124605716
 21
140.7838413059
  0
LINE
  5
556
100
AcDbEntity
  8
02___PRT_ALL_AXES
100
AcDbLine
 62
7
  6
CENTER
 10
263.124630716
 20
140.7838413059
 11
267.124655716
 21
140.7838413059
  0
LINE
  5
557
100
AcDbEntity
  8
0
100
AcDbLine
 62
7
  6
CONTINUOUS
 10
333.2931732109
 20
142.7338413059
 11
362.0931732109
 21
142.7338413059
  0
LINE
  5
558
100
AcDbEntity
  8
0
100
AcDbLine
 62
7
  6
CONTINUOUS
 10
333.2931732109
 20
143.3338413059
 11
362.0931732109
 21
143.3338413059
  0
LINE
  5
559
100
AcDbEntity
  8
0
100
AcDbLine
 62
7
  6
CONTINUOUS
 10
278.124630716
 20
113.3338413059
 11
277.524630716
 21
112.7338413059
  0
LINE
  5
55A
100
AcDbEntity
  8
0
100
AcDbLine
 62
7
  6
CONTINUOUS
 10
299.8023002456
 20
133.0561717762
 11
318.0865714931
 21
151.3404430237
  0
LINE
  5
55B
100
AcDbEntity
  8
0
100
AcDbLine
 62
7
  6
CONTINUOUS
 10
277.524630716
 20
148.1338413059
 11
248.724630716
 21
148.1338413059
  0
LINE
  5
55C
100
AcDbEntity
  8
0
100
AcDbLine
 62
7
  6
CONTINUOUS
 10
277.524630716
 20
148.7338413059
 11
248.724630716
 21
148.7338413059
  0
LINE
  5
55D
100
AcDbEntity
  8
02___PRT_ALL_AXES
100
AcDbLine
 62
7
  6
CENTER
 10
347.6931732109
 20
150.6838413059
 11
343.6931482109
 21
150.6838413059
  0
LINE
  5
55E
100
AcDbEntity
  8
02___PRT_ALL_AXES
100
AcDbLine
 62
7
  6
CENTER
 10
347.6931732109
 20
150.6838413059
 11
351.6931982109
 21
150.6838413059
  0
LINE
  5
55F
100
AcDbEntity
  8
02___PRT_ALL_AXES
100
AcDbLine
 62
7
  6
CONTINUOUS
 10
224.124630716
 20
132.7338413059
 11
226.124630716
 21
133.2338413059
  0
LINE
  5
560
100
AcDbEntity
  8
02___PRT_ALL_AXES
100
AcDbLine
 62
7
  6
CONTINUOUS
 10
374.9931732109
 20
153.8838413059
 11
364.8931732109
 21
153.8838413059
  0
LINE
  5
561
100
AcDbEntity
  8
0
100
AcDbLine
 62
7
  6
CONTINUOUS
 10
374.9931732109
 20
153.8838413059
 11
364.8931732109
 21
153.8838413059
  0
LINE
  5
562
100
AcDbEntity
  8
02___PRT_ALL_AXES
100
AcDbLine
 62
7
  6
CONTINUOUS
 10
381.4931732109
 20
154.7338413059
 11
375.1931732109
 21
154.7338413059
  0
LINE
  5
563
100
AcDbEntity
  8
0
100
AcDbLine
 62
7
  6
CONTINUOUS
 10
381.4931732109
 20
154.7338413059
 11
375.1931732109
 21
154.7338413059
  0
LINE
  5
564
100
AcDbEntity
  8
02___PRT_ALL_AXES
100
AcDbLine
 62
7
  6
CENTER
 10
263.124630716
 20
155.7338413059
 11
255.624630716
 21
155.7338413059
  0
LINE
  5
565
100
AcDbEntity
  8
02___PRT_ALL_AXES
100
AcDbLine
 62
7
  6
CENTER
 10
263.124630716
 20
155.7338413059
 11
270.624630716
 21
155.7338413059
  0
LINE
  5
566
100
AcDbEntity
  8
0
100
AcDbLine
 62
7
  6
CONTINUOUS
 10
328.6931732109
 20
155.7338413059
 11
332.6931732109
 21
155.7338413059
  0
LINE
  5
567
100
AcDbEntity
  8
0
100
AcDbLine
 62
7
  6
CONTINUOUS
 10
362.6931732109
 20
155.7338413059
 11
364.6931732109
 21
155.7338413059
  0
LINE
  5
568
100
AcDbEntity
  8
02___PRT_ALL_AXES
100
AcDbLine
 62
7
  6
CONTINUOUS
 10
281.3774079271
 20
156.0338413059
 11
274.3774079271
 21
156.0338413059
  0
LINE
  5
569
100
AcDbEntity
  8
02___PRT_ALL_AXES
100
AcDbLine
 62
7
  6
CONTINUOUS
 10
309.5747316948
 20
156.7338413059
 11
281.3774079271
 21
156.7338413059
  0
LINE
  5
56A
100
AcDbEntity
  8
0
100
AcDbLine
 62
7
  6
CONTINUOUS
 10
309.5747316948
 20
156.7338413059
 11
281.3774079271
 21
156.7338413059
  0
LINE
  5
56B
100
AcDbEntity
  8
02___PRT_ALL_AXES
100
AcDbLine
 62
7
  6
CONTINUOUS
 10
384.6931732109
 20
157.4838413059
 11
381.6931732109
 21
157.4838413059
  0
LINE
  5
56C
100
AcDbEntity
  8
0
100
AcDbLine
 62
7
  6
CONTINUOUS
 10
311.4939269288
 20
157.933087588
 11
318.0865714931
 21
151.3404430237
  0
LINE
  5
56D
100
AcDbEntity
  8
0
100
AcDbLine
 62
7
  6
CONTINUOUS
 10
362.0931732109
 20
178.1338413059
 11
362.3931732109
 21
178.4338413059
  0
LINE
  5
56E
100
AcDbEntity
  8
02___PRT_ALL_AXES
100
AcDbLine
 62
7
  6
CENTER
 10
376.6931732109
 20
160.7338413059
 11
272.5728302326
 21
160.7338413059
  0
LINE
  5
56F
100
AcDbEntity
  8
02___PRT_ALL_AXES
100
AcDbLine
 62
7
  6
CONTINUOUS
 10
248.124630716
 20
162.7338413059
 11
274.3774079271
 21
162.7338413059
  0
LINE
  5
570
100
AcDbEntity
  8
02___PRT_ALL_AXES
100
AcDbLine
 62
7
  6
CONTINUOUS
 10
384.6931732109
 20
163.9838413059
 11
381.6931732109
 21
163.9838413059
  0
LINE
  5
571
100
AcDbEntity
  8
02___PRT_ALL_AXES
100
AcDbLine
 62
7
  6
CONTINUOUS
 10
322.3774079271
 20
164.7338413059
 11
281.3774079271
 21
164.7338413059
  0
LINE
  5
572
100
AcDbEntity
  8
0
100
AcDbLine
 62
7
  6
CONTINUOUS
 10
322.3774079271
 20
164.7338413059
 11
281.3774079271
 21
164.7338413059
  0
LINE
  5
573
100
AcDbEntity
  8
0
100
AcDbLine
 62
7
  6
CONTINUOUS
 10
332.6931732109
 20
143.3338413059
 11
333.2931732109
 21
142.7338413059
  0
LINE
  5
574
100
AcDbEntity
  8
0
100
AcDbLine
 62
7
  6
CONTINUOUS
 10
328.6931732109
 20
165.7338413059
 11
328.6931732109
 21
155.7338413059
  0
LINE
  5
575
100
AcDbEntity
  8
0
100
AcDbLine
 62
7
  6
CONTINUOUS
 10
332.9931732109
 20
143.0338413059
 11
333.2931732109
 21
143.3338413059
  0
LINE
  5
576
100
AcDbEntity
  8
02___PRT_ALL_AXES
100
AcDbLine
 62
7
  6
CONTINUOUS
 10
281.3774079271
 20
165.4338413059
 11
274.3774079271
 21
165.4338413059
  0
LINE
  5
577
100
AcDbEntity
  8
0
100
AcDbLine
 62
7
  6
CONTINUOUS
 10
328.6931732109
 20
165.7338413059
 11
332.6931732109
 21
165.7338413059
  0
LINE
  5
578
100
AcDbEntity
  8
0
100
AcDbLine
 62
7
  6
CONTINUOUS
 10
362.6931732109
 20
165.7338413059
 11
364.6931732109
 21
165.7338413059
  0
LINE
  5
579
100
AcDbEntity
  8
02___PRT_ALL_AXES
100
AcDbLine
 62
7
  6
CONTINUOUS
 10
381.4931732109
 20
166.7338413059
 11
375.1931732109
 21
166.7338413059
  0
LINE
  5
57A
100
AcDbEntity
  8
0
100
AcDbLine
 62
7
  6
CONTINUOUS
 10
381.4931732109
 20
166.7338413059
 11
375.1931732109
 21
166.7338413059
  0
LINE
  5
57B
100
AcDbEntity
  8
02___PRT_ALL_AXES
100
AcDbLine
 62
7
  6
CONTINUOUS
 10
374.9931732109
 20
167.5838413059
 11
364.8931732109
 21
167.5838413059
  0
LINE
  5
57C
100
AcDbEntity
  8
0
100
AcDbLine
 62
7
  6
CONTINUOUS
 10
374.9931732109
 20
167.5838413059
 11
364.8931732109
 21
167.5838413059
  0
LINE
  5
57D
100
AcDbEntity
  8
02___PRT_ALL_AXES
100
AcDbLine
 62
7
  6
CENTER
 10
347.6931732109
 20
170.7838413059
 11
343.6931482109
 21
170.7838413059
  0
LINE
  5
57E
100
AcDbEntity
  8
02___PRT_ALL_AXES
100
AcDbLine
 62
7
  6
CENTER
 10
347.6931732109
 20
170.7838413059
 11
351.6931982109
 21
170.7838413059
  0
LINE
  5
57F
100
AcDbEntity
  8
0
100
AcDbLine
 62
7
  6
CONTINUOUS
 10
332.6931732109
 20
178.1338413059
 11
332.6931732109
 21
143.3338413059
  0
LINE
  5
580
100
AcDbEntity
  8
02___PRT_ALL_AXES
100
AcDbLine
 62
7
  6
CONTINUOUS
 10
332.6931732109
 20
128.7338413059
 11
332.6931732109
 21
143.3338413059
  0
LINE
  5
581
100
AcDbEntity
  8
02___PRT_ALL_AXES
100
AcDbLine
 62
7
  6
CONTINUOUS
 10
332.6931732109
 20
178.1338413059
 11
332.6931732109
 21
192.7338413059
  0
LINE
  5
582
100
AcDbEntity
  8
0
100
AcDbLine
 62
7
  6
CONTINUOUS
 10
333.2931732109
 20
178.1338413059
 11
333.2931732109
 21
143.3338413059
  0
LINE
  5
583
100
AcDbEntity
  8
0
100
AcDbLine
 62
7
  6
CONTINUOUS
 10
364.6931732108
 20
167.3838413057
 11
364.8931732108
 21
167.5838413057
  0
LINE
  5
584
100
AcDbEntity
  8
0
100
AcDbLine
 62
7
  6
CONTINUOUS
 10
362.0931732109
 20
178.1338413059
 11
333.2931732109
 21
178.1338413059
  0
LINE
  5
585
100
AcDbEntity
  8
0
100
AcDbLine
 62
7
  6
CONTINUOUS
 10
362.0931732109
 20
178.7338413059
 11
333.2931732109
 21
178.7338413059
  0
LINE
  5
586
100
AcDbEntity
  8
02___PRT_ALL_AXES
100
AcDbLine
 62
7
  6
CONTINUOUS
 10
386.6931732109
 20
163.7338413059
 11
384.6931732109
 21
164.2338413059
  0
LINE
  5
587
100
AcDbEntity
  8
0
100
AcDbLine
 62
7
  6
CONTINUOUS
 10
362.0931732109
 20
143.3338413059
 11
362.3931732109
 21
143.0338413059
  0
LINE
  5
588
100
AcDbEntity
  8
02___PRT_ALL_AXES
100
AcDbLine
 62
7
  6
CENTER
 10
347.6931732109
 20
185.7338413059
 11
347.6931732109
 21
178.2338413059
  0
LINE
  5
589
100
AcDbEntity
  8
02___PRT_ALL_AXES
100
AcDbLine
 62
7
  6
CENTER
 10
347.6931732109
 20
170.7838413059
 11
347.6931732109
 21
166.7838163059
  0
LINE
  5
58A
100
AcDbEntity
  8
02___PRT_ALL_AXES
100
AcDbLine
 62
7
  6
CENTER
 10
347.6931732109
 20
150.6838413059
 11
347.6931732109
 21
146.6838163059
  0
LINE
  5
58B
100
AcDbEntity
  8
02___PRT_ALL_AXES
100
AcDbLine
 62
7
  6
CENTER
 10
347.6931732109
 20
135.7338413059
 11
347.6931732109
 21
128.2338413059
  0
LINE
  5
58C
100
AcDbEntity
  8
02___PRT_ALL_AXES
100
AcDbLine
 62
7
  6
CENTER
 10
347.6931732109
 20
135.7338413059
 11
347.6931732109
 21
143.2338413059
  0
LINE
  5
58D
100
AcDbEntity
  8
02___PRT_ALL_AXES
100
AcDbLine
 62
7
  6
CENTER
 10
347.6931732109
 20
150.6838413059
 11
347.6931732109
 21
154.6838663059
  0
LINE
  5
58E
100
AcDbEntity
  8
02___PRT_ALL_AXES
100
AcDbLine
 62
7
  6
CENTER
 10
347.6931732109
 20
170.7838413059
 11
347.6931732109
 21
174.7838663059
  0
LINE
  5
58F
100
AcDbEntity
  8
02___PRT_ALL_AXES
100
AcDbLine
 62
7
  6
CENTER
 10
347.6931732109
 20
185.7338413059
 11
347.6931732109
 21
193.2338413059
  0
LINE
  5
590
100
AcDbEntity
  8
0
100
AcDbLine
 62
7
  6
CONTINUOUS
 10
362.6931732109
 20
143.3338413059
 11
362.0931732109
 21
142.7338413059
  0
LINE
  5
591
100
AcDbEntity
  8
0
100
AcDbLine
 62
7
  6
CONTINUOUS
 10
375.193173211
 20
154.083841306
 11
374.993173211
 21
153.883841306
  0
LINE
  5
592
100
AcDbEntity
  8
02___PRT_ALL_AXES
100
AcDbLine
 62
7
  6
CENTER
 10
347.6931732109
 20
185.7338413059
 11
340.1931732109
 21
185.7338413059
  0
LINE
  5
593
100
AcDbEntity
  8
02___PRT_ALL_AXES
100
AcDbLine
 62
7
  6
CENTER
 10
347.6931732109
 20
185.7338413059
 11
355.1931732109
 21
185.7338413059
  0
LINE
  5
594
100
AcDbEntity
  8
0
100
AcDbLine
 62
7
  6
CONTINUOUS
 10
333.2931732109
 20
178.1338413059
 11
332.9931732109
 21
178.4338413059
  0
LINE
  5
595
100
AcDbEntity
  8
0
100
AcDbLine
 62
7
  6
CONTINUOUS
 10
381.693173211
 20
154.933841306
 11
381.493173211
 21
154.733841306
  0
LINE
  5
596
100
AcDbEntity
  8
02___PRT_ALL_AXES
100
AcDbLine
 62
7
  6
CONTINUOUS
 10
332.6931732109
 20
192.7338413059
 11
362.6931732109
 21
192.7338413059
  0
LINE
  5
597
100
AcDbEntity
  8
0
100
AcDbLine
 62
7
  6
CONTINUOUS
 10
364.6931732108
 20
154.083841306
 11
364.8931732108
 21
153.883841306
  0
LINE
  5
598
100
AcDbEntity
  8
0
100
AcDbLine
 62
7
  6
CONTINUOUS
 10
362.0931732109
 20
143.3338413059
 11
362.0931732109
 21
178.1338413059
  0
LINE
  5
599
100
AcDbEntity
  8
02___PRT_ALL_AXES
100
AcDbLine
 62
7
  6
CONTINUOUS
 10
362.6931732109
 20
192.7338413059
 11
362.6931732109
 21
178.1338413059
  0
LINE
  5
59A
100
AcDbEntity
  8
02___PRT_ALL_AXES
100
AcDbLine
 62
7
  6
CONTINUOUS
 10
362.6931732109
 20
143.3338413059
 11
362.6931732109
 21
128.7338413059
  0
LINE
  5
59B
100
AcDbEntity
  8
0
100
AcDbLine
 62
7
  6
CONTINUOUS
 10
362.6931732109
 20
143.3338413059
 11
362.6931732109
 21
178.1338413059
  0
LINE
  5
59C
100
AcDbEntity
  8
0
100
AcDbLine
 62
7
  6
CONTINUOUS
 10
364.6931732109
 20
154.0838413059
 11
364.6931732109
 21
167.3838413059
  0
LINE
  5
59D
100
AcDbEntity
  8
0
100
AcDbLine
 62
7
  6
CONTINUOUS
 10
364.8931732109
 20
153.8838413059
 11
364.8931732109
 21
167.5838413059
  0
LINE
  5
59E
100
AcDbEntity
  8
0
100
AcDbLine
 62
7
  6
CONTINUOUS
 10
362.0931732109
 20
178.7338413059
 11
362.6931732109
 21
178.1338413059
  0
LINE
  5
59F
100
AcDbEntity
  8
0
100
AcDbLine
 62
7
  6
CONTINUOUS
 10
374.9931732109
 20
153.8838413059
 11
374.9931732109
 21
167.5838413059
  0
LINE
  5
5A0
100
AcDbEntity
  8
0
100
AcDbLine
 62
7
  6
CONTINUOUS
 10
375.193173211
 20
167.3838413058
 11
374.993173211
 21
167.5838413058
  0
LINE
  5
5A1
100
AcDbEntity
  8
0
100
AcDbLine
 62
7
  6
CONTINUOUS
 10
381.693173211
 20
166.5338413058
 11
381.493173211
 21
166.7338413058
  0
LINE
  5
5A2
100
AcDbEntity
  8
0
100
AcDbLine
 62
7
  6
CONTINUOUS
 10
375.1931732109
 20
154.0838413059
 11
375.1931732109
 21
167.3838413059
  0
LINE
  5
5A3
100
AcDbEntity
  8
0
100
AcDbLine
 62
7
  6
CONTINUOUS
 10
381.4931732109
 20
154.7338413059
 11
381.4931732109
 21
166.7338413059
  0
LINE
  5
5A4
100
AcDbEntity
  8
0
100
AcDbLine
 62
7
  6
CONTINUOUS
 10
381.6931732109
 20
154.9338413059
 11
381.6931732109
 21
166.5338413059
  0
LINE
  5
5A5
100
AcDbEntity
  8
02___PRT_ALL_AXES
100
AcDbLine
 62
7
  6
CONTINUOUS
 10
384.6931732109
 20
164.2338413059
 11
384.6931732109
 21
157.2338413059
  0
LINE
  5
5A6
100
AcDbEntity
  8
02___PRT_ALL_AXES
100
AcDbLine
 62
7
  6
CONTINUOUS
 10
386.6931732109
 20
163.7338413059
 11
386.6931732109
 21
157.7338413059
  0
ARC
  5
5A7
100
AcDbEntity
  8
0
100
AcDbCircle
 62
7
  6
CONTINUOUS
 10
282.7692257765
 20
44.0322907215
 40
11.5774562138
100
AcDbArc
 50
63.3814260116
 51
65.8046876385
  0
ARC
  5
5A8
100
AcDbEntity
  8
0
100
AcDbCircle
 62
7
  6
CONTINUOUS
 10
254.4105583056
 20
17.4694862674
 40
11.5774562137
100
AcDbArc
 50
63.3814260116
 51
65.8046876385
  0
ARC
  5
5A9
100
AcDbEntity
  8
0
100
AcDbCircle
 62
7
  6
CONTINUOUS
 10
264.1125842586
 20
41.3946055445
 40
11.1706460785
100
AcDbArc
 50
332.2356229855
 51
333.1877581533
  0
ARC
  5
5AA
100
AcDbEntity
  8
0
100
AcDbCircle
 62
7
  6
CONTINUOUS
 10
282.7480798755
 20
53.4912124925
 40
5.6215365796
100
AcDbArc
 50
8.1346714464
 51
9.1129102953
  0
ARC
  5
5AB
100
AcDbEntity
  8
0
100
AcDbCircle
 62
7
  6
CONTINUOUS
 10
254.3894124062
 20
26.9284080385
 40
5.6215365779
100
AcDbArc
 50
8.1346714463
 51
9.1129102955
  0
ARC
  5
5AC
100
AcDbEntity
  8
0
100
AcDbCircle
 62
7
  6
CONTINUOUS
 10
285.8467575349
 20
48.3587224596
 40
4.4927717817
100
AcDbArc
 50
122.8722408506
 51
125.02194009
  0
ARC
  5
5AD
100
AcDbEntity
  8
0
100
AcDbCircle
 62
7
  6
CONTINUOUS
 10
300.9587228963
 20
57.6461915175
 40
4.159045825
100
AcDbArc
 50
43.2837262271
 51
44.0324272176
  0
ARC
  5
5AE
100
AcDbEntity
  8
0
100
AcDbCircle
 62
7
  6
CONTINUOUS
 10
301.1510161557
 20
57.1943934617
 40
4.1587400481
100
AcDbArc
 50
2.0261429789
 51
2.7587907514
  0
ARC
  5
5AF
100
AcDbEntity
  8
0
100
AcDbCircle
 62
7
  6
CONTINUOUS
 10
285.6172650431
 20
48.7115388237
 40
4.0718864436
100
AcDbArc
 50
121.9980833866
 51
122.8546585653
  0
ARC
  5
5B0
100
AcDbEntity
  8
0
100
AcDbCircle
 62
7
  6
CONTINUOUS
 10
257.1312294172
 20
24.1307024447
 40
4.0066594491
100
AcDbArc
 50
7.3133729349
 51
8.0171412724
  0
ARC
  5
5B1
100
AcDbEntity
  8
0
100
AcDbCircle
 62
7
  6
CONTINUOUS
 10
257.2717795482
 20
24.1478571392
 40
3.8650691007
100
AcDbArc
 50
2.9104004746
 51
7.3263639287
  0
ARC
  5
5B2
100
AcDbEntity
  8
0
100
AcDbCircle
 62
7
  6
CONTINUOUS
 10
257.2882936666
 20
24.5228224958
 40
3.6937798408
100
AcDbArc
 50
42.6296570552
 51
43.1797561795
  0
ARC
  5
5B3
100
AcDbEntity
  8
0
100
AcDbCircle
 62
7
  6
CONTINUOUS
 10
303.4540816664
 20
58.6709600617
 40
3.6503076564
100
AcDbArc
 50
43.1833173019
 51
44.0317051235
  0
ARC
  5
5B4
100
AcDbEntity
  8
0
100
AcDbCircle
 62
7
  6
CONTINUOUS
 10
303.6204053136
 20
58.2801383798
 40
3.6501146156
100
AcDbArc
 50
2.0245714566
 51
2.873735012
  0
ARC
  5
5B5
100
AcDbEntity
  8
0
100
AcDbCircle
 62
7
  6
CONTINUOUS
 10
257.4896343891
 20
24.1617567425
 40
3.6467906072
100
AcDbArc
 50
2.0264369168
 51
2.8660904985
  0
ARC
  5
5B6
100
AcDbEntity
  8
0
100
AcDbCircle
 62
7
  6
CONTINUOUS
 10
257.3227263179
 20
24.5551929305
 40
3.6465204433
100
AcDbArc
 50
43.1790812155
 51
44.032167097
  0
ARC
  5
5B7
100
AcDbEntity
  8
0
100
AcDbCircle
 62
7
  6
CONTINUOUS
 10
254.4493027652
 20
22.9101205373
 40
2.9022769861
100
AcDbArc
 50
223.8199986804
 51
224.0313755451
  0
ARC
  5
5B8
100
AcDbEntity
  8
0
100
AcDbCircle
 62
7
  6
CONTINUOUS
 10
254.311356446
 20
23.2345421348
 40
2.9022338947
100
AcDbArc
 50
182.0251774002
 51
182.2366591958
  0
ARC
  5
5B9
100
AcDbEntity
  8
0
100
AcDbCircle
 62
7
  6
CONTINUOUS
 10
287.2224040288
 20
51.287380266
 40
2.890037333
100
AcDbArc
 50
358.8125494877
 51
1.037444227
  0
ARC
  5
5BA
100
AcDbEntity
  8
0
100
AcDbCircle
 62
7
  6
CONTINUOUS
 10
258.863736558
 20
24.7245758118
 40
2.8900373329
100
AcDbArc
 50
358.8125494877
 51
1.0374442271
  0
ARC
  5
5BB
100
AcDbEntity
  8
0
100
AcDbCircle
 62
7
  6
CONTINUOUS
 10
254.4371096448
 20
22.8983211565
 40
2.8853094435
100
AcDbArc
 50
224.031208353
 51
224.4118619688
  0
ARC
  5
5BC
100
AcDbEntity
  8
0
100
AcDbCircle
 62
7
  6
CONTINUOUS
 10
254.2738102893
 20
23.2333119643
 40
2.8646677187
100
AcDbArc
 50
180.9278554119
 51
182.0271260539
  0
ARC
  5
5BD
100
AcDbEntity
  8
0
100
AcDbCircle
 62
7
  6
CONTINUOUS
 10
287.059613805
 20
51.7377145237
 40
2.8612490244
100
AcDbArc
 50
45.9101987754
 51
47.2422495457
  0
ARC
  5
5BE
100
AcDbEntity
  8
0
100
AcDbCircle
 62
7
  6
CONTINUOUS
 10
258.7009463344
 20
25.1749100698
 40
2.8612490239
100
AcDbArc
 50
45.9101987753
 51
47.2422495457
  0
ARC
  5
5BF
100
AcDbEntity
  8
0
100
AcDbCircle
 62
7
  6
CONTINUOUS
 10
254.4143489816
 20
22.8759787176
 40
2.8534153791
100
AcDbArc
 50
224.4112262944
 51
225.1291136179
  0
ARC
  5
5C0
100
AcDbEntity
  8
0
100
AcDbCircle
 62
7
  6
CONTINUOUS
 10
287.1158108664
 20
51.7984648675
 40
2.7784920691
100
AcDbArc
 50
47.2426247232
 51
48.4762491348
  0
ARC
  5
5C1
100
AcDbEntity
  8
0
100
AcDbCircle
 62
7
  6
CONTINUOUS
 10
258.7571433952
 20
25.2356604131
 40
2.7784920694
100
AcDbArc
 50
47.2426247233
 51
48.4762491348
  0
ARC
  5
5C2
100
AcDbEntity
  8
0
100
AcDbCircle
 62
7
  6
CONTINUOUS
 10
287.2497624888
 20
52.3691801099
 40
2.2693262544
100
AcDbArc
 50
60.9329473113
 51
62.470350913
  0
ARC
  5
5C3
100
AcDbEntity
  8
0
100
AcDbCircle
 62
7
  6
CONTINUOUS
 10
258.891095018
 20
25.8063756558
 40
2.2693262542
100
AcDbArc
 50
60.9329473112
 51
62.4703509131
  0
ARC
  5
5C4
100
AcDbEntity
  8
0
100
AcDbCircle
 62
7
  6
CONTINUOUS
 10
258.9920691179
 20
23.9281678951
 40
2.1150843127
100
AcDbArc
 50
337.7587253854
 51
338.0785141383
  0
ARC
  5
5C5
100
AcDbEntity
  8
0
100
AcDbCircle
 62
7
  6
CONTINUOUS
 10
302.0667551608
 20
59.4139045277
 40
2.0461400093
100
AcDbArc
 50
74.9224844571
 51
79.040503655
  0
ARC
  5
5C6
100
AcDbEntity
  8
0
100
AcDbCircle
 62
7
  6
CONTINUOUS
 10
256.5711574035
 20
22.8322777145
 40
2.0292263226
100
AcDbArc
 50
247.7371911736
 51
252.135159001
  0
ARC
  5
5C7
100
AcDbEntity
  8
0
100
AcDbCircle
 62
7
  6
CONTINUOUS
 10
256.5282458979
 20
22.6987997567
 40
1.8890202218
100
AcDbArc
 50
252.1319757996
 51
254.9273713602
  0
ARC
  5
5C8
100
AcDbEntity
  8
0
100
AcDbCircle
 62
7
  6
CONTINUOUS
 10
256.4381908534
 20
22.714242253
 40
1.8388445875
100
AcDbArc
 50
251.3018604534
 51
254.9226969345
  0
ARC
  5
5C9
100
AcDbEntity
  8
0
100
AcDbCircle
 62
7
  6
CONTINUOUS
 10
255.0500263141
 20
24.5906058906
 40
1.8378752613
100
AcDbArc
 50
71.3622525292
 51
74.9230750101
  0
ARC
  5
5CA
100
AcDbEntity
  8
0
100
AcDbCircle
 62
7
  6
CONTINUOUS
 10
253.7970700443
 20
21.7584138708
 40
1.5813828407
100
AcDbArc
 50
251.5788074694
 51
254.9243784764
  0
ARC
  5
5CB
100
AcDbEntity
  8
02___PRT_ALL_AXES
100
AcDbCircle
 62
7
  6
CONTINUOUS
 10
305.8349994621
 20
60.2596168236
 40
1.0355767486
100
AcDbArc
 50
74.9143603405
 51
80.3390893354
  0
ARC
  5
5CC
100
AcDbEntity
  8
0
100
AcDbCircle
 62
7
  6
CONTINUOUS
 10
269.1065066394
 20
43.3067819592
 40
0.7190136963
100
AcDbArc
 50
254.9324292494
 51
256.0965008204
  0
CIRCLE
  5
5CD
100
AcDbEntity
  8
0
100
AcDbCircle
 62
7
  6
CONTINUOUS
 10
65.3098248573
 20
206.6718618397
 40
6.45
  0
CIRCLE
  5
5CE
100
AcDbEntity
  8
0
100
AcDbCircle
 62
7
  6
CONTINUOUS
 10
65.3098248573
 20
226.7718618397
 40
6.45
  0
CIRCLE
  5
5CF
100
AcDbEntity
  8
02___PRT_ALL_AXES
100
AcDbCircle
 62
7
  6
CONTINUOUS
 10
65.3098248573
 20
191.7218618397
 40
3.5
  0
CIRCLE
  5
5D0
100
AcDbEntity
  8
0
100
AcDbCircle
 62
7
  6
CONTINUOUS
 10
65.3098248573
 20
206.6718618397
 40
3.3
  0
CIRCLE
  5
5D1
100
AcDbEntity
  8
0
100
AcDbCircle
 62
7
  6
CONTINUOUS
 10
65.3098248573
 20
226.7718618397
 40
3.3
  0
ARC
  5
5D2
100
AcDbEntity
  8
0
100
AcDbCircle
 62
7
  6
CONTINUOUS
 10
84.3098248573
 20
236.7218618397
 40
25.0
100
AcDbArc
 50
270.0
 51
315.0
  0
ARC
  5
5D3
100
AcDbEntity
  8
0
100
AcDbCircle
 62
7
  6
CONTINUOUS
 10
84.3098248573
 20
236.7218618397
 40
15.0
100
AcDbArc
 50
270.0
 51
315.0
  0
CIRCLE
  5
5D4
100
AcDbEntity
  8
02___PRT_ALL_AXES
100
AcDbCircle
 62
7
  6
CONTINUOUS
 10
65.3098248573
 20
241.7218618397
 40
3.5
  0
ARC
  5
5D5
100
AcDbEntity
  8
0
100
AcDbCircle
 62
7
  6
CONTINUOUS
 10
130.8783673523
 20
226.7218618397
 40
25.0
100
AcDbArc
 50
90.0
 51
103.4416463006
  0
ARC
  5
5D6
100
AcDbEntity
  8
0
100
AcDbCircle
 62
7
  6
CONTINUOUS
 10
130.8783673523
 20
226.7218618397
 40
15.0
100
AcDbArc
 50
90.0
 51
135.0
  0
CIRCLE
  5
5D7
100
AcDbEntity
  8
02___PRT_ALL_AXES
100
AcDbCircle
 62
7
  6
CONTINUOUS
 10
149.8783673523
 20
221.7218618397
 40
3.5
  0
CIRCLE
  5
5D8
100
AcDbEntity
  8
0
100
AcDbCircle
 62
7
  6
CONTINUOUS
 10
149.8783673523
 20
236.6718618397
 40
6.45
  0
CIRCLE
  5
5D9
100
AcDbEntity
  8
0
100
AcDbCircle
 62
7
  6
CONTINUOUS
 10
149.8783673523
 20
256.7718618397
 40
6.45
  0
CIRCLE
  5
5DA
100
AcDbEntity
  8
02___PRT_ALL_AXES
100
AcDbCircle
 62
7
  6
CONTINUOUS
 10
149.8783673523
 20
271.7218618397
 40
3.5
  0
CIRCLE
  5
5DB
100
AcDbEntity
  8
0
100
AcDbCircle
 62
7
  6
CONTINUOUS
 10
149.8783673523
 20
236.6718618397
 40
3.3
  0
CIRCLE
  5
5DC
100
AcDbEntity
  8
0
100
AcDbCircle
 62
7
  6
CONTINUOUS
 10
149.8783673523
 20
256.7718618397
 40
3.3
  0
ARC
  5
5DD
100
AcDbEntity
  8
0
100
AcDbCircle
 62
7
  6
CONTINUOUS
 10
229.7177649625
 20
239.471059849
 40
16.4695368847
100
AcDbArc
 50
47.9297974806
 51
50.6830512014
  0
ARC
  5
5DE
100
AcDbEntity
  8
0
100
AcDbCircle
 62
7
  6
CONTINUOUS
 10
241.2534504763
 20
219.0743563635
 40
7.0409037714
100
AcDbArc
 50
85.8909864992
 51
94.1090135008
  0
CIRCLE
  5
5DF
100
AcDbEntity
  8
0
100
AcDbCircle
 62
7
  6
CONTINUOUS
 10
241.2530242159
 20
216.7218618397
 40
6.0
  0
CIRCLE
  5
5E0
100
AcDbEntity
  8
0
100
AcDbCircle
 62
7
  6
CONTINUOUS
 10
241.2530242159
 20
216.7218618397
 40
5.8
  0
CIRCLE
  5
5E1
100
AcDbEntity
  8
0
100
AcDbCircle
 62
7
  6
CONTINUOUS
 10
241.2530242159
 20
216.7218618397
 40
5.0
  0
CIRCLE
  5
5E2
100
AcDbEntity
  8
0
100
AcDbCircle
 62
7
  6
CONTINUOUS
 10
241.2530242159
 20
216.7218618397
 40
4.8
  0
CIRCLE
  5
5E3
100
AcDbEntity
  8
02___PRT_ALL_AXES
100
AcDbCircle
 62
7
  6
CONTINUOUS
 10
241.2530242159
 20
216.7218618397
 40
2.5
  0
CIRCLE
  5
5E4
100
AcDbEntity
  8
02___PRT_ALL_AXES
100
AcDbCircle
 62
7
  6
CONTINUOUS
 10
241.2530242159
 20
216.7218618397
 40
2.0
  0
CIRCLE
  5
5E5
100
AcDbEntity
  8
02___PRT_ALL_AXES
100
AcDbCircle
 62
7
  6
CONTINUOUS
 10
241.2530242159
 20
216.7218618397
 40
1.5
  0
ARC
  5
5E6
100
AcDbEntity
  8
0
100
AcDbCircle
 62
7
  6
CONTINUOUS
 10
252.4882008975
 20
239.8200171611
 40
16.0094336512
100
AcDbArc
 50
129.2773772746
 51
132.1097740433
  0
ARC
  5
5E7
100
AcDbEntity
  8
0
100
AcDbCircle
 62
7
  6
CONTINUOUS
 10
241.2530242159
 20
246.7218618397
 40
6.85
100
AcDbArc
 50
85.8022308032
 51
94.1977690209
  0
ARC
  5
5E8
100
AcDbEntity
  8
0
100
AcDbCircle
 62
7
  6
CONTINUOUS
 10
241.2530242159
 20
246.7218618397
 40
6.65
100
AcDbArc
 50
85.6640640311
 51
94.3359361502
  0
ARC
  5
5E9
100
AcDbEntity
  8
0
100
AcDbCircle
 62
7
  6
CONTINUOUS
 10
241.2530242159
 20
246.7218618399
 40
5.6000000001
100
AcDbArc
 50
333.5991291357
 51
78.6718111469
  0
ARC
  5
5EA
100
AcDbEntity
  8
0
100
AcDbCircle
 62
7
  6
CONTINUOUS
 10
241.253024216
 20
246.7218618395
 40
5.6000000001
100
AcDbArc
 50
101.3281888524
 51
206.4008710582
  0
ARC
  5
5EB
100
AcDbEntity
  8
0
100
AcDbCircle
 62
7
  6
CONTINUOUS
 10
241.2530242159
 20
246.7218618397
 40
5.2
100
AcDbArc
 50
84.4560160596
 51
95.5439839106
  0
ARC
  5
5EC
100
AcDbEntity
  8
0
100
AcDbCircle
 62
7
  6
CONTINUOUS
 10
241.2530242159
 20
246.7218618397
 40
5.0
100
AcDbArc
 50
0.0
 51
180.0
  0
CIRCLE
  5
5ED
100
AcDbEntity
  8
02___PRT_ALL_AXES
100
AcDbCircle
 62
7
  6
CONTINUOUS
 10
241.2530242159
 20
246.7218618397
 40
4.7
  0
CIRCLE
  5
5EE
100
AcDbEntity
  8
0
100
AcDbCircle
 62
7
  6
CONTINUOUS
 10
241.2530242159
 20
246.7218618397
 40
3.25
  0
CIRCLE
  5
5EF
100
AcDbEntity
  8
0
100
AcDbCircle
 62
7
  6
CONTINUOUS
 10
241.2530242159
 20
246.7218618397
 40
2.375
  0
CIRCLE
  5
5F0
100
AcDbEntity
  8
02___PRT_ALL_AXES
100
AcDbCircle
 62
7
  6
CONTINUOUS
 10
241.2530242159
 20
246.7218618397
 40
2.35
  0
CIRCLE
  5
5F1
100
AcDbEntity
  8
0
100
AcDbCircle
 62
7
  6
CONTINUOUS
 10
263.124630716
 20
120.6838413059
 40
6.45
  0
CIRCLE
  5
5F2
100
AcDbEntity
  8
0
100
AcDbCircle
 62
7
  6
CONTINUOUS
 10
263.124630716
 20
140.7838413059
 40
6.45
  0
CIRCLE
  5
5F3
100
AcDbEntity
  8
02___PRT_ALL_AXES
100
AcDbCircle
 62
7
  6
CONTINUOUS
 10
263.124630716
 20
105.7338413059
 40
3.5
  0
CIRCLE
  5
5F4
100
AcDbEntity
  8
0
100
AcDbCircle
 62
7
  6
CONTINUOUS
 10
263.124630716
 20
120.6838413059
 40
3.3
  0
CIRCLE
  5
5F5
100
AcDbEntity
  8
0
100
AcDbCircle
 62
7
  6
CONTINUOUS
 10
263.124630716
 20
140.7838413059
 40
3.3
  0
ARC
  5
5F6
100
AcDbEntity
  8
0
100
AcDbCircle
 62
7
  6
CONTINUOUS
 10
282.124630716
 20
150.7338413059
 40
25.0
100
AcDbArc
 50
270.0
 51
315.0
  0
ARC
  5
5F7
100
AcDbEntity
  8
0
100
AcDbCircle
 62
7
  6
CONTINUOUS
 10
282.124630716
 20
150.7338413059
 40
15.0
100
AcDbArc
 50
270.0
 51
315.0
  0
CIRCLE
  5
5F8
100
AcDbEntity
  8
02___PRT_ALL_AXES
100
AcDbCircle
 62
7
  6
CONTINUOUS
 10
263.124630716
 20
155.7338413059
 40
3.5
  0
ARC
  5
5F9
100
AcDbEntity
  8
0
100
AcDbCircle
 62
7
  6
CONTINUOUS
 10
328.6931732109
 20
140.7338413059
 40
25.0
100
AcDbArc
 50
90.0
 51
103.4416463006
  0
ARC
  5
5FA
100
AcDbEntity
  8
0
100
AcDbCircle
 62
7
  6
CONTINUOUS
 10
328.6931732109
 20
140.7338413059
 40
15.0
100
AcDbArc
 50
90.0
 51
135.0
  0
CIRCLE
  5
5FB
100
AcDbEntity
  8
02___PRT_ALL_AXES
100
AcDbCircle
 62
7
  6
CONTINUOUS
 10
347.6931732109
 20
135.7338413059
 40
3.5
  0
CIRCLE
  5
5FC
100
AcDbEntity
  8
0
100
AcDbCircle
 62
7
  6
CONTINUOUS
 10
347.6931732109
 20
150.6838413059
 40
6.45
  0
CIRCLE
  5
5FD
100
AcDbEntity
  8
0
100
AcDbCircle
 62
7
  6
CONTINUOUS
 10
347.6931732109
 20
170.7838413059
 40
6.45
  0
CIRCLE
  5
5FE
100
AcDbEntity
  8
02___PRT_ALL_AXES
100
AcDbCircle
 62
7
  6
CONTINUOUS
 10
347.6931732109
 20
185.7338413059
 40
3.5
  0
CIRCLE
  5
5FF
100
AcDbEntity
  8
0
100
AcDbCircle
 62
7
  6
CONTINUOUS
 10
347.6931732109
 20
150.6838413059
 40
3.3
  0
CIRCLE
  5
600
100
AcDbEntity
  8
0
100
AcDbCircle
 62
7
  6
CONTINUOUS
 10
347.6931732109
 20
170.7838413059
 40
3.3
  0
SPLINE
  5
601
100
AcDbEntity
  8
0
100
AcDbSpline
 62
7
  6
CONTINUOUS
 70
0
 71
3
 72
9
 73
5
 74
0
 42
0.0000001
 43
0.0000001
 44
0.0000000001
 40
0.0
 40
0.0
 40
0.0
 40
0.0
 40
0.2722965408
 40
1.0
 40
1.0
 40
1.0
 40
1.0
 10
306.078489684
 20
61.2081294576
 30
0.0
 10
305.9897066123
 20
61.2999615318
 30
0.0
 10
305.647131261
 20
61.6192018742
 30
0.0
 10
305.2257711556
 20
61.8662088798
 30
0.0
 10
304.896143917
 20
61.9549383734
 30
0.0
  0
SPLINE
  5
602
100
AcDbEntity
  8
02___PRT_ALL_AXES
100
AcDbSpline
 62
7
  6
CONTINUOUS
 70
0
 71
3
 72
9
 73
5
 74
0
 42
0.0000001
 43
0.0000001
 44
0.0000000001
 40
0.0
 40
0.0
 40
0.0
 40
0.0
 40
0.2594754947
 40
1.0
 40
1.0
 40
1.0
 40
1.0
 10
306.8202082711
 20
61.3219008253
 30
0.0
 10
306.7977319109
 20
61.3279510415
 30
0.0
 10
306.7102947718
 20
61.3479968687
 30
0.0
 10
306.6194169605
 20
61.3541272265
 30
0.0
 10
306.5531790366
 20
61.3490891323
 30
0.0
  0
SPLINE
  5
603
100
AcDbEntity
  8
0
100
AcDbSpline
 62
7
  6
CONTINUOUS
 70
0
 71
3
 72
11
 73
7
 74
0
 42
0.0000001
 43
0.0000001
 44
0.0000000001
 40
0.0
 40
0.0
 40
0.0
 40
0.0
 40
0.244982285
 40
0.500000371
 40
0.7550183395
 40
1.0
 40
1.0
 40
1.0
 40
1.0
 10
307.2663199123
 20
58.463457216
 30
0.0
 10
307.2576679964
 20
58.7081418087
 30
0.0
 10
307.1879229066
 20
59.2065551955
 30
0.0
 10
306.9517907755
 20
59.9269665644
 30
0.0
 10
306.5969380412
 20
60.5969142832
 30
0.0
 10
306.2864649779
 20
60.9930024469
 30
0.0
 10
306.1162903264
 20
61.1690299672
 30
0.0
  0
SPLINE
  5
604
100
AcDbEntity
  8
0
100
AcDbSpline
 62
7
  6
CONTINUOUS
 70
0
 71
3
 72
9
 73
5
 74
0
 42
0.0000001
 43
0.0000001
 44
0.0000000001
 40
0.0
 40
0.0
 40
0.0
 40
0.0
 40
0.2722956193
 40
1.0
 40
1.0
 40
1.0
 40
1.0
 10
303.9488544816
 20
60.5370002758
 30
0.0
 10
303.8474933163
 20
60.6418407959
 30
0.0
 10
303.4563896181
 20
61.0063104615
 30
0.0
 10
302.9753336053
 20
61.2883060633
 30
0.0
 10
302.5990085794
 20
61.3896057288
 30
0.0
  0
SPLINE
  5
605
100
AcDbEntity
  8
0
100
AcDbSpline
 62
7
  6
CONTINUOUS
 70
0
 71
3
 72
10
 73
6
 74
0
 42
0.0000001
 43
0.0000001
 44
0.0000000001
 40
0.0
 40
0.0
 40
0.0
 40
0.0
 40
0.5155161264
 40
0.7599495358
 40
1.0
 40
1.0
 40
1.0
 40
1.0
 10
304.896143917
 20
61.9549383734
 30
0.0
 10
304.7357288545
 20
61.9981191117
 30
0.0
 10
304.4874870214
 20
62.0299119811
 30
0.0
 10
304.1667757353
 20
61.9873316386
 30
0.0
 10
304.0171151474
 20
61.939314621
 30
0.0
 10
303.945922986
 20
61.9090545198
 30
0.0
  0
SPLINE
  5
606
100
AcDbEntity
  8
0
100
AcDbSpline
 62
7
  6
CONTINUOUS
 70
0
 71
3
 72
11
 73
7
 74
0
 42
0.0000001
 43
0.0000001
 44
0.0000000001
 40
0.0
 40
0.0
 40
0.0
 40
0.0
 40
0.2449791968
 40
0.499996708
 40
0.7550157772
 40
1.0
 40
1.0
 40
1.0
 40
1.0
 10
305.3052428141
 20
57.3955618272
 30
0.0
 10
305.2953311953
 20
57.6761171113
 30
0.0
 10
305.2154039825
 20
58.2476058182
 30
0.0
 10
304.9446710101
 20
59.0736441498
 30
0.0
 10
304.5378167985
 20
59.8418305241
 30
0.0
 10
304.1818343924
 20
60.2960050331
 30
0.0
 10
303.9867096715
 20
60.4978442877
 30
0.0
  0
SPLINE
  5
607
100
AcDbEntity
  8
02___PRT_ALL_AXES
100
AcDbSpline
 62
7
  6
CONTINUOUS
 70
0
 71
3
 72
18
 73
14
 74
0
 42
0.0000001
 43
0.0000001
 44
0.0000000001
 40
0.0
 40
0.0
 40
0.0
 40
0.0
 40
0.1118515828
 40
0.1735151657
 40
0.2385209116
 40
0.3758039749
 40
0.5174387844
 40
0.6559370629
 40
0.784509451
 40
0.8437260111
 40
0.8991798695
 40
0.9510689592
 40
1.0
 40
1.0
 40
1.0
 40
1.0
 10
306.8202082711
 20
61.3219008253
 30
0.0
 10
306.9365574377
 20
61.2905818033
 30
0.0
 10
307.1082192493
 20
61.2065909653
 30
0.0
 10
307.3117574673
 20
61.0493957139
 30
0.0
 10
307.5140460666
 20
60.8485206613
 30
0.0
 10
307.7301437748
 20
60.5438805913
 30
0.0
 10
307.9137962056
 20
60.1303396332
 30
0.0
 10
308.0108394339
 20
59.6979224558
 30
0.0
 10
308.0121100189
 20
59.3425610879
 30
0.0
 10
307.9595359032
 20
59.0850150313
 30
0.0
 10
307.8969960853
 20
58.9159630258
 30
0.0
 10
307.8115471858
 20
58.7698533235
 30
0.0
 10
307.7385245708
 20
58.6881573934
 30
0.0
 10
307.6991739999
 20
58.653087277
 30
0.0
  0
SPLINE
  5
608
100
AcDbEntity
  8
0
100
AcDbSpline
 62
7
  6
CONTINUOUS
 70
0
 71
3
 72
14
 73
10
 74
0
 42
0.0000001
 43
0.0000001
 44
0.0000000001
 40
0.0
 40
0.0
 40
0.0
 40
0.0
 40
0.1070769582
 40
0.2165123893
 40
0.3303676031
 40
0.4502005451
 40
0.5769804455
 40
0.7110985349
 40
1.0
 40
1.0
 40
1.0
 40
1.0
 10
304.1937912171
 20
55.0330852779
 30
0.0
 10
304.2830924667
 20
55.0710468632
 30
0.0
 10
304.4564121596
 20
55.166231074
 30
0.0
 10
304.6869798035
 20
55.3598966126
 30
0.0
 10
304.8856187827
 20
55.6012255144
 30
0.0
 10
305.049120377
 20
55.8855706065
 30
0.0
 10
305.1751952373
 20
56.2080041246
 30
0.0
 10
305.2938268983
 20
56.6930151648
 30
0.0
 10
305.3164081724
 20
57.0797837272
 30
0.0
 10
305.3071561553
 20
57.3414277795
 30
0.0
  0
SPLINE
  5
609
100
AcDbEntity
  8
0
100
AcDbSpline
 62
7
  6
CONTINUOUS
 70
0
 71
3
 72
14
 73
10
 74
0
 42
0.0000001
 43
0.0000001
 44
0.0000000001
 40
0.0
 40
0.0
 40
0.0
 40
0.0
 40
0.1070773105
 40
0.2165125665
 40
0.3303675269
 40
0.4501999804
 40
0.5769795001
 40
0.7110977037
 40
1.0
 40
1.0
 40
1.0
 40
1.0
 10
306.2930342483
 20
56.3871825864
 30
0.0
 10
306.3712559223
 20
56.4204305695
 30
0.0
 10
306.5230662288
 20
56.5038100168
 30
0.0
 10
306.7250218206
 20
56.6734444783
 30
0.0
 10
306.8990123019
 20
56.8848265058
 30
0.0
 10
307.0422270785
 20
57.1338858256
 30
0.0
 10
307.1526598318
 20
57.416307751
 30
0.0
 10
307.2565737726
 20
57.8411355214
 30
0.0
 10
307.2763382538
 20
58.1799117432
 30
0.0
 10
307.2682414122
 20
58.4090899394
 30
0.0
  0
SPLINE
  5
60A
100
AcDbEntity
  8
0
100
AcDbSpline
 62
7
  6
CONTINUOUS
 70
0
 71
3
 72
11
 73
7
 74
0
 42
0.0000001
 43
0.0000001
 44
0.0000000001
 40
0.0
 40
0.0
 40
0.0
 40
0.0
 40
0.2453392231
 40
0.5000007112
 40
0.7546618915
 40
1.0
 40
1.0
 40
1.0
 40
1.0
 10
307.2659297078
 20
58.4631372824
 30
0.0
 10
307.2536585149
 20
58.7076897526
 30
0.0
 10
307.1791789669
 20
59.2044220458
 30
0.0
 10
306.9414021864
 20
59.9225679164
 30
0.0
 10
306.5893176772
 20
60.592124847
 30
0.0
 10
306.2833380472
 20
60.9904527296
 30
0.0
 10
306.1157688883
 20
61.1689927113
 30
0.0
  0
SPLINE
  5
60B
100
AcDbEntity
  8
0
100
AcDbSpline
 62
7
  6
CONTINUOUS
 70
0
 71
3
 72
11
 73
7
 74
0
 42
0.0000001
 43
0.0000001
 44
0.0000000001
 40
0.0
 40
0.0
 40
0.0
 40
0.0
 40
0.2452836392
 40
0.4999868275
 40
0.7546965744
 40
1.0
 40
1.0
 40
1.0
 40
1.0
 10
305.3049362804
 20
57.3945593544
 30
0.0
 10
305.2914263799
 20
57.6750175986
 30
0.0
 10
305.2068157183
 20
58.2449026427
 30
0.0
 10
304.9344720308
 20
59.0688014715
 30
0.0
 10
304.5304025635
 20
59.8367481034
 30
0.0
 10
304.1789002164
 20
60.2932668593
 30
0.0
 10
303.9863731791
 20
60.4976816437
 30
0.0
  0
SPLINE
  5
60C
100
AcDbEntity
  8
02___PRT_ALL_AXES
100
AcDbSpline
 62
7
  6
CONTINUOUS
 70
0
 71
3
 72
17
 73
13
 74
0
 42
0.0000001
 43
0.0000001
 44
0.0000000001
 40
0.0
 40
0.0
 40
0.0
 40
0.0
 40
0.1095904756
 40
0.2326246167
 40
0.3662904524
 40
0.505338793
 40
0.6434637236
 40
0.7103097905
 40
0.7747164134
 40
0.8361547726
 40
0.8942741117
 40
1.0
 40
1.0
 40
1.0
 40
1.0
 10
306.1045212753
 20
61.2595054146
 30
0.0
 10
306.2300949395
 20
61.2257033303
 30
0.0
 10
306.4842278606
 20
61.1056509725
 30
0.0
 10
306.8183252799
 20
60.8221710046
 30
0.0
 10
307.1064815263
 20
60.4473127355
 30
0.0
 10
307.3270179669
 20
60.009588325
 30
0.0
 10
307.4422971394
 20
59.6151982369
 30
0.0
 10
307.4858876614
 20
59.2980455471
 30
0.0
 10
307.4932146921
 20
59.0690757802
 30
0.0
 10
307.4752586896
 20
58.8508813728
 30
0.0
 10
307.4200942016
 20
58.5890475409
 30
0.0
 10
307.3400726769
 20
58.4070186906
 30
0.0
 10
307.2686807549
 20
58.3038545936
 30
0.0
  0
SPLINE
  5
60D
100
AcDbEntity
  8
02___PRT_ALL_AXES
100
AcDbSpline
 62
7
  6
CONTINUOUS
 70
0
 71
3
 72
15
 73
11
 74
0
 42
0.0000001
 43
0.0000001
 44
0.0000000001
 40
0.0
 40
0.0
 40
0.0
 40
0.0
 40
0.1094732103
 40
0.2312569997
 40
0.3628783856
 40
0.4998881495
 40
0.6369166413
 40
0.7685916486
 40
0.8904572842
 40
1.0
 40
1.0
 40
1.0
 40
1.0
 10
306.1553754221
 20
61.130413829
 30
0.0
 10
306.2639892437
 20
61.0961872109
 30
0.0
 10
306.4821690925
 20
60.9865211235
 30
0.0
 10
306.7711036616
 20
60.7394908423
 30
0.0
 10
307.0231882881
 20
60.4179837215
 30
0.0
 10
307.2218648922
 20
60.0433408664
 30
0.0
 10
307.354236177
 20
59.6404092311
 30
0.0
 10
307.4113295711
 20
59.2357074312
 30
0.0
 10
307.3892310954
 20
58.8560034347
 30
0.0
 10
307.3171913824
 20
58.6225248222
 30
0.0
 10
307.2666419561
 20
58.520399155
 30
0.0
  0
SPLINE
  5
60E
100
AcDbEntity
  8
0
100
AcDbSpline
 62
7
  6
CONTINUOUS
 70
0
 71
3
 72
14
 73
10
 74
0
 42
0.0000001
 43
0.0000001
 44
0.0000000001
 40
0.0
 40
0.0
 40
0.0
 40
0.0
 40
0.2889022915
 40
0.4230204939
 40
0.5498000131
 40
0.6696324668
 40
0.783487428
 40
0.892922686
 40
1.0
 40
1.0
 40
1.0
 40
1.0
 10
251.4090144317
 20
23.1863305553
 30
0.0
 10
251.4022670626
 20
23.377312383
 30
0.0
 10
251.4187374624
 20
23.6596258981
 30
0.0
 10
251.5053324073
 20
24.0136490385
 30
0.0
 10
251.5973596984
 20
24.2490006442
 30
0.0
 10
251.7167053434
 20
24.4565500802
 30
0.0
 10
251.8616974106
 20
24.6327017741
 30
0.0
 10
252.0299937393
 20
24.77406383
 30
0.0
 10
252.1565023295
 20
24.8435467097
 30
0.0
 10
252.2216870608
 20
24.8712533619
 30
0.0
  0
SPLINE
  5
60F
100
AcDbEntity
  8
02___PRT_ALL_AXES
100
AcDbSpline
 62
7
  6
CONTINUOUS
 70
0
 71
3
 72
17
 73
13
 74
0
 42
0.0000001
 43
0.0000001
 44
0.0000000001
 40
0.0
 40
0.0
 40
0.0
 40
0.0
 40
0.1118858065
 40
0.2383378808
 40
0.3756605737
 40
0.5173341449
 40
0.6558669316
 40
0.7844676961
 40
0.8436955361
 40
0.899160257
 40
0.9510596612
 40
1.0
 40
1.0
 40
1.0
 40
1.0
 10
251.4616979899
 20
20.864494424
 30
0.0
 10
251.3841221311
 20
20.8853763958
 30
0.0
 10
251.2272431189
 20
20.9621880737
 30
0.0
 10
251.0248149829
 20
21.1440353526
 30
0.0
 10
250.8550395312
 20
21.383197847
 30
0.0
 10
250.7325985106
 20
21.6589863061
 30
0.0
 10
250.6679293741
 20
21.9472744736
 30
0.0
 10
250.6671079573
 20
22.1841979329
 30
0.0
 10
250.7021895218
 20
22.3558937823
 30
0.0
 10
250.7439038982
 20
22.4685884298
 30
0.0
 10
250.8008880811
 20
22.5659886387
 30
0.0
 10
250.8495975006
 20
22.6204285451
 30
0.0
 10
250.8758356194
 20
22.6438041937
 30
0.0
  0
SPLINE
  5
610
100
AcDbEntity
  8
0
100
AcDbSpline
 62
7
  6
CONTINUOUS
 70
0
 71
3
 72
11
 73
7
 74
0
 42
0.0000001
 43
0.0000001
 44
0.0000000001
 40
0.0
 40
0.0
 40
0.0
 40
0.0
 40
0.2694816801
 40
0.5231488762
 40
0.764826353
 40
1.0
 40
1.0
 40
1.0
 40
1.0
 10
253.8402116532
 20
25.5612006093
 30
0.0
 10
253.8805458063
 20
25.663146024
 30
0.0
 10
253.9742592527
 20
25.8555457376
 30
0.0
 10
254.159563714
 20
26.107825435
 30
0.0
 10
254.3815818495
 20
26.3085967683
 30
0.0
 10
254.5520777981
 20
26.4050924866
 30
0.0
 10
254.6401290358
 20
26.4425226969
 30
0.0
  0
SPLINE
  5
611
100
AcDbEntity
  8
0
100
AcDbSpline
 62
7
  6
CONTINUOUS
 70
0
 71
3
 72
10
 73
6
 74
0
 42
0.0000001
 43
0.0000001
 44
0.0000000001
 40
0.0
 40
0.0
 40
0.0
 40
0.0
 40
0.2307018842
 40
0.6012066087
 40
1.0
 40
1.0
 40
1.0
 40
1.0
 10
253.2973530902
 20
20.2580623604
 30
0.0
 10
253.2181225614
 20
20.2844073762
 30
0.0
 10
253.0166951113
 20
20.3688257142
 30
0.0
 10
252.7090280695
 20
20.5632741609
 30
0.0
 10
252.5007946017
 20
20.7500320014
 30
0.0
 10
252.4004739964
 20
20.853797855
 30
0.0
  0
SPLINE
  5
612
100
AcDbEntity
  8
0
100
AcDbSpline
 62
7
  6
CONTINUOUS
 70
0
 71
3
 72
11
 73
7
 74
0
 42
0.0000001
 43
0.0000001
 44
0.0000000001
 40
0.0
 40
0.0
 40
0.0
 40
0.0
 40
0.2449816605
 40
0.499999629
 40
0.755017715
 40
1.0
 40
1.0
 40
1.0
 40
1.0
 10
259.9821907
 20
27.0506504246
 30
0.0
 10
260.1523653516
 20
26.8746229043
 30
0.0
 10
260.4628384152
 20
26.4785347404
 30
0.0
 10
260.8176911496
 20
25.8085870213
 30
0.0
 10
261.0538232809
 20
25.0881756521
 30
0.0
 10
261.1235683706
 20
24.589762265
 30
0.0
 10
261.1322202864
 20
24.3450776723
 30
0.0
  0
SPLINE
  5
613
100
AcDbEntity
  8
02___PRT_ALL_AXES
100
AcDbSpline
 62
7
  6
CONTINUOUS
 70
0
 71
3
 72
9
 73
5
 74
0
 42
0.0000001
 43
0.0000001
 44
0.0000000001
 40
0.0
 40
0.0
 40
0.0
 40
0.0
 40
0.2593915515
 40
1.0
 40
1.0
 40
1.0
 40
1.0
 10
251.4616979899
 20
20.864494424
 30
0.0
 10
251.4766723645
 20
20.8604636021
 30
0.0
 10
251.5349450648
 20
20.847108287
 30
0.0
 10
251.5955082497
 20
20.843011048
 30
0.0
 10
251.6396575117
 20
20.8463633114
 30
0.0
  0
SPLINE
  5
614
100
AcDbEntity
  8
0
100
AcDbSpline
 62
7
  6
CONTINUOUS
 70
0
 71
3
 72
10
 73
6
 74
0
 42
0.0000001
 43
0.0000001
 44
0.0000000001
 40
0.0
 40
0.0
 40
0.0
 40
0.0
 40
0.2286032497
 40
0.5985004309
 40
1.0
 40
1.0
 40
1.0
 40
1.0
 10
258.7620442912
 20
27.8365588303
 30
0.0
 10
258.866030331
 20
27.8085677313
 30
0.0
 10
259.1321520142
 20
27.7114004159
 30
0.0
 10
259.5393482425
 20
27.4679643313
 30
0.0
 10
259.8129289665
 20
27.2257258428
 30
0.0
 10
259.9443910627
 20
27.0897511384
 30
0.0
  0
SPLINE
  5
615
100
AcDbEntity
  8
0
100
AcDbSpline
 62
7
  6
CONTINUOUS
 70
0
 71
3
 72
9
 73
5
 74
0
 42
0.0000001
 43
0.0000001
 44
0.0000000001
 40
0.0
 40
0.0
 40
0.0
 40
0.0
 40
0.2671948815
 40
1.0
 40
1.0
 40
1.0
 40
1.0
 10
261.1341443577
 20
24.2907095308
 30
0.0
 10
261.1378289101
 20
24.1865115789
 30
0.0
 10
261.1348526361
 20
23.7965829331
 30
0.0
 10
261.0609814589
 20
23.403806321
 30
0.0
 10
260.9542250483
 20
23.1385314253
 30
0.0
  0
SPLINE
  5
616
100
AcDbEntity
  8
0
100
AcDbSpline
 62
7
  6
CONTINUOUS
 70
0
 71
3
 72
11
 73
7
 74
0
 42
0.0000001
 43
0.0000001
 44
0.0000000001
 40
0.0
 40
0.0
 40
0.0
 40
0.0
 40
0.2689468034
 40
0.5224845679
 40
0.7643888868
 40
1.0
 40
1.0
 40
1.0
 40
1.0
 10
260.9497872584
 20
23.1275922697
 30
0.0
 10
260.9091927363
 20
23.0283238429
 30
0.0
 10
260.8154332203
 20
22.8409998528
 30
0.0
 10
260.6317677373
 20
22.595505324
 30
0.0
 10
260.4128879063
 20
22.3998957317
 30
0.0
 10
260.2454006512
 20
22.3055602184
 30
0.0
 10
260.1589341941
 20
22.2688036913
 30
0.0
  0
SPLINE
  5
617
100
AcDbEntity
  8
0
100
AcDbSpline
 62
7
  6
CONTINUOUS
 70
0
 71
3
 72
11
 73
7
 74
0
 42
0.0000001
 43
0.0000001
 44
0.0000000001
 40
0.0
 40
0.0
 40
0.0
 40
0.0
 40
0.2396751234
 40
0.4837295657
 40
0.7361633587
 40
1.0
 40
1.0
 40
1.0
 40
1.0
 10
256.9872394327
 20
20.9206520559
 30
0.0
 10
256.9160485066
 20
20.8903890931
 30
0.0
 10
256.7664358083
 20
20.8423588563
 30
0.0
 10
256.5297372709
 20
20.8110400889
 30
0.0
 10
256.283450793
 20
20.8203760238
 30
0.0
 10
256.1192465112
 20
20.8526334284
 30
0.0
 10
256.0370189344
 20
20.8747675561
 30
0.0
  0
SPLINE
  5
618
100
AcDbEntity
  8
02___PRT_ALL_AXES
100
AcDbSpline
 62
7
  6
CONTINUOUS
 70
0
 71
3
 72
9
 73
5
 74
0
 42
0.0000001
 43
0.0000001
 44
0.0000000001
 40
0.0
 40
0.0
 40
0.0
 40
0.0
 40
0.4834969079
 40
1.0
 40
1.0
 40
1.0
 40
1.0
 10
251.0939290584
 20
22.4903606771
 30
0.0
 10
251.1296988062
 20
22.5055633383
 30
0.0
 10
251.210166975
 20
22.5231808951
 30
0.0
 10
251.2913269191
 20
22.5125981366
 30
0.0
 10
251.3314194148
 20
22.5018059858
 30
0.0
  0
SPLINE
  5
619
100
AcDbEntity
  8
02___PRT_ALL_AXES
100
AcDbSpline
 62
7
  6
CONTINUOUS
 70
0
 71
3
 72
11
 73
7
 74
0
 42
0.0000001
 43
0.0000001
 44
0.0000000001
 40
0.0
 40
0.0
 40
0.0
 40
0.0
 40
0.2446534025
 40
0.48681383
 40
0.7359801865
 40
1.0
 40
1.0
 40
1.0
 40
1.0
 10
251.4449691175
 20
23.1509478263
 30
0.0
 10
251.4803757934
 20
23.18249887
 30
0.0
 10
251.5590238331
 20
23.2368790909
 30
0.0
 10
251.695240419
 20
23.284567128
 30
0.0
 10
251.8427678341
 20
23.295569874
 30
0.0
 10
251.9418531066
 20
23.2792091924
 30
0.0
 10
251.9912727355
 20
23.2659063515
 30
0.0
  0
SPLINE
  5
61A
100
AcDbEntity
  8
0
100
AcDbSpline
 62
7
  6
CONTINUOUS
 70
0
 71
3
 72
10
 73
6
 74
0
 42
0.0000001
 43
0.0000001
 44
0.0000000001
 40
0.0
 40
0.0
 40
0.0
 40
0.0
 40
0.2400504609
 40
0.4844838668
 40
1.0
 40
1.0
 40
1.0
 40
1.0
 10
254.1776131268
 20
20.2696934237
 30
0.0
 10
254.1182863254
 20
20.244476674
 30
0.0
 10
253.993569171
 20
20.2044624886
 30
0.0
 10
253.7263097629
 20
20.1689788694
 30
0.0
 10
253.5194415657
 20
20.1954729263
 30
0.0
 10
253.385762344
 20
20.2314568758
 30
0.0
  0
SPLINE
  5
61B
100
AcDbEntity
  8
0
100
AcDbSpline
 62
7
  6
CONTINUOUS
 70
0
 71
3
 72
11
 73
7
 74
0
 42
0.0000001
 43
0.0000001
 44
0.0000000001
 40
0.0
 40
0.0
 40
0.0
 40
0.0
 40
0.2396751233
 40
0.4837295655
 40
0.7361633587
 40
1.0
 40
1.0
 40
1.0
 40
1.0
 10
257.8118237885
 20
27.7906743286
 30
0.0
 10
257.8830147148
 20
27.8209372918
 30
0.0
 10
258.0326274137
 20
27.8689675293
 30
0.0
 10
258.2693259522
 20
27.9002862974
 30
0.0
 10
258.5156124313
 20
27.8909503627
 30
0.0
 10
258.679816714
 20
27.8586929581
 30
0.0
 10
258.7620442912
 20
27.8365588303
 30
0.0
  0
SPLINE
  5
61C
100
AcDbEntity
  8
02___PRT_ALL_AXES
100
AcDbSpline
 62
7
  6
CONTINUOUS
 70
0
 71
3
 72
17
 73
13
 74
0
 42
0.0000001
 43
0.0000001
 44
0.0000000001
 40
0.0
 40
0.0
 40
0.0
 40
0.0
 40
0.0476013081
 40
0.0968963743
 40
0.1492424538
 40
0.2054767651
 40
0.3299691715
 40
0.46805981
 40
0.6124903491
 40
0.7542747608
 40
0.8851189563
 40
1.0
 40
1.0
 40
1.0
 40
1.0
 10
251.6805771212
 20
21.1098413844
 30
0.0
 10
251.7057203662
 20
21.1205276279
 30
0.0
 10
251.7542857057
 20
21.1490559792
 30
0.0
 10
251.8156565899
 20
21.2099062542
 30
0.0
 10
251.8645923593
 20
21.2869677947
 30
0.0
 10
251.913325901
 20
21.4122834299
 30
0.0
 10
251.93456609
 20
21.597033107
 30
0.0
 10
251.9018586163
 20
21.8302674837
 30
0.0
 10
251.8159783122
 20
22.060157918
 30
0.0
 10
251.6854700121
 20
22.2632077028
 30
0.0
 10
251.5236574372
 20
22.4189162247
 30
0.0
 10
251.3950870621
 20
22.4846678446
 30
0.0
 10
251.3314194148
 20
22.5018059858
 30
0.0
  0
SPLINE
  5
61D
100
AcDbEntity
  8
02___PRT_ALL_AXES
100
AcDbSpline
 62
7
  6
CONTINUOUS
 70
0
 71
3
 72
20
 73
16
 74
0
 42
0.0000001
 43
0.0000001
 44
0.0000000001
 40
0.0
 40
0.0
 40
0.0
 40
0.0
 40
0.0487183311
 40
0.0970151212
 40
0.1469269012
 40
0.2001209348
 40
0.2576027101
 40
0.3196813082
 40
0.3860714486
 40
0.4560325377
 40
0.6019511421
 40
0.7474028763
 40
0.8168179931
 40
0.8825057689
 40
1.0
 40
1.0
 40
1.0
 40
1.0
 10
252.3998695574
 20
20.9042293574
 30
0.0
 10
252.4492509025
 20
20.90798228
 30
0.0
 10
252.5472258831
 20
20.9282839724
 30
0.0
 10
252.6809999203
 20
20.9988338182
 30
0.0
 10
252.7940255686
 20
21.1058722098
 30
0.0
 10
252.8825891088
 20
21.2446593278
 30
0.0
 10
252.9445795151
 20
21.410128806
 30
0.0
 10
252.9786167269
 20
21.5969298823
 30
0.0
 10
252.9839717131
 20
21.7992850352
 30
0.0
 10
252.9523709646
 20
22.0852035456
 30
0.0
 10
252.8435301651
 20
22.4398727244
 30
0.0
 10
252.6576102927
 20
22.7602127603
 30
0.0
 10
252.4696842843
 20
22.9759902387
 30
0.0
 10
252.2758086864
 20
23.1446689401
 30
0.0
 10
252.1066040883
 20
23.234861306
 30
0.0
 10
251.9912727355
 20
23.2659063515
 30
0.0
  0
SPLINE
  5
61E
100
AcDbEntity
  8
0
100
AcDbSpline
 62
7
  6
CONTINUOUS
 70
0
 71
3
 72
20
 73
16
 74
0
 42
0.0000001
 43
0.0000001
 44
0.0000000001
 40
0.0
 40
0.0
 40
0.0
 40
0.0
 40
0.1147712215
 40
0.1785067627
 40
0.245795858
 40
0.3874534601
 40
0.5317560335
 40
0.6021728661
 40
0.6699745495
 40
0.7343337441
 40
0.7946976125
 40
0.8508854419
 40
0.903188285
 40
0.9524407825
 40
1.0
 40
1.0
 40
1.0
 40
1.0
 10
253.0135378437
 20
24.9094899097
 30
0.0
 10
253.2257380059
 20
24.8523695896
 30
0.0
 10
253.537994156
 20
24.6928014843
 30
0.0
 10
253.9021348802
 20
24.3940097762
 30
0.0
 10
254.2599115058
 20
24.0116273685
 30
0.0
 10
254.6286080827
 20
23.437407946
 30
0.0
 10
254.8695445307
 20
22.7929668348
 30
0.0
 10
254.9722828083
 20
22.2608118595
 30
0.0
 10
255.0002775307
 20
21.8729265424
 30
0.0
 10
254.9789740784
 20
21.503766059
 30
0.0
 10
254.9086948998
 20
21.1631443519
 30
0.0
 10
254.7908685877
 20
20.8602038249
 30
0.0
 10
254.6278091697
 20
20.6033159981
 30
0.0
 10
254.4232647643
 20
20.4004637656
 30
0.0
 10
254.2614189413
 20
20.3053149336
 30
0.0
 10
254.1776131268
 20
20.2696934237
 30
0.0
  0
SPLINE
  5
61F
100
AcDbEntity
  8
0
100
AcDbSpline
 62
7
  6
CONTINUOUS
 70
0
 71
3
 72
21
 73
17
 74
0
 42
0.0000001
 43
0.0000001
 44
0.0000000001
 40
0.0
 40
0.0
 40
0.0
 40
0.0
 40
0.1147449778
 40
0.1784660988
 40
0.2457398168
 40
0.3157784849
 40
0.3875933051
 40
0.5318630921
 40
0.6022639435
 40
0.6700501778
 40
0.7343946417
 40
0.7947446566
 40
0.8509195915
 40
0.9032104575
 40
0.9524517165
 40
1.0
 40
1.0
 40
1.0
 40
1.0
 10
255.5903495341
 20
26.4884071968
 30
0.0
 10
255.8449895988
 20
26.419862848
 30
0.0
 10
256.2197104251
 20
26.2283755104
 30
0.0
 10
256.6566391191
 20
25.8698383732
 30
0.0
 10
256.9733690381
 20
25.5314276052
 30
0.0
 10
257.2579008026
 20
25.1427723648
 30
0.0
 10
257.5848289449
 20
24.5710954808
 30
0.0
 10
257.8176007036
 20
23.9484684501
 30
0.0
 10
257.9408398657
 20
23.3100125148
 30
0.0
 10
257.9744413868
 20
22.8445252254
 30
0.0
 10
257.9488735117
 20
22.4015390833
 30
0.0
 10
257.8645375355
 20
21.9927923752
 30
0.0
 10
257.7231448781
 20
21.6292648626
 30
0.0
 10
257.5274731013
 20
21.3210005185
 30
0.0
 10
257.282020866
 20
21.0775761093
 30
0.0
 10
257.0878045105
 20
20.963401847
 30
0.0
 10
256.9872394327
 20
20.9206520559
 30
0.0
  0
SPLINE
  5
620
100
AcDbEntity
  8
0
100
AcDbSpline
 62
7
  6
CONTINUOUS
 70
0
 71
3
 72
17
 73
13
 74
0
 42
0.0000001
 43
0.0000001
 44
0.0000000001
 40
0.0
 40
0.0
 40
0.0
 40
0.0
 40
0.1098536251
 40
0.1694936572
 40
0.2319307319
 40
0.3633658644
 40
0.5000018925
 40
0.6366384286
 40
0.7680751502
 40
0.8305129138
 40
0.8901543059
 40
1.0
 40
1.0
 40
1.0
 40
1.0
 10
255.6373811921
 20
26.3320994231
 30
0.0
 10
255.8283164005
 20
26.267822913
 30
0.0
 10
256.1082531125
 20
26.1219872527
 30
0.0
 10
256.4463182327
 20
25.863288132
 30
0.0
 10
256.7837512526
 20
25.542159764
 30
0.0
 10
257.1577411838
 20
25.0603545383
 30
0.0
 10
257.5059188009
 20
24.4009626913
 30
0.0
 10
257.7391043021
 20
23.6926869109
 30
0.0
 10
257.8265065544
 20
23.0890553543
 30
0.0
 10
257.8235878855
 20
22.6232415984
 30
0.0
 10
257.775272398
 20
22.2003124802
 30
0.0
 10
257.6860519629
 20
21.8975510221
 30
0.0
 10
257.5998486851
 20
21.7154772509
 30
0.0
  0
SPLINE
  5
621
100
AcDbEntity
  8
0
100
AcDbSpline
 62
7
  6
CONTINUOUS
 70
0
 71
3
 72
14
 73
10
 74
0
 42
0.0000001
 43
0.0000001
 44
0.0000000001
 40
0.0
 40
0.0
 40
0.0
 40
0.0
 40
0.2609082303
 40
0.3835286975
 40
0.5032268086
 40
0.6224021255
 40
0.7435024912
 40
0.868794378
 40
1.0
 40
1.0
 40
1.0
 40
1.0
 10
257.5998486851
 20
21.7154772509
 30
0.0
 10
257.5259987603
 20
21.5594955454
 30
0.0
 10
257.3842933364
 20
21.3421488383
 30
0.0
 10
257.1341029442
 20
21.1202837662
 30
0.0
 10
256.9276089936
 20
20.9967624349
 30
0.0
 10
256.7022454331
 20
20.9154984128
 30
0.0
 10
256.4619757512
 20
20.877733815
 30
0.0
 10
256.2110777911
 20
20.883905937
 30
0.0
 10
256.043671238
 20
20.9161399393
 30
0.0
 10
255.9598668673
 20
20.9386985105
 30
0.0
  0
SPLINE
  5
622
100
AcDbEntity
  8
0
100
AcDbSpline
 62
7
  6
CONTINUOUS
 70
0
 71
3
 72
14
 73
10
 74
0
 42
0.0000001
 43
0.0000001
 44
0.0000000001
 40
0.0
 40
0.0
 40
0.0
 40
0.0
 40
0.2609526892
 40
0.3835800259
 40
0.5032754069
 40
0.6224408545
 40
0.74352762
 40
0.8688055827
 40
1.0
 40
1.0
 40
1.0
 40
1.0
 10
253.8874609453
 20
25.5870771551
 30
0.0
 10
253.9612566747
 20
25.7432612207
 30
0.0
 10
254.1029177331
 20
25.960915386
 30
0.0
 10
254.3531689205
 20
26.1831435526
 30
0.0
 10
254.5597436569
 20
26.3068796728
 30
0.0
 10
254.7852252804
 20
26.3883044604
 30
0.0
 10
255.0256420197
 20
26.4261702799
 30
0.0
 10
255.27670667
 20
26.4200378231
 30
0.0
 10
255.4442259513
 20
26.3877905089
 30
0.0
 10
255.528086447
 20
26.3652168298
 30
0.0
  0
SPLINE
  5
623
100
AcDbEntity
  8
02___PRT_ALL_AXES
100
AcDbSpline
 62
7
  6
CONTINUOUS
 70
0
 71
3
 72
17
 73
13
 74
0
 42
0.0000001
 43
0.0000001
 44
0.0000000001
 40
0.0
 40
0.0
 40
0.0
 40
0.0
 40
0.1148810437
 40
0.2457252392
 40
0.3875096509
 40
0.53194019
 40
0.6700308285
 40
0.7945232349
 40
0.8507575462
 40
0.9031036257
 40
0.9523986919
 40
1.0
 40
1.0
 40
1.0
 40
1.0
 10
251.4430867648
 20
21.0983960757
 30
0.0
 10
251.3794191175
 20
21.1155342169
 30
0.0
 10
251.2508487424
 20
21.1812858368
 30
0.0
 10
251.0890361675
 20
21.3369943587
 30
0.0
 10
250.9585278674
 20
21.5400441435
 30
0.0
 10
250.8726475633
 20
21.7699345778
 30
0.0
 10
250.8399400896
 20
22.0031689545
 30
0.0
 10
250.8611802786
 20
22.1879186316
 30
0.0
 10
250.9099138203
 20
22.3132342668
 30
0.0
 10
250.9588495897
 20
22.3902958073
 30
0.0
 10
251.020220474
 20
22.4511460823
 30
0.0
 10
251.0687858134
 20
22.4796744336
 30
0.0
 10
251.0939290584
 20
22.4903606771
 30
0.0
  0
SPLINE
  5
624
100
AcDbEntity
  8
0
100
AcDbSpline
 62
7
  6
CONTINUOUS
 70
0
 71
3
 72
11
 73
7
 74
0
 42
0.0000001
 43
0.0000001
 44
0.0000000001
 40
0.0
 40
0.0
 40
0.0
 40
0.0
 40
0.2439374331
 40
0.4965634539
 40
0.7509584293
 40
1.0
 40
1.0
 40
1.0
 40
1.0
 10
260.0059797311
 20
27.0244603527
 30
0.0
 10
260.1498967845
 20
26.868116706
 30
0.0
 10
260.4161056785
 20
26.5244608476
 30
0.0
 10
260.7360902111
 20
25.951366808
 30
0.0
 10
260.9723877337
 20
25.3342649986
 30
0.0
 10
261.0684747618
 20
24.9043331091
 30
0.0
 10
261.0987293305
 20
24.6895086532
 30
0.0
  0
SPLINE
  5
625
100
AcDbEntity
  8
02___PRT_ALL_AXES
100
AcDbSpline
 62
7
  6
CONTINUOUS
 70
0
 71
3
 72
18
 73
14
 74
0
 42
0.0000001
 43
0.0000001
 44
0.0000000001
 40
0.0
 40
0.0
 40
0.0
 40
0.0
 40
0.0470083601
 40
0.0951053412
 40
0.145236283
 40
0.1981038979
 40
0.2541312193
 40
0.3134690483
 40
0.4413324027
 40
0.579075553
 40
0.7218771451
 40
0.864047117
 40
1.0
 40
1.0
 40
1.0
 40
1.0
 10
256.7220368099
 20
21.3512209691
 30
0.0
 10
256.7889408195
 20
21.3796613937
 30
0.0
 10
256.9187124241
 20
21.4514156921
 30
0.0
 10
257.0906013357
 20
21.5980897819
 30
0.0
 10
257.2377558495
 20
21.7812278209
 30
0.0
 10
257.3576977484
 20
21.997123718
 30
0.0
 10
257.4486786413
 20
22.2418210954
 30
0.0
 10
257.5315472796
 20
22.6096857744
 30
0.0
 10
257.5511193994
 20
23.1163202395
 30
0.0
 10
257.4508940604
 20
23.7433235783
 30
0.0
 10
257.2348104659
 20
24.3638748463
 30
0.0
 10
256.9177255152
 20
24.9358480497
 30
0.0
 10
256.6432117431
 20
25.2711069439
 30
0.0
 10
256.4935337408
 20
25.4187604417
 30
0.0
  0
SPLINE
  5
626
100
AcDbEntity
  8
02___PRT_ALL_AXES
100
AcDbSpline
 62
7
  6
CONTINUOUS
 70
0
 71
3
 72
9
 73
5
 74
0
 42
0.0000001
 43
0.0000001
 44
0.0000000001
 40
0.0
 40
0.0
 40
0.0
 40
0.0
 40
0.2713581644
 40
1.0
 40
1.0
 40
1.0
 40
1.0
 10
256.4935337408
 20
25.4187604417
 30
0.0
 10
256.4224991264
 20
25.488834261
 30
0.0
 10
256.1484632766
 20
25.7331909804
 30
0.0
 10
255.8165838017
 20
25.9213317596
 30
0.0
 10
255.5578644071
 20
25.9909741871
 30
0.0
  0
SPLINE
  5
627
100
AcDbEntity
  8
02___PRT_ALL_AXES
100
AcDbSpline
 62
7
  6
CONTINUOUS
 70
0
 71
3
 72
11
 73
7
 74
0
 42
0.0000001
 43
0.0000001
 44
0.0000000001
 40
0.0
 40
0.0
 40
0.0
 40
0.0
 40
0.2446499024
 40
0.4868019591
 40
0.7359942305
 40
1.0
 40
1.0
 40
1.0
 40
1.0
 10
250.8758356194
 20
22.6438041937
 30
0.0
 10
250.9041575747
 20
22.6690363408
 30
0.0
 10
250.9670757747
 20
22.7125098738
 30
0.0
 10
251.07602954
 20
22.7506465295
 30
0.0
 10
251.1940294043
 20
22.7594302721
 30
0.0
 10
251.2732826803
 20
22.7463471662
 30
0.0
 10
251.3128081898
 20
22.7357076375
 30
0.0
  0
SPLINE
  5
628
100
AcDbEntity
  8
0
100
AcDbSpline
 62
7
  6
CONTINUOUS
 70
0
 71
3
 72
10
 73
6
 74
0
 42
0.0000001
 43
0.0000001
 44
0.0000000001
 40
0.0
 40
0.0
 40
0.0
 40
0.0
 40
0.2293746319
 40
0.5993780081
 40
1.0
 40
1.0
 40
1.0
 40
1.0
 10
253.3086102769
 20
20.2953878303
 30
0.0
 10
253.2291770616
 20
20.3167697673
 30
0.0
 10
253.0260712972
 20
20.3900315295
 30
0.0
 10
252.7141590281
 20
20.5717843584
 30
0.0
 10
252.5030554201
 20
20.7524048064
 30
0.0
 10
252.4012314693
 20
20.8537677477
 30
0.0
  0
SPLINE
  5
629
100
AcDbEntity
  8
02___PRT_ALL_AXES
100
AcDbSpline
 62
7
  6
CONTINUOUS
 70
0
 71
3
 72
9
 73
5
 74
0
 42
0.0000001
 43
0.0000001
 44
0.0000000001
 40
0.0
 40
0.0
 40
0.0
 40
0.0
 40
0.4834840567
 40
1.0
 40
1.0
 40
1.0
 40
1.0
 10
252.6801203039
 20
23.599213053
 30
0.0
 10
252.7349753389
 20
23.6225269343
 30
0.0
 10
252.8583732979
 20
23.6495747494
 30
0.0
 10
252.982843614
 20
23.6333425081
 30
0.0
 10
253.0443308817
 20
23.6167912843
 30
0.0
  0
SPLINE
  5
62A
100
AcDbEntity
  8
0
100
AcDbSpline
 62
7
  6
CONTINUOUS
 70
0
 71
3
 72
10
 73
6
 74
0
 42
0.0000001
 43
0.0000001
 44
0.0000000001
 40
0.0
 40
0.0
 40
0.0
 40
0.0
 40
0.2400504609
 40
0.484483867
 40
1.0
 40
1.0
 40
1.0
 40
1.0
 10
252.2216870608
 20
24.8712533619
 30
0.0
 10
252.2810138622
 20
24.8964701115
 30
0.0
 10
252.4057310167
 20
24.9364842969
 30
0.0
 10
252.6729904249
 20
24.9719679164
 30
0.0
 10
252.8798586218
 20
24.9454738583
 30
0.0
 10
253.0135378437
 20
24.9094899097
 30
0.0
  0
SPLINE
  5
62B
100
AcDbEntity
  8
02___PRT_ALL_AXES
100
AcDbSpline
 62
7
  6
CONTINUOUS
 70
0
 71
3
 72
10
 73
6
 74
0
 42
0.0000001
 43
0.0000001
 44
0.0000000001
 40
0.0
 40
0.0
 40
0.0
 40
0.0
 40
0.2400494437
 40
0.4844800196
 40
1.0
 40
1.0
 40
1.0
 40
1.0
 10
254.7659165045
 20
25.9526943713
 30
0.0
 10
254.8252498645
 20
25.9779165658
 30
0.0
 10
254.9499753072
 20
26.0179568934
 30
0.0
 10
255.2172701114
 20
26.0534541931
 30
0.0
 10
255.424166687
 20
26.0269631156
 30
0.0
 10
255.5578644071
 20
25.9909741871
 30
0.0
  0
SPLINE
  5
62C
100
AcDbEntity
  8
0
100
AcDbSpline
 62
7
  6
CONTINUOUS
 70
0
 71
3
 72
11
 73
7
 74
0
 42
0.0000001
 43
0.0000001
 44
0.0000000001
 40
0.0
 40
0.0
 40
0.0
 40
0.0
 40
0.2396751233
 40
0.4837295658
 40
0.7361633585
 40
1.0
 40
1.0
 40
1.0
 40
1.0
 10
254.6401290358
 20
26.4425226969
 30
0.0
 10
254.7113199619
 20
26.4727856598
 30
0.0
 10
254.8609326603
 20
26.5208158965
 30
0.0
 10
255.0976311976
 20
26.552134664
 30
0.0
 10
255.3439176756
 20
26.542798729
 30
0.0
 10
255.5081219571
 20
26.5105413241
 30
0.0
 10
255.5903495341
 20
26.4884071968
 30
0.0
  0
SPLINE
  5
62D
100
AcDbEntity
  8
0
100
AcDbSpline
 62
7
  6
CONTINUOUS
 70
0
 71
3
 72
22
 73
18
 74
0
 42
0.0000001
 43
0.0000001
 44
0.0000000001
 40
0.0
 40
0.0
 40
0.0
 40
0.0
 40
0.1198385794
 40
0.1873383923
 40
0.2586789487
 40
0.3325445605
 40
0.4073792836
 40
0.4815405601
 40
0.5534458945
 40
0.6217233969
 40
0.6853762825
 40
0.7439670348
 40
0.7978144752
 40
0.8481423746
 40
0.8970181286
 40
0.946907168
 40
1.0
 40
1.0
 40
1.0
 40
1.0
 10
252.9512747566
 20
24.7862995428
 30
0.0
 10
253.1937600714
 20
24.7210270279
 30
0.0
 10
253.5481249191
 20
24.522786422
 30
0.0
 10
253.945327122
 20
24.1534485571
 30
0.0
 10
254.2253382735
 20
23.8042853864
 30
0.0
 10
254.4635241462
 20
23.4080817716
 30
0.0
 10
254.6516679506
 20
22.9792546828
 30
0.0
 10
254.7825832364
 20
22.5339218148
 30
0.0
 10
254.8513890635
 20
22.0886388647
 30
0.0
 10
254.8553790944
 20
21.6598770057
 30
0.0
 10
254.7940578124
 20
21.2633214955
 30
0.0
 10
254.6688360264
 20
20.9134235701
 30
0.0
 10
254.4826939507
 20
20.6234734916
 30
0.0
 10
254.2406824127
 20
20.4063528172
 30
0.0
 10
253.9521854804
 20
20.2741001007
 30
0.0
 10
253.6320911621
 20
20.2336682271
 30
0.0
 10
253.4160400553
 20
20.2664697402
 30
0.0
 10
253.3086102769
 20
20.2953878303
 30
0.0
  0
SPLINE
  5
62E
100
AcDbEntity
  8
02___PRT_ALL_AXES
100
AcDbSpline
 62
7
  6
CONTINUOUS
 70
0
 71
3
 72
18
 73
14
 74
0
 42
0.0000001
 43
0.0000001
 44
0.0000000001
 40
0.0
 40
0.0
 40
0.0
 40
0.0
 40
0.0475878714
 40
0.0968683191
 40
0.149201059
 40
0.2054212326
 40
0.3298785988
 40
0.4679298989
 40
0.6123175605
 40
0.7540583604
 40
0.8213883357
 40
0.885157545
 40
1.0
 40
1.0
 40
1.0
 40
1.0
 10
253.5797647296
 20
21.4824743201
 30
0.0
 10
253.6183171981
 20
21.4988594645
 30
0.0
 10
253.6927757471
 20
21.5426147382
 30
0.0
 10
253.7868702168
 20
21.6359224088
 30
0.0
 10
253.8618963133
 20
21.7540901822
 30
0.0
 10
253.9365934289
 20
21.9462512172
 30
0.0
 10
253.9691604968
 20
22.229524008
 30
0.0
 10
253.9189869947
 20
22.5871634746
 30
0.0
 10
253.7873084139
 20
22.9395604761
 30
0.0
 10
253.6176692602
 20
23.2037695067
 30
0.0
 10
253.4530912983
 20
23.3796553958
 30
0.0
 10
253.2855902846
 20
23.5171145781
 30
0.0
 10
253.1419478919
 20
23.5905146089
 30
0.0
 10
253.0443308817
 20
23.6167912843
 30
0.0
  0
SPLINE
  5
62F
100
AcDbEntity
  8
02___PRT_ALL_AXES
100
AcDbSpline
 62
7
  6
CONTINUOUS
 70
0
 71
3
 72
9
 73
5
 74
0
 42
0.0000001
 43
0.0000001
 44
0.0000000001
 40
0.0
 40
0.0
 40
0.0
 40
0.0
 40
0.5165030921
 40
1.0
 40
1.0
 40
1.0
 40
1.0
 10
251.4430867648
 20
21.0983960757
 30
0.0
 10
251.4831792605
 20
21.0876039248
 30
0.0
 10
251.5643392046
 20
21.0770211664
 30
0.0
 10
251.6448073734
 20
21.0946387232
 30
0.0
 10
251.6805771212
 20
21.1098413844
 30
0.0
  0
SPLINE
  5
630
100
AcDbEntity
  8
0
100
AcDbSpline
 62
7
  6
CONTINUOUS
 70
0
 71
3
 72
15
 73
11
 74
0
 42
0.0000001
 43
0.0000001
 44
0.0000000001
 40
0.0
 40
0.0
 40
0.0
 40
0.0
 40
0.1510425128
 40
0.2916246501
 40
0.4213381752
 40
0.5413477539
 40
0.6545938883
 40
0.7655387583
 40
0.8792180115
 40
1.0
 40
1.0
 40
1.0
 40
1.0
 10
251.4095181919
 20
23.186923185
 30
0.0
 10
251.4073848457
 20
23.318938696
 30
0.0
 10
251.4210202832
 20
23.5746499159
 30
0.0
 10
251.5004562374
 20
23.9361627996
 30
0.0
 10
251.6364137486
 20
24.251753086
 30
0.0
 10
251.8257782567
 20
24.510248941
 30
0.0
 10
252.0634284146
 20
24.7010028948
 30
0.0
 10
252.3405910923
 20
24.8145717719
 30
0.0
 10
252.6445929276
 20
24.846016867
 30
0.0
 10
252.8493230811
 20
24.8137430298
 30
0.0
 10
252.9512747566
 20
24.7862995428
 30
0.0
  0
SPLINE
  5
631
100
AcDbEntity
  8
02___PRT_ALL_AXES
100
AcDbSpline
 62
7
  6
CONTINUOUS
 70
0
 71
3
 72
19
 73
15
 74
0
 42
0.0000001
 43
0.0000001
 44
0.0000000001
 40
0.0
 40
0.0
 40
0.0
 40
0.0
 40
0.0487348844
 40
0.0970469669
 40
0.1469750596
 40
0.200185795
 40
0.2576853644
 40
0.3197830608
 40
0.4558535409
 40
0.6018203439
 40
0.7473196758
 40
0.8167580203
 40
0.8824653799
 40
1.0
 40
1.0
 40
1.0
 40
1.0
 10
251.6396575117
 20
20.8463633114
 30
0.0
 10
251.6791638507
 20
20.8493630366
 30
0.0
 10
251.7575467528
 20
20.8655977463
 30
0.0
 10
251.864569329
 20
20.9220351781
 30
0.0
 10
251.954995179
 20
21.0076624989
 30
0.0
 10
252.0258454271
 20
21.1186898308
 30
0.0
 10
252.075452259
 20
21.2510711961
 30
0.0
 10
252.1128290813
 20
21.4564288373
 30
0.0
 10
252.0974808255
 20
21.7397727284
 30
0.0
 10
251.9946599571
 20
22.0747188579
 30
0.0
 10
251.8458805666
 20
22.3311614559
 30
0.0
 10
251.6955417319
 20
22.5037627944
 30
0.0
 10
251.5404422402
 20
22.6387176408
 30
0.0
 10
251.4050761106
 20
22.710870837
 30
0.0
 10
251.3128081898
 20
22.7357076375
 30
0.0
  0
SPLINE
  5
632
100
AcDbEntity
  8
0
100
AcDbSpline
 62
7
  6
CONTINUOUS
 70
0
 71
3
 72
15
 73
11
 74
0
 42
0.0000001
 43
0.0000001
 44
0.0000000001
 40
0.0
 40
0.0
 40
0.0
 40
0.0
 40
0.1014458095
 40
0.2169636183
 40
0.3462459466
 40
0.4848444109
 40
0.6260864662
 40
0.7627303446
 40
0.8885331642
 40
1.0
 40
1.0
 40
1.0
 40
1.0
 10
268.6463060145
 20
41.9359436981
 30
0.0
 10
268.7293738475
 20
42.0182117015
 30
0.0
 10
268.867270819
 20
42.2355074854
 30
0.0
 10
268.959528401
 20
42.6288934069
 30
0.0
 10
268.9496819428
 20
43.0745882337
 30
0.0
 10
268.8394584053
 20
43.5362656531
 30
0.0
 10
268.638934367
 20
43.9756234516
 30
0.0
 10
268.3646069157
 20
44.3555880205
 30
0.0
 10
268.0395453822
 20
44.6441237892
 30
0.0
 10
267.7886480774
 20
44.7660454703
 30
0.0
 10
267.6646033306
 20
44.7994359987
 30
0.0
  0
SPLINE
  5
633
100
AcDbEntity
  8
02___PRT_ALL_AXES
100
AcDbSpline
 62
7
  6
CONTINUOUS
 70
0
 71
3
 72
9
 73
5
 74
0
 42
0.0000001
 43
0.0000001
 44
0.0000000001
 40
0.0
 40
0.0
 40
0.0
 40
0.0
 40
0.5165159433
 40
1.0
 40
1.0
 40
1.0
 40
1.0
 10
270.0503959758
 20
46.5147905067
 30
0.0
 10
269.9247480809
 20
46.5486125726
 30
0.0
 10
269.6703956958
 20
46.5817828049
 30
0.0
 10
269.4182346493
 20
46.5265111827
 30
0.0
 10
269.3061395776
 20
46.4788697731
 30
0.0
  0
SPLINE
  5
634
100
AcDbEntity
  8
02___PRT_ALL_AXES
100
AcDbSpline
 62
7
  6
CONTINUOUS
 70
0
 71
3
 72
18
 73
14
 74
0
 42
0.0000001
 43
0.0000001
 44
0.0000000001
 40
0.0
 40
0.0
 40
0.0
 40
0.0
 40
0.114842455
 40
0.1786116643
 40
0.2459416396
 40
0.3876824395
 40
0.5320701011
 40
0.6701214012
 40
0.7945787674
 40
0.850798941
 40
0.9031316809
 40
0.9524121286
 40
1.0
 40
1.0
 40
1.0
 40
1.0
 10
270.0503959758
 20
46.5147905067
 30
0.0
 10
270.2498742141
 20
46.4610946917
 30
0.0
 10
270.5434043208
 20
46.3111033245
 30
0.0
 10
270.8856890011
 20
46.0302084736
 30
0.0
 10
271.2220004884
 20
45.6707894829
 30
0.0
 10
271.5686544111
 20
45.1308840726
 30
0.0
 10
271.8377367284
 20
44.4107684608
 30
0.0
 10
271.9402651893
 20
43.6799399854
 30
0.0
 10
271.8737150939
 20
43.1010781957
 30
0.0
 10
271.721073162
 20
42.708401298
 30
0.0
 10
271.5677589649
 20
42.466928022
 30
0.0
 10
271.3754789617
 20
42.2762558256
 30
0.0
 10
271.2233245353
 20
42.1868428749
 30
0.0
 10
271.1445434042
 20
42.1533601884
 30
0.0
  0
SPLINE
  5
635
100
AcDbEntity
  8
02___PRT_ALL_AXES
100
AcDbSpline
 62
7
  6
CONTINUOUS
 70
0
 71
3
 72
9
 73
5
 74
0
 42
0.0000001
 43
0.0000001
 44
0.0000000001
 40
0.0
 40
0.0
 40
0.0
 40
0.0
 40
0.4834840567
 40
1.0
 40
1.0
 40
1.0
 40
1.0
 10
268.7047782065
 20
41.1163204703
 30
0.0
 10
268.5926831348
 20
41.0686790608
 30
0.0
 10
268.3405220883
 20
41.0134074385
 30
0.0
 10
268.0861697032
 20
41.0465776709
 30
0.0
 10
267.9605218083
 20
41.0803997368
 30
0.0
  0
SPLINE
  5
636
100
AcDbEntity
  8
02___PRT_ALL_AXES
100
AcDbSpline
 62
7
  6
CONTINUOUS
 70
0
 71
3
 72
18
 73
14
 74
0
 42
0.0000001
 43
0.0000001
 44
0.0000000001
 40
0.0
 40
0.0
 40
0.0
 40
0.0
 40
0.0475878714
 40
0.0968683191
 40
0.149201059
 40
0.2054212326
 40
0.3298785988
 40
0.4679298989
 40
0.6123175605
 40
0.7540583604
 40
0.8213883357
 40
0.885157545
 40
1.0
 40
1.0
 40
1.0
 40
1.0
 10
266.8663743799
 20
45.4418300551
 30
0.0
 10
266.7875932488
 20
45.4083473686
 30
0.0
 10
266.6354388224
 20
45.3189344179
 30
0.0
 10
266.4431588191
 20
45.1282622215
 30
0.0
 10
266.289844622
 20
44.8867889455
 30
0.0
 10
266.1372026902
 20
44.4941120478
 30
0.0
 10
266.0706525947
 20
43.915250258
 30
0.0
 10
266.1731810557
 20
43.1844217827
 30
0.0
 10
266.442263373
 20
42.4643061709
 30
0.0
 10
266.7889172957
 20
41.9244007606
 30
0.0
 10
267.125228783
 20
41.5649817699
 30
0.0
 10
267.4675134632
 20
41.284086919
 30
0.0
 10
267.76104357
 20
41.1340955518
 30
0.0
 10
267.9605218083
 20
41.0803997368
 30
0.0
  0
SPLINE
  5
637
100
AcDbEntity
  8
0
100
AcDbSpline
 62
7
  6
CONTINUOUS
 70
0
 71
3
 72
11
 73
7
 74
0
 42
0.0000001
 43
0.0000001
 44
0.0000000001
 40
0.0
 40
0.0
 40
0.0
 40
0.0
 40
0.263558654
 40
0.5118707323
 40
0.7538231259
 40
1.0
 40
1.0
 40
1.0
 40
1.0
 10
267.9065492558
 20
41.7587145267
 30
0.0
 10
267.9740966247
 20
41.7405320369
 30
0.0
 10
268.109680251
 20
41.7188527916
 30
0.0
 10
268.3112025876
 20
41.7378766575
 30
0.0
 10
268.4956108944
 20
41.8099808205
 30
0.0
 10
268.5998818096
 20
41.8899664947
 30
0.0
 10
268.6463060145
 20
41.9359436981
 30
0.0
  0
SPLINE
  5
638
100
AcDbEntity
  8
0
100
AcDbSpline
 62
7
  6
CONTINUOUS
 70
0
 71
3
 72
13
 73
9
 74
0
 42
0.0000001
 43
0.0000001
 44
0.0000000001
 40
0.0
 40
0.0
 40
0.0
 40
0.0
 40
0.2278517489
 40
0.3602037314
 40
0.4986539375
 40
0.6373189647
 40
0.77028182
 40
1.0
 40
1.0
 40
1.0
 40
1.0
 10
268.1010267785
 20
44.5730894749
 30
0.0
 10
268.0110384348
 20
44.4187387197
 30
0.0
 10
267.9589744063
 20
44.1231756268
 30
0.0
 10
268.0068259604
 20
43.7352993427
 30
0.0
 10
268.1041383573
 20
43.4270307176
 30
0.0
 10
268.2551550587
 20
43.1407025898
 30
0.0
 10
268.498408524
 20
42.8320612883
 30
0.0
 10
268.7456537852
 20
42.6593092698
 30
0.0
 10
268.9195932682
 20
42.6124880106
 30
0.0
  0
SPLINE
  5
639
100
AcDbEntity
  8
02___PRT_ALL_AXES
100
AcDbSpline
 62
7
  6
CONTINUOUS
 70
0
 71
3
 72
9
 73
5
 74
0
 42
0.0000001
 43
0.0000001
 44
0.0000000001
 40
0.0
 40
0.0
 40
0.0
 40
0.0
 40
0.5165159433
 40
1.0
 40
1.0
 40
1.0
 40
1.0
 10
267.610630778
 20
45.4777507886
 30
0.0
 10
267.4849828832
 20
45.5115728545
 30
0.0
 10
267.2306304981
 20
45.5447430869
 30
0.0
 10
266.9784694515
 20
45.4894714646
 30
0.0
 10
266.8663743799
 20
45.4418300551
 30
0.0
  0
SPLINE
  5
63A
100
AcDbEntity
  8
0
100
AcDbSpline
 62
7
  6
CONTINUOUS
 70
0
 71
3
 72
19
 73
15
 74
0
 42
0.0000001
 43
0.0000001
 44
0.0000000001
 40
0.0
 40
0.0
 40
0.0
 40
0.0
 40
0.0491931166
 40
0.0975504028
 40
0.1471944324
 40
0.1999317555
 40
0.2569140486
 40
0.3185602128
 40
0.4541360516
 40
0.6002342833
 40
0.7462795903
 40
0.816043843
 40
0.8820544225
 40
1.0
 40
1.0
 40
1.0
 40
1.0
 10
267.4158782108
 20
44.8308957479
 30
0.0
 10
267.3502512153
 20
44.8293800468
 30
0.0
 10
267.2196652338
 20
44.8096507737
 30
0.0
 10
267.0390605355
 20
44.7261319454
 30
0.0
 10
266.8850387635
 20
44.5929786147
 30
0.0
 10
266.7630728908
 20
44.4163906367
 30
0.0
 10
266.676186809
 20
44.2031972065
 30
0.0
 10
266.607763565
 20
43.8693805775
 30
0.0
 10
266.6260143271
 20
43.4047302022
 30
0.0
 10
266.7892908132
 20
42.8529019559
 30
0.0
 10
267.0310488115
 20
42.4288858644
 30
0.0
 10
267.2771668187
 20
42.1429035892
 30
0.0
 10
267.5317206238
 20
41.9192481157
 30
0.0
 10
267.7545696272
 20
41.7996246034
 30
0.0
 10
267.9065492558
 20
41.7587145267
 30
0.0
  0
SPLINE
  5
63B
100
AcDbEntity
  8
02___PRT_ALL_AXES
100
AcDbSpline
 62
7
  6
CONTINUOUS
 70
0
 71
3
 72
18
 73
14
 74
0
 42
0.0000001
 43
0.0000001
 44
0.0000000001
 40
0.0
 40
0.0
 40
0.0
 40
0.0
 40
0.114842455
 40
0.1786116643
 40
0.2459416396
 40
0.3876824395
 40
0.5320701011
 40
0.6701214012
 40
0.7945787674
 40
0.850798941
 40
0.9031316809
 40
0.9524121286
 40
1.0
 40
1.0
 40
1.0
 40
1.0
 10
267.610630778
 20
45.4777507886
 30
0.0
 10
267.8101090164
 20
45.4240549736
 30
0.0
 10
268.1036391231
 20
45.2740636064
 30
0.0
 10
268.4459238033
 20
44.9931687555
 30
0.0
 10
268.7822352907
 20
44.6337497648
 30
0.0
 10
269.1288892133
 20
44.0938443545
 30
0.0
 10
269.3979715307
 20
43.3737287427
 30
0.0
 10
269.5004999916
 20
42.6429002674
 30
0.0
 10
269.4339498962
 20
42.0640384776
 30
0.0
 10
269.2813079643
 20
41.6713615799
 30
0.0
 10
269.1279937672
 20
41.4298883039
 30
0.0
 10
268.935713764
 20
41.2392161075
 30
0.0
 10
268.7835593376
 20
41.1498031568
 30
0.0
 10
268.7047782065
 20
41.1163204703
 30
0.0
  0
SPLINE
  5
63C
100
AcDbEntity
  8
0
100
AcDbSpline
 62
7
  6
CONTINUOUS
 70
0
 71
3
 72
9
 73
5
 74
0
 42
0.0000001
 43
0.0000001
 44
0.0000000001
 40
0.0
 40
0.0
 40
0.0
 40
0.0
 40
0.5107558095
 40
1.0
 40
1.0
 40
1.0
 40
1.0
 10
287.956492631
 20
54.3826411969
 30
0.0
 10
287.851132923
 20
54.3972627825
 30
0.0
 10
287.6403073466
 20
54.4016966314
 30
0.0
 10
287.4357571123
 20
54.3480032658
 30
0.0
 10
287.3419898986
 20
54.3081388523
 30
0.0
  0
SPLINE
  5
63D
100
AcDbEntity
  8
0
100
AcDbSpline
 62
7
  6
CONTINUOUS
 70
0
 71
3
 72
11
 73
7
 74
0
 42
0.0000001
 43
0.0000001
 44
0.0000000001
 40
0.0
 40
0.0
 40
0.0
 40
0.0
 40
0.2625607791
 40
0.5102227637
 40
0.7524275558
 40
1.0
 40
1.0
 40
1.0
 40
1.0
 10
286.3813477525
 20
53.908081135
 30
0.0
 10
286.4415242231
 20
54.0135706151
 30
0.0
 10
286.5811991968
 20
54.2070714824
 30
0.0
 10
286.8536083297
 20
54.4304426371
 30
0.0
 10
287.171523748
 20
54.566138009
 30
0.0
 10
287.3997165313
 20
54.5934522667
 30
0.0
 10
287.51422777
 20
54.5927096746
 30
0.0
  0
SPLINE
  5
63E
100
AcDbEntity
  8
0
100
AcDbSpline
 62
7
  6
CONTINUOUS
 70
0
 71
3
 72
14
 73
10
 74
0
 42
0.0000001
 43
0.0000001
 44
0.0000000001
 40
0.0
 40
0.0
 40
0.0
 40
0.0
 40
0.2870478811
 40
0.4208926565
 40
0.5477396995
 40
0.6678836319
 40
0.7822267269
 40
0.8922647746
 40
1.0
 40
1.0
 40
1.0
 40
1.0
 10
296.0645527895
 20
47.2455802399
 30
0.0
 10
296.0853586299
 20
46.9840971597
 30
0.0
 10
296.1540299801
 20
46.601201011
 30
0.0
 10
296.3327862657
 20
46.1324700808
 30
0.0
 10
296.5003336292
 20
45.8260211946
 30
0.0
 10
296.7016672481
 20
45.5625423824
 30
0.0
 10
296.9335209951
 20
45.3470653168
 30
0.0
 10
297.1916959569
 20
45.1841439788
 30
0.0
 10
297.3791081179
 20
45.112636578
 30
0.0
 10
297.4741729393
 20
45.0870405114
 30
0.0
  0
SPLINE
  5
63F
100
AcDbEntity
  8
0
100
AcDbSpline
 62
7
  6
CONTINUOUS
 70
0
 71
3
 72
14
 73
10
 74
0
 42
0.0000001
 43
0.0000001
 44
0.0000000001
 40
0.0
 40
0.0
 40
0.0
 40
0.0
 40
0.2870478811
 40
0.4208926565
 40
0.5477396995
 40
0.6678836319
 40
0.7822267269
 40
0.8922647746
 40
1.0
 40
1.0
 40
1.0
 40
1.0
 10
295.3163815439
 20
56.648426638
 30
0.0
 10
295.3371873844
 20
56.3869435578
 30
0.0
 10
295.4058587346
 20
56.0040474091
 30
0.0
 10
295.5846150201
 20
55.5353164789
 30
0.0
 10
295.7521623837
 20
55.2288675927
 30
0.0
 10
295.9534960025
 20
54.9653887804
 30
0.0
 10
296.1853497496
 20
54.7499117149
 30
0.0
 10
296.4435247113
 20
54.5869903769
 30
0.0
 10
296.6309368724
 20
54.5154829761
 30
0.0
 10
296.7260016937
 20
54.4898869095
 30
0.0
  0
LINE
  5
640
100
AcDbEntity
  8
0
100
AcDbLine
 62
7
  6
CONTINUOUS
 10
288.7074318502
 20
49.2442307908
 11
288.6947345015
 21
49.4501027465
  0
SPLINE
  5
641
100
AcDbEntity
  8
0
100
AcDbSpline
 62
7
  6
CONTINUOUS
 70
0
 71
3
 72
12
 73
8
 74
0
 42
0.0000001
 43
0.0000001
 44
0.0000000001
 40
0.0
 40
0.0
 40
0.0
 40
0.0
 40
0.1087380715
 40
0.2195620294
 40
0.4537419986
 40
0.7131349456
 40
1.0
 40
1.0
 40
1.0
 40
1.0
 10
289.297915184
 20
49.7065798505
 30
0.0
 10
289.3585735454
 20
49.7323682888
 30
0.0
 10
289.476464607
 20
49.7960663527
 30
0.0
 10
289.6916988221
 20
49.9693839384
 30
0.0
 10
289.9110573549
 20
50.2714745308
 30
0.0
 10
290.0707581877
 20
50.7218050662
 30
0.0
 10
290.1081901224
 20
51.0536405351
 30
0.0
 10
290.1118207162
 20
51.2274887578
 30
0.0
  0
SPLINE
  5
642
100
AcDbEntity
  8
0
100
AcDbSpline
 62
7
  6
CONTINUOUS
 70
0
 71
3
 72
9
 73
5
 74
0
 42
0.0000001
 43
0.0000001
 44
0.0000000001
 40
0.0
 40
0.0
 40
0.0
 40
0.0
 40
0.2643750394
 40
1.0
 40
1.0
 40
1.0
 40
1.0
 10
288.9577578821
 20
53.8786690328
 30
0.0
 10
288.9072821097
 20
53.9233588464
 30
0.0
 10
288.7103449238
 20
54.0852236749
 30
0.0
 10
288.4874108046
 20
54.2174633148
 30
0.0
 10
288.3130537501
 20
54.286661605
 30
0.0
  0
SPLINE
  5
643
100
AcDbEntity
  8
0
100
AcDbSpline
 62
7
  6
CONTINUOUS
 70
0
 71
3
 72
11
 73
7
 74
0
 42
0.0000001
 43
0.0000001
 44
0.0000000001
 40
0.0
 40
0.0
 40
0.0
 40
0.0
 40
0.2449793898
 40
0.4999958216
 40
0.7550156368
 40
1.0
 40
1.0
 40
1.0
 40
1.0
 10
289.0057731731
 20
53.8412854863
 30
0.0
 10
289.170095388
 20
53.6713213404
 30
0.0
 10
289.4699217564
 20
53.2888971886
 30
0.0
 10
289.8125849007
 20
52.6420130659
 30
0.0
 10
290.0406224477
 20
51.9463996971
 30
0.0
 10
290.1079791143
 20
51.4651334549
 30
0.0
 10
290.1163353482
 20
51.2288665637
 30
0.0
  0
SPLINE
  5
644
100
AcDbEntity
  8
0
100
AcDbSpline
 62
7
  6
CONTINUOUS
 70
0
 71
3
 72
16
 73
12
 74
0
 42
0.0000001
 43
0.0000001
 44
0.0000000001
 40
0.0
 40
0.0
 40
0.0
 40
0.0
 40
0.0482447667
 40
0.0974190909
 40
0.2013044224
 40
0.3162095562
 40
0.4427672059
 40
0.5788033141
 40
0.7203150577
 40
0.8623783681
 40
1.0
 40
1.0
 40
1.0
 40
1.0
 10
299.1510713612
 20
51.3152360202
 30
0.0
 10
299.0609267945
 20
51.3395073153
 30
0.0
 10
298.8736931302
 20
51.3710628023
 30
0.0
 10
298.4822925112
 20
51.3627681309
 30
0.0
 10
297.9759801544
 20
51.2097721222
 30
0.0
 10
297.4143923397
 20
50.8341559064
 30
0.0
 10
296.9152537992
 20
50.2929981226
 30
0.0
 10
296.5072573585
 20
49.6206009801
 30
0.0
 10
296.2143478641
 20
48.8588782588
 30
0.0
 10
296.0546180441
 20
48.0558265702
 30
0.0
 10
296.0434303121
 20
47.5110427419
 30
0.0
 10
296.0645527895
 20
47.2455802399
 30
0.0
  0
SPLINE
  5
645
100
AcDbEntity
  8
0
100
AcDbSpline
 62
7
  6
CONTINUOUS
 70
0
 71
3
 72
16
 73
12
 74
0
 42
0.0000001
 43
0.0000001
 44
0.0000000001
 40
0.0
 40
0.0
 40
0.0
 40
0.0
 40
0.0482447667
 40
0.0974190909
 40
0.2013044224
 40
0.3162095562
 40
0.4427672059
 40
0.5788033141
 40
0.7203150577
 40
0.8623783681
 40
1.0
 40
1.0
 40
1.0
 40
1.0
 10
298.4029001157
 20
60.7180824183
 30
0.0
 10
298.312755549
 20
60.7423537134
 30
0.0
 10
298.1255218847
 20
60.7739092004
 30
0.0
 10
297.7341212657
 20
60.7656145289
 30
0.0
 10
297.2278089088
 20
60.6126185203
 30
0.0
 10
296.6662210942
 20
60.2370023045
 30
0.0
 10
296.1670825537
 20
59.6958445206
 30
0.0
 10
295.7590861129
 20
59.0234473782
 30
0.0
 10
295.4661766185
 20
58.2617246569
 30
0.0
 10
295.3064467986
 20
57.4586729683
 30
0.0
 10
295.2952590665
 20
56.91388914
 30
0.0
 10
295.3163815439
 20
56.648426638
 30
0.0
  0
SPLINE
  5
646
100
AcDbEntity
  8
0
100
AcDbSpline
 62
7
  6
CONTINUOUS
 70
0
 71
3
 72
14
 73
10
 74
0
 42
0.0000001
 43
0.0000001
 44
0.0000000001
 40
0.0
 40
0.0
 40
0.0
 40
0.0
 40
0.2870478811
 40
0.4208926565
 40
0.5477396995
 40
0.6678836319
 40
0.7822267269
 40
0.8922647746
 40
1.0
 40
1.0
 40
1.0
 40
1.0
 10
299.8125202655
 20
58.5595426899
 30
0.0
 10
299.791714425
 20
58.82102577
 30
0.0
 10
299.7230430749
 20
59.2039219187
 30
0.0
 10
299.5442867893
 20
59.6726528489
 30
0.0
 10
299.3767394258
 20
59.9791017351
 30
0.0
 10
299.1754058069
 20
60.2425805474
 30
0.0
 10
298.9435520599
 20
60.458057613
 30
0.0
 10
298.6853770981
 20
60.620978951
 30
0.0
 10
298.4979649371
 20
60.6924863517
 30
0.0
 10
298.4029001157
 20
60.7180824183
 30
0.0
  0
SPLINE
  5
647
100
AcDbEntity
  8
0
100
AcDbSpline
 62
7
  6
CONTINUOUS
 70
0
 71
3
 72
9
 73
5
 74
0
 42
0.0000001
 43
0.0000001
 44
0.0000000001
 40
0.0
 40
0.0
 40
0.0
 40
0.0
 40
0.2382386002
 40
1.0
 40
1.0
 40
1.0
 40
1.0
 10
288.3522757235
 20
54.3526886721
 30
0.0
 10
288.4099969561
 20
54.3206113355
 30
0.0
 10
288.6465036454
 20
54.1756308418
 30
0.0
 10
288.8590105298
 20
53.9930871605
 30
0.0
 10
289.0057731731
 20
53.8412854863
 30
0.0
  0
SPLINE
  5
648
100
AcDbEntity
  8
0
100
AcDbSpline
 62
7
  6
CONTINUOUS
 70
0
 71
3
 72
14
 73
10
 74
0
 42
0.0000001
 43
0.0000001
 44
0.0000000001
 40
0.0
 40
0.0
 40
0.0
 40
0.0
 40
0.2932673678
 40
0.4262754266
 40
0.5500937363
 40
0.6662494471
 40
0.7774740587
 40
0.8874236705
 40
1.0
 40
1.0
 40
1.0
 40
1.0
 10
290.1163353482
 20
51.2288665637
 30
0.0
 10
290.1257710929
 20
50.9620772304
 30
0.0
 10
290.0940963929
 20
50.5682879686
 30
0.0
 10
289.9341351878
 20
50.0915977338
 30
0.0
 10
289.7679649841
 20
49.7929145001
 30
0.0
 10
289.5553273667
 20
49.5505744759
 30
0.0
 10
289.3012629723
 20
49.3724741592
 30
0.0
 10
289.0136271463
 20
49.265199299
 30
0.0
 10
288.809905954
 20
49.2435662581
 30
0.0
 10
288.7074318502
 20
49.2442307908
 30
0.0
  0
SPLINE
  5
649
100
AcDbEntity
  8
0
100
AcDbSpline
 62
7
  6
CONTINUOUS
 70
0
 71
3
 72
11
 73
7
 74
0
 42
0.0000001
 43
0.0000001
 44
0.0000000001
 40
0.0
 40
0.0
 40
0.0
 40
0.0
 40
0.2328768395
 40
0.486024858
 40
0.746640967
 40
1.0
 40
1.0
 40
1.0
 40
1.0
 10
296.0616422559
 20
47.561977276
 30
0.0
 10
296.1849805492
 20
47.6628431976
 30
0.0
 10
296.4089225163
 20
47.9154155967
 30
0.0
 10
296.6473242618
 20
48.3717688873
 30
0.0
 10
296.7856709177
 20
48.8820810494
 30
0.0
 10
296.8023380836
 20
49.2370772149
 30
0.0
 10
296.7885887787
 20
49.4098753577
 30
0.0
  0
SPLINE
  5
64A
100
AcDbEntity
  8
0
100
AcDbSpline
 62
7
  6
CONTINUOUS
 70
0
 71
3
 72
12
 73
8
 74
0
 42
0.0000001
 43
0.0000001
 44
0.0000000001
 40
0.0
 40
0.0
 40
0.0
 40
0.0
 40
0.2298366371
 40
0.3542970211
 40
0.4829889588
 40
0.7449582536
 40
1.0
 40
1.0
 40
1.0
 40
1.0
 10
296.3336036496
 20
46.1631648733
 30
0.0
 10
296.5931851348
 20
46.3505392859
 30
0.0
 10
296.9431906283
 20
46.7120144334
 30
0.0
 10
297.3102889697
 20
47.2766195721
 30
0.0
 10
297.6256689999
 20
47.9231289805
 30
0.0
 10
297.8761782947
 20
48.7950852076
 30
0.0
 10
297.9146609521
 20
49.5224106039
 30
0.0
 10
297.8864831177
 20
49.8765432308
 30
0.0
  0
SPLINE
  5
64B
100
AcDbEntity
  8
0
100
AcDbSpline
 62
7
  6
CONTINUOUS
 70
0
 71
3
 72
16
 73
12
 74
0
 42
0.0000001
 43
0.0000001
 44
0.0000000001
 40
0.0
 40
0.0
 40
0.0
 40
0.0
 40
0.0482447667
 40
0.0974190909
 40
0.2013044224
 40
0.3162095562
 40
0.4427672059
 40
0.5788033141
 40
0.7203150577
 40
0.8623783681
 40
1.0
 40
1.0
 40
1.0
 40
1.0
 10
297.4741729393
 20
45.0870405114
 30
0.0
 10
297.564317506
 20
45.0627692163
 30
0.0
 10
297.7515511703
 20
45.0312137294
 30
0.0
 10
298.1429517893
 20
45.0395084008
 30
0.0
 10
298.6492641461
 20
45.1925044094
 30
0.0
 10
299.2108519608
 20
45.5681206253
 30
0.0
 10
299.7099905013
 20
46.1092784091
 30
0.0
 10
300.117986942
 20
46.7816755516
 30
0.0
 10
300.4108964364
 20
47.5433982729
 30
0.0
 10
300.5706262564
 20
48.3464499615
 30
0.0
 10
300.5818139884
 20
48.8912337898
 30
0.0
 10
300.560691511
 20
49.1566962918
 30
0.0
  0
SPLINE
  5
64C
100
AcDbEntity
  8
0
100
AcDbSpline
 62
7
  6
CONTINUOUS
 70
0
 71
3
 72
9
 73
5
 74
0
 42
0.0000001
 43
0.0000001
 44
0.0000000001
 40
0.0
 40
0.0
 40
0.0
 40
0.0
 40
0.2396861736
 40
1.0
 40
1.0
 40
1.0
 40
1.0
 10
296.6834992915
 20
49.8922457109
 30
0.0
 10
296.6976221541
 20
49.8553348908
 30
0.0
 10
296.7502712771
 20
49.698958632
 30
0.0
 10
296.7786452002
 20
49.534843996
 30
0.0
 10
296.7885887787
 20
49.4098753577
 30
0.0
  0
SPLINE
  5
64D
100
AcDbEntity
  8
0
100
AcDbSpline
 62
7
  6
CONTINUOUS
 70
0
 71
3
 72
9
 73
5
 74
0
 42
0.0000001
 43
0.0000001
 44
0.0000000001
 40
0.0
 40
0.0
 40
0.0
 40
0.0
 40
0.2376610461
 40
1.0
 40
1.0
 40
1.0
 40
1.0
 10
297.623920686
 20
50.9574989934
 30
0.0
 10
297.6599412358
 20
50.8768046421
 30
0.0
 10
297.7945654728
 20
50.5297575445
 30
0.0
 10
297.8639997868
 20
50.1591086301
 30
0.0
 10
297.8864831177
 20
49.8765432308
 30
0.0
  0
SPLINE
  5
64E
100
AcDbEntity
  8
0
100
AcDbSpline
 62
7
  6
CONTINUOUS
 70
0
 71
3
 72
14
 73
10
 74
0
 42
0.0000001
 43
0.0000001
 44
0.0000000001
 40
0.0
 40
0.0
 40
0.0
 40
0.0
 40
0.2870478811
 40
0.4208926565
 40
0.5477396995
 40
0.6678836319
 40
0.7822267269
 40
0.8922647746
 40
1.0
 40
1.0
 40
1.0
 40
1.0
 10
300.560691511
 20
49.1566962918
 30
0.0
 10
300.5398856706
 20
49.418179372
 30
0.0
 10
300.4712143204
 20
49.8010755207
 30
0.0
 10
300.2924580349
 20
50.2698064508
 30
0.0
 10
300.1249106713
 20
50.576255337
 30
0.0
 10
299.9235770525
 20
50.8397341493
 30
0.0
 10
299.6917233054
 20
51.0552112149
 30
0.0
 10
299.4335483437
 20
51.2181325529
 30
0.0
 10
299.2461361826
 20
51.2896399537
 30
0.0
 10
299.1510713612
 20
51.3152360202
 30
0.0
  0
SPLINE
  5
64F
100
AcDbEntity
  8
0
100
AcDbSpline
 62
7
  6
CONTINUOUS
 70
0
 71
3
 72
11
 73
7
 74
0
 42
0.0000001
 43
0.0000001
 44
0.0000000001
 40
0.0
 40
0.0
 40
0.0
 40
0.0
 40
0.2328768395
 40
0.486024858
 40
0.746640967
 40
1.0
 40
1.0
 40
1.0
 40
1.0
 10
295.3134710104
 20
56.964823674
 30
0.0
 10
295.4368093036
 20
57.0656895957
 30
0.0
 10
295.6607512707
 20
57.3182619948
 30
0.0
 10
295.8991530163
 20
57.7746152853
 30
0.0
 10
296.0374996722
 20
58.2849274475
 30
0.0
 10
296.054166838
 20
58.639923613
 30
0.0
 10
296.0404175332
 20
58.8127217558
 30
0.0
  0
SPLINE
  5
650
100
AcDbEntity
  8
0
100
AcDbSpline
 62
7
  6
CONTINUOUS
 70
0
 71
3
 72
12
 73
8
 74
0
 42
0.0000001
 43
0.0000001
 44
0.0000000001
 40
0.0
 40
0.0
 40
0.0
 40
0.0
 40
0.2298366371
 40
0.3542970211
 40
0.4829889588
 40
0.7449582536
 40
1.0
 40
1.0
 40
1.0
 40
1.0
 10
295.5854324041
 20
55.5660112714
 30
0.0
 10
295.8450138893
 20
55.753385684
 30
0.0
 10
296.1950193827
 20
56.1148608315
 30
0.0
 10
296.5621177242
 20
56.6794659702
 30
0.0
 10
296.8774977544
 20
57.3259753786
 30
0.0
 10
297.1280070491
 20
58.1979316057
 30
0.0
 10
297.1664897065
 20
58.925257002
 30
0.0
 10
297.1383118722
 20
59.2793896289
 30
0.0
  0
SPLINE
  5
651
100
AcDbEntity
  8
0
100
AcDbSpline
 62
7
  6
CONTINUOUS
 70
0
 71
3
 72
16
 73
12
 74
0
 42
0.0000001
 43
0.0000001
 44
0.0000000001
 40
0.0
 40
0.0
 40
0.0
 40
0.0
 40
0.0482447667
 40
0.0974190909
 40
0.2013044224
 40
0.3162095562
 40
0.4427672059
 40
0.5788033141
 40
0.7203150577
 40
0.8623783681
 40
1.0
 40
1.0
 40
1.0
 40
1.0
 10
296.7260016937
 20
54.4898869095
 30
0.0
 10
296.8161462605
 20
54.4656156144
 30
0.0
 10
297.0033799247
 20
54.4340601275
 30
0.0
 10
297.3947805437
 20
54.4423547989
 30
0.0
 10
297.9010929006
 20
54.5953508075
 30
0.0
 10
298.4626807152
 20
54.9709670234
 30
0.0
 10
298.9618192558
 20
55.5121248072
 30
0.0
 10
299.3698156965
 20
56.1845219497
 30
0.0
 10
299.6627251909
 20
56.946244671
 30
0.0
 10
299.8224550108
 20
57.7492963596
 30
0.0
 10
299.8336427429
 20
58.2940801879
 30
0.0
 10
299.8125202655
 20
58.5595426899
 30
0.0
  0
SPLINE
  5
652
100
AcDbEntity
  8
0
100
AcDbSpline
 62
7
  6
CONTINUOUS
 70
0
 71
3
 72
9
 73
5
 74
0
 42
0.0000001
 43
0.0000001
 44
0.0000000001
 40
0.0
 40
0.0
 40
0.0
 40
0.0
 40
0.2396861736
 40
1.0
 40
1.0
 40
1.0
 40
1.0
 10
295.935328046
 20
59.295092109
 30
0.0
 10
295.9494509086
 20
59.2581812889
 30
0.0
 10
296.0021000315
 20
59.1018050301
 30
0.0
 10
296.0304739546
 20
58.9376903941
 30
0.0
 10
296.0404175332
 20
58.8127217558
 30
0.0
  0
SPLINE
  5
653
100
AcDbEntity
  8
0
100
AcDbSpline
 62
7
  6
CONTINUOUS
 70
0
 71
3
 72
9
 73
5
 74
0
 42
0.0000001
 43
0.0000001
 44
0.0000000001
 40
0.0
 40
0.0
 40
0.0
 40
0.0
 40
0.2376610461
 40
1.0
 40
1.0
 40
1.0
 40
1.0
 10
296.8757494405
 20
60.3603453915
 30
0.0
 10
296.9117699903
 20
60.2796510402
 30
0.0
 10
297.0463942272
 20
59.9326039426
 30
0.0
 10
297.1158285413
 20
59.5619550282
 30
0.0
 10
297.1383118722
 20
59.2793896289
 30
0.0
  0
SPLINE
  5
654
100
AcDbEntity
  8
02___PRT_ALL_AXES
100
AcDbSpline
 62
7
  6
CONTINUOUS
 70
0
 71
3
 72
11
 73
7
 74
0
 42
0.0000001
 43
0.0000001
 44
0.0000000001
 40
0.0
 40
0.0
 40
0.0
 40
0.0
 40
0.2877766171
 40
0.5484962599
 40
0.7827351486
 40
1.0
 40
1.0
 40
1.0
 40
1.0
 10
288.4499383062
 20
43.1652324915
 30
0.0
 10
288.4612292778
 20
43.0233301235
 30
0.0
 10
288.5095256499
 20
42.7537357663
 30
0.0
 10
288.6691263987
 20
42.3959713092
 30
0.0
 10
288.905920863
 20
42.1263423255
 30
0.0
 10
289.1111559954
 20
42.0218604372
 30
0.0
 10
289.2149332827
 20
41.9939241076
 30
0.0
  0
SPLINE
  5
655
100
AcDbEntity
  8
02___PRT_ALL_AXES
100
AcDbSpline
 62
7
  6
CONTINUOUS
 70
0
 71
3
 72
11
 73
7
 74
0
 42
0.0000001
 43
0.0000001
 44
0.0000000001
 40
0.0
 40
0.0
 40
0.0
 40
0.0
 40
0.2877766171
 40
0.5484962599
 40
0.7827351486
 40
1.0
 40
1.0
 40
1.0
 40
1.0
 10
286.5888158049
 20
66.5553976608
 30
0.0
 10
286.6001067765
 20
66.4134952929
 30
0.0
 10
286.6484031485
 20
66.1439009357
 30
0.0
 10
286.8080038973
 20
65.7861364786
 30
0.0
 10
287.0447983617
 20
65.5165074949
 30
0.0
 10
287.2500334941
 20
65.4120256066
 30
0.0
 10
287.3538107813
 20
65.3840892769
 30
0.0
  0
SPLINE
  5
656
100
AcDbEntity
  8
02___PRT_ALL_AXES
100
AcDbSpline
 62
7
  6
CONTINUOUS
 70
0
 71
3
 72
9
 73
5
 74
0
 42
0.0000001
 43
0.0000001
 44
0.0000000001
 40
0.0
 40
0.0
 40
0.0
 40
0.0
 40
0.2710669322
 40
1.0
 40
1.0
 40
1.0
 40
1.0
 10
287.9588976453
 20
67.8803761545
 30
0.0
 10
287.952608355
 20
67.9594185277
 30
0.0
 10
287.9135758896
 20
68.2488190838
 30
0.0
 10
287.8051828702
 20
68.534181925
 30
0.0
 10
287.6786001194
 20
68.705769873
 30
0.0
  0
SPLINE
  5
657
100
AcDbEntity
  8
02___PRT_ALL_AXES
100
AcDbSpline
 62
7
  6
CONTINUOUS
 70
0
 71
3
 72
9
 73
5
 74
0
 42
0.0000001
 43
0.0000001
 44
0.0000000001
 40
0.0
 40
0.0
 40
0.0
 40
0.0
 40
0.2551784055
 40
1.0
 40
1.0
 40
1.0
 40
1.0
 10
288.4735785668
 20
43.7239916602
 30
0.0
 10
288.4661191096
 20
43.6769479395
 30
0.0
 10
288.4420760251
 20
43.4918287043
 30
0.0
 10
288.4389109002
 20
43.3038224278
 30
0.0
 10
288.4499383062
 20
43.1652324915
 30
0.0
  0
SPLINE
  5
658
100
AcDbEntity
  8
02___PRT_ALL_AXES
100
AcDbSpline
 62
7
  6
CONTINUOUS
 70
0
 71
3
 72
10
 73
6
 74
0
 42
0.0000001
 43
0.0000001
 44
0.0000000001
 40
0.0
 40
0.0
 40
0.0
 40
0.0
 40
0.2224488215
 40
0.5936631006
 40
1.0
 40
1.0
 40
1.0
 40
1.0
 10
288.7380067213
 20
42.3376540931
 30
0.0
 10
288.8359168204
 20
42.3801157491
 30
0.0
 10
289.0816417816
 20
42.5306055355
 30
0.0
 10
289.4100661395
 20
42.8899242704
 30
0.0
 10
289.5847104197
 20
43.2242008931
 30
0.0
 10
289.6549447882
 20
43.4060515242
 30
0.0
  0
SPLINE
  5
659
100
AcDbEntity
  8
02___PRT_ALL_AXES
100
AcDbSpline
 62
7
  6
CONTINUOUS
 70
0
 71
3
 72
14
 73
10
 74
0
 42
0.0000001
 43
0.0000001
 44
0.0000000001
 40
0.0
 40
0.0
 40
0.0
 40
0.0
 40
0.0971444512
 40
0.2011916055
 40
0.3162749316
 40
0.4430291785
 40
0.5792741086
 40
0.721006764
 40
1.0
 40
1.0
 40
1.0
 40
1.0
 10
288.2635860262
 20
68.7637457628
 30
0.0
 10
288.1652443623
 20
68.7902188497
 30
0.0
 10
287.9488619625
 20
68.8046095442
 30
0.0
 10
287.6262258162
 20
68.7063778403
 30
0.0
 10
287.321152422
 20
68.5026531789
 30
0.0
 10
287.0504481139
 20
68.2090216264
 30
0.0
 10
286.8289565797
 20
67.8439293654
 30
0.0
 10
286.6187065875
 20
67.2974314123
 30
0.0
 10
286.5656164346
 20
66.8469620812
 30
0.0
 10
286.5888158049
 20
66.5553976608
 30
0.0
  0
SPLINE
  5
65A
100
AcDbEntity
  8
02___PRT_ALL_AXES
100
AcDbSpline
 62
7
  6
CONTINUOUS
 70
0
 71
3
 72
12
 73
8
 74
0
 42
0.0000001
 43
0.0000001
 44
0.0000000001
 40
0.0
 40
0.0
 40
0.0
 40
0.0
 40
0.2198429659
 40
0.3424713957
 40
0.4714403246
 40
0.7383713367
 40
1.0
 40
1.0
 40
1.0
 40
1.0
 10
286.87688422
 20
65.7278192624
 30
0.0
 10
287.0477104318
 20
65.8019031815
 30
0.0
 10
287.2865009026
 20
65.9830678729
 30
0.0
 10
287.5381889308
 20
66.2935626705
 30
0.0
 10
287.7622959493
 20
66.6731959178
 30
0.0
 10
287.9438738632
 20
67.2064468956
 30
0.0
 10
287.9764736846
 20
67.6594844816
 30
0.0
 10
287.9588976453
 20
67.8803761545
 30
0.0
  0
SPLINE
  5
65B
100
AcDbEntity
  8
02___PRT_ALL_AXES
100
AcDbSpline
 62
7
  6
CONTINUOUS
 70
0
 71
3
 72
11
 73
7
 74
0
 42
0.0000001
 43
0.0000001
 44
0.0000000001
 40
0.0
 40
0.0
 40
0.0
 40
0.0
 40
0.2877766171
 40
0.5484962599
 40
0.7827351486
 40
1.0
 40
1.0
 40
1.0
 40
1.0
 10
289.0285810026
 20
67.5924373789
 30
0.0
 10
289.017290031
 20
67.7343397469
 30
0.0
 10
288.968993659
 20
68.0039341041
 30
0.0
 10
288.8093929102
 20
68.3616985612
 30
0.0
 10
288.5725984459
 20
68.6313275449
 30
0.0
 10
288.3673633134
 20
68.7358094332
 30
0.0
 10
288.2635860262
 20
68.7637457628
 30
0.0
  0
SPLINE
  5
65C
100
AcDbEntity
  8
02___PRT_ALL_AXES
100
AcDbSpline
 62
7
  6
CONTINUOUS
 70
0
 71
3
 72
13
 73
9
 74
0
 42
0.0000001
 43
0.0000001
 44
0.0000000001
 40
0.0
 40
0.0
 40
0.0
 40
0.0
 40
0.1023852779
 40
0.2084138365
 40
0.3209607899
 40
0.441706293
 40
0.7077843124
 40
1.0
 40
1.0
 40
1.0
 40
1.0
 10
289.2149332827
 20
41.9939241076
 30
0.0
 10
289.2823205364
 20
41.975783794
 30
0.0
 10
289.4250802923
 20
41.9571134308
 30
0.0
 10
289.6441549626
 20
41.9849675227
 30
0.0
 10
289.8626053477
 20
42.0663195095
 30
0.0
 10
290.153134231
 20
42.2472167605
 30
0.0
 10
290.4740258176
 20
42.5916656647
 30
0.0
 10
290.6528687086
 20
42.9323134146
 30
0.0
 10
290.7246281456
 20
43.1181127485
 30
0.0
  0
SPLINE
  5
65D
100
AcDbEntity
  8
02___PRT_ALL_AXES
100
AcDbSpline
 62
7
  6
CONTINUOUS
 70
0
 71
3
 72
14
 73
10
 74
0
 42
0.0000001
 43
0.0000001
 44
0.0000000001
 40
0.0
 40
0.0
 40
0.0
 40
0.0
 40
0.0971444512
 40
0.2011916055
 40
0.3162749316
 40
0.4430291785
 40
0.5792741086
 40
0.721006764
 40
1.0
 40
1.0
 40
1.0
 40
1.0
 10
287.3538107813
 20
65.3840892769
 30
0.0
 10
287.4521524453
 20
65.35761619
 30
0.0
 10
287.668534845
 20
65.3432254955
 30
0.0
 10
287.9911709913
 20
65.4414571995
 30
0.0
 10
288.2962443855
 20
65.6451818609
 30
0.0
 10
288.5669486936
 20
65.9388134134
 30
0.0
 10
288.7884402278
 20
66.3039056744
 30
0.0
 10
288.99869022
 20
66.8504036274
 30
0.0
 10
289.0517803729
 20
67.3008729586
 30
0.0
 10
289.0285810026
 20
67.5924373789
 30
0.0
  0
SPLINE
  5
65E
100
AcDbEntity
  8
0
100
AcDbSpline
 62
7
  6
CONTINUOUS
 70
0
 71
3
 72
9
 73
5
 74
0
 42
0.0000001
 43
0.0000001
 44
0.0000000001
 40
0.0
 40
0.0
 40
0.0
 40
0.0
 40
0.5107094481
 40
1.0
 40
1.0
 40
1.0
 40
1.0
 10
259.5978251601
 20
27.8198367427
 30
0.0
 10
259.4953450931
 20
27.8340586981
 30
0.0
 10
259.2904318938
 20
27.8390234006
 30
0.0
 10
259.0910247804
 20
27.7892323495
 30
0.0
 10
258.9991888193
 20
27.7519290519
 30
0.0
  0
SPLINE
  5
65F
100
AcDbEntity
  8
0
100
AcDbSpline
 62
7
  6
CONTINUOUS
 70
0
 71
3
 72
9
 73
5
 74
0
 42
0.0000001
 43
0.0000001
 44
0.0000000001
 40
0.0
 40
0.0
 40
0.0
 40
0.0
 40
0.4942513735
 40
1.0
 40
1.0
 40
1.0
 40
1.0
 10
258.5403002404
 20
27.8753430747
 30
0.0
 10
258.6322731388
 20
27.926839959
 30
0.0
 10
258.8331888498
 20
28.0065794904
 30
0.0
 10
259.0477021016
 20
28.0306046683
 30
0.0
 10
259.155560299
 20
28.0299052204
 30
0.0
  0
SPLINE
  5
660
100
AcDbEntity
  8
0
100
AcDbSpline
 62
7
  6
CONTINUOUS
 70
0
 71
3
 72
14
 73
10
 74
0
 42
0.0000001
 43
0.0000001
 44
0.0000000001
 40
0.0
 40
0.0
 40
0.0
 40
0.0
 40
0.2870478811
 40
0.4208926565
 40
0.5477396995
 40
0.6678836319
 40
0.7822267269
 40
0.8922647746
 40
1.0
 40
1.0
 40
1.0
 40
1.0
 10
267.7058853186
 20
20.6827757857
 30
0.0
 10
267.726691159
 20
20.4212927055
 30
0.0
 10
267.7953625092
 20
20.0383965568
 30
0.0
 10
267.9741187947
 20
19.5696656266
 30
0.0
 10
268.1416661583
 20
19.2632167404
 30
0.0
 10
268.3429997771
 20
18.9997379281
 30
0.0
 10
268.5748535242
 20
18.7842608626
 30
0.0
 10
268.8330284859
 20
18.6213395245
 30
0.0
 10
269.020440647
 20
18.5498321238
 30
0.0
 10
269.1155054684
 20
18.5242360572
 30
0.0
  0
SPLINE
  5
661
100
AcDbEntity
  8
0
100
AcDbSpline
 62
7
  6
CONTINUOUS
 70
0
 71
3
 72
14
 73
10
 74
0
 42
0.0000001
 43
0.0000001
 44
0.0000000001
 40
0.0
 40
0.0
 40
0.0
 40
0.0
 40
0.2870478811
 40
0.4208926565
 40
0.5477396995
 40
0.6678836319
 40
0.7822267269
 40
0.8922647746
 40
1.0
 40
1.0
 40
1.0
 40
1.0
 10
266.957714073
 20
30.0856221838
 30
0.0
 10
266.9785199135
 20
29.8241391036
 30
0.0
 10
267.0471912636
 20
29.4412429549
 30
0.0
 10
267.2259475492
 20
28.9725120247
 30
0.0
 10
267.3934949127
 20
28.6660631385
 30
0.0
 10
267.5948285316
 20
28.4025843262
 30
0.0
 10
267.8266822786
 20
28.1871072606
 30
0.0
 10
268.0848572404
 20
28.0241859226
 30
0.0
 10
268.2722694014
 20
27.9526785219
 30
0.0
 10
268.3673342228
 20
27.9270824553
 30
0.0
  0
SPLINE
  5
662
100
AcDbEntity
  8
0
100
AcDbSpline
 62
7
  6
CONTINUOUS
 70
0
 71
3
 72
12
 73
8
 74
0
 42
0.0000001
 43
0.0000001
 44
0.0000000001
 40
0.0
 40
0.0
 40
0.0
 40
0.0
 40
0.1086465431
 40
0.2195389308
 40
0.4540341265
 40
0.7135068761
 40
1.0
 40
1.0
 40
1.0
 40
1.0
 10
260.9597740705
 20
23.1527583149
 30
0.0
 10
261.019093089
 20
23.1794651568
 30
0.0
 10
261.1342484817
 20
23.2446436459
 30
0.0
 10
261.3441104186
 20
23.419396914
 30
0.0
 10
261.5575349139
 20
23.7201411106
 30
0.0
 10
261.7130179787
 20
24.1656036059
 30
0.0
 10
261.7495715889
 20
24.493179414
 30
0.0
 10
261.7531532453
 20
24.6646843036
 30
0.0
  0
SPLINE
  5
663
100
AcDbEntity
  8
0
100
AcDbSpline
 62
7
  6
CONTINUOUS
 70
0
 71
3
 72
9
 73
5
 74
0
 42
0.0000001
 43
0.0000001
 44
0.0000000001
 40
0.0
 40
0.0
 40
0.0
 40
0.0
 40
0.2643750394
 40
1.0
 40
1.0
 40
1.0
 40
1.0
 10
260.5990904112
 20
27.3158645786
 30
0.0
 10
260.5486146387
 20
27.3605543921
 30
0.0
 10
260.3516774529
 20
27.5224192206
 30
0.0
 10
260.1287433336
 20
27.6546588606
 30
0.0
 10
259.9543862792
 20
27.7238571508
 30
0.0
  0
SPLINE
  5
664
100
AcDbEntity
  8
0
100
AcDbSpline
 62
7
  6
CONTINUOUS
 70
0
 71
3
 72
11
 73
7
 74
0
 42
0.0000001
 43
0.0000001
 44
0.0000000001
 40
0.0
 40
0.0
 40
0.0
 40
0.0
 40
0.2449793898
 40
0.4999958216
 40
0.7550156368
 40
1.0
 40
1.0
 40
1.0
 40
1.0
 10
260.6471057022
 20
27.2784810321
 30
0.0
 10
260.8114279171
 20
27.1085168862
 30
0.0
 10
261.1112542855
 20
26.7260927343
 30
0.0
 10
261.4539174298
 20
26.0792086116
 30
0.0
 10
261.6819549768
 20
25.3835952429
 30
0.0
 10
261.7493116434
 20
24.9023290007
 30
0.0
 10
261.7576678772
 20
24.6660621095
 30
0.0
  0
SPLINE
  5
665
100
AcDbEntity
  8
0
100
AcDbSpline
 62
7
  6
CONTINUOUS
 70
0
 71
3
 72
16
 73
12
 74
0
 42
0.0000001
 43
0.0000001
 44
0.0000000001
 40
0.0
 40
0.0
 40
0.0
 40
0.0
 40
0.0482447667
 40
0.0974190909
 40
0.2013044224
 40
0.3162095562
 40
0.4427672059
 40
0.5788033141
 40
0.7203150577
 40
0.8623783681
 40
1.0
 40
1.0
 40
1.0
 40
1.0
 10
270.7924038903
 20
24.752431566
 30
0.0
 10
270.7022593236
 20
24.7767028611
 30
0.0
 10
270.5150256593
 20
24.808258348
 30
0.0
 10
270.1236250403
 20
24.7999636766
 30
0.0
 10
269.6173126834
 20
24.646967668
 30
0.0
 10
269.0557248688
 20
24.2713514522
 30
0.0
 10
268.5565863283
 20
23.7301936683
 30
0.0
 10
268.1485898876
 20
23.0577965259
 30
0.0
 10
267.8556803931
 20
22.2960738045
 30
0.0
 10
267.6959505732
 20
21.493022116
 30
0.0
 10
267.6847628411
 20
20.9482382876
 30
0.0
 10
267.7058853186
 20
20.6827757857
 30
0.0
  0
SPLINE
  5
666
100
AcDbEntity
  8
0
100
AcDbSpline
 62
7
  6
CONTINUOUS
 70
0
 71
3
 72
16
 73
12
 74
0
 42
0.0000001
 43
0.0000001
 44
0.0000000001
 40
0.0
 40
0.0
 40
0.0
 40
0.0
 40
0.0482447667
 40
0.0974190909
 40
0.2013044224
 40
0.3162095562
 40
0.4427672059
 40
0.5788033141
 40
0.7203150577
 40
0.8623783681
 40
1.0
 40
1.0
 40
1.0
 40
1.0
 10
270.0442326448
 20
34.1552779641
 30
0.0
 10
269.954088078
 20
34.1795492592
 30
0.0
 10
269.7668544138
 20
34.2111047461
 30
0.0
 10
269.3754537948
 20
34.2028100747
 30
0.0
 10
268.8691414379
 20
34.0498140661
 30
0.0
 10
268.3075536233
 20
33.6741978503
 30
0.0
 10
267.8084150827
 20
33.1330400664
 30
0.0
 10
267.400418642
 20
32.4606429239
 30
0.0
 10
267.1075091476
 20
31.6989202026
 30
0.0
 10
266.9477793277
 20
30.8958685141
 30
0.0
 10
266.9365915956
 20
30.3510846857
 30
0.0
 10
266.957714073
 20
30.0856221838
 30
0.0
  0
SPLINE
  5
667
100
AcDbEntity
  8
0
100
AcDbSpline
 62
7
  6
CONTINUOUS
 70
0
 71
3
 72
14
 73
10
 74
0
 42
0.0000001
 43
0.0000001
 44
0.0000000001
 40
0.0
 40
0.0
 40
0.0
 40
0.0
 40
0.2870478811
 40
0.4208926565
 40
0.5477396995
 40
0.6678836319
 40
0.7822267269
 40
0.8922647746
 40
1.0
 40
1.0
 40
1.0
 40
1.0
 10
271.4538527946
 20
31.9967382357
 30
0.0
 10
271.4330469541
 20
32.2582213158
 30
0.0
 10
271.364375604
 20
32.6411174645
 30
0.0
 10
271.1856193184
 20
33.1098483947
 30
0.0
 10
271.0180719548
 20
33.4162972809
 30
0.0
 10
270.816738336
 20
33.6797760932
 30
0.0
 10
270.5848845889
 20
33.8952531588
 30
0.0
 10
270.3267096272
 20
34.0581744968
 30
0.0
 10
270.1392974661
 20
34.1296818975
 30
0.0
 10
270.0442326448
 20
34.1552779641
 30
0.0
  0
SPLINE
  5
668
100
AcDbEntity
  8
0
100
AcDbSpline
 62
7
  6
CONTINUOUS
 70
0
 71
3
 72
9
 73
5
 74
0
 42
0.0000001
 43
0.0000001
 44
0.0000000001
 40
0.0
 40
0.0
 40
0.0
 40
0.0
 40
0.2382386002
 40
1.0
 40
1.0
 40
1.0
 40
1.0
 10
259.9936082526
 20
27.7898842179
 30
0.0
 10
260.0513294852
 20
27.7578068812
 30
0.0
 10
260.2878361744
 20
27.6128263875
 30
0.0
 10
260.5003430589
 20
27.4302827062
 30
0.0
 10
260.6471057022
 20
27.2784810321
 30
0.0
  0
SPLINE
  5
669
100
AcDbEntity
  8
0
100
AcDbSpline
 62
7
  6
CONTINUOUS
 70
0
 71
3
 72
14
 73
10
 74
0
 42
0.0000001
 43
0.0000001
 44
0.0000000001
 40
0.0
 40
0.0
 40
0.0
 40
0.0
 40
0.290556762
 40
0.4246901632
 40
0.5509821768
 40
0.6700239973
 40
0.7831213657
 40
0.8922716237
 40
1.0
 40
1.0
 40
1.0
 40
1.0
 10
261.7576678772
 20
24.6660621095
 30
0.0
 10
261.7656920437
 20
24.4391842011
 30
0.0
 10
261.7443169749
 20
24.1039861344
 30
0.0
 10
261.6334956123
 20
23.6868626111
 30
0.0
 10
261.5164333721
 20
23.4131512903
 30
0.0
 10
261.3651457959
 20
23.1758323731
 30
0.0
 10
261.1820136705
 20
22.9796986491
 30
0.0
 10
260.9704817986
 20
22.829217123
 30
0.0
 10
260.8133894941
 20
22.761754906
 30
0.0
 10
260.7329787815
 20
22.7368775168
 30
0.0
  0
SPLINE
  5
66A
100
AcDbEntity
  8
0
100
AcDbSpline
 62
7
  6
CONTINUOUS
 70
0
 71
3
 72
11
 73
7
 74
0
 42
0.0000001
 43
0.0000001
 44
0.0000000001
 40
0.0
 40
0.0
 40
0.0
 40
0.0
 40
0.2328768395
 40
0.486024858
 40
0.746640967
 40
1.0
 40
1.0
 40
1.0
 40
1.0
 10
267.702974785
 20
20.9991728217
 30
0.0
 10
267.8263130782
 20
21.1000387434
 30
0.0
 10
268.0502550453
 20
21.3526111424
 30
0.0
 10
268.2886567909
 20
21.808964433
 30
0.0
 10
268.4270034468
 20
22.3192765952
 30
0.0
 10
268.4436706127
 20
22.6742727607
 30
0.0
 10
268.4299213078
 20
22.8470709035
 30
0.0
  0
SPLINE
  5
66B
100
AcDbEntity
  8
0
100
AcDbSpline
 62
7
  6
CONTINUOUS
 70
0
 71
3
 72
12
 73
8
 74
0
 42
0.0000001
 43
0.0000001
 44
0.0000000001
 40
0.0
 40
0.0
 40
0.0
 40
0.0
 40
0.2298366371
 40
0.3542970211
 40
0.4829889588
 40
0.7449582536
 40
1.0
 40
1.0
 40
1.0
 40
1.0
 10
267.9749361787
 20
19.6003604191
 30
0.0
 10
268.2345176639
 20
19.7877348317
 30
0.0
 10
268.5845231574
 20
20.1492099791
 30
0.0
 10
268.9516214988
 20
20.7138151179
 30
0.0
 10
269.267001529
 20
21.3603245262
 30
0.0
 10
269.5175108237
 20
22.2322807534
 30
0.0
 10
269.5559934812
 20
22.9596061497
 30
0.0
 10
269.5278156468
 20
23.3137387766
 30
0.0
  0
SPLINE
  5
66C
100
AcDbEntity
  8
0
100
AcDbSpline
 62
7
  6
CONTINUOUS
 70
0
 71
3
 72
16
 73
12
 74
0
 42
0.0000001
 43
0.0000001
 44
0.0000000001
 40
0.0
 40
0.0
 40
0.0
 40
0.0
 40
0.0482447667
 40
0.0974190909
 40
0.2013044224
 40
0.3162095562
 40
0.4427672059
 40
0.5788033141
 40
0.7203150577
 40
0.8623783681
 40
1.0
 40
1.0
 40
1.0
 40
1.0
 10
269.1155054684
 20
18.5242360572
 30
0.0
 10
269.2056500351
 20
18.4999647621
 30
0.0
 10
269.3928836993
 20
18.4684092752
 30
0.0
 10
269.7842843183
 20
18.4767039466
 30
0.0
 10
270.2905966752
 20
18.6296999552
 30
0.0
 10
270.8521844899
 20
19.0053161711
 30
0.0
 10
271.3513230304
 20
19.5464739549
 30
0.0
 10
271.7593194711
 20
20.2188710974
 30
0.0
 10
272.0522289655
 20
20.9805938187
 30
0.0
 10
272.2119587854
 20
21.7836455073
 30
0.0
 10
272.2231465175
 20
22.3284293356
 30
0.0
 10
272.2020240401
 20
22.5938918376
 30
0.0
  0
SPLINE
  5
66D
100
AcDbEntity
  8
0
100
AcDbSpline
 62
7
  6
CONTINUOUS
 70
0
 71
3
 72
9
 73
5
 74
0
 42
0.0000001
 43
0.0000001
 44
0.0000000001
 40
0.0
 40
0.0
 40
0.0
 40
0.0
 40
0.2396861736
 40
1.0
 40
1.0
 40
1.0
 40
1.0
 10
268.3248318206
 20
23.3294412567
 30
0.0
 10
268.3389546832
 20
23.2925304366
 30
0.0
 10
268.3916038062
 20
23.1361541778
 30
0.0
 10
268.4199777292
 20
22.9720395418
 30
0.0
 10
268.4299213078
 20
22.8470709035
 30
0.0
  0
SPLINE
  5
66E
100
AcDbEntity
  8
0
100
AcDbSpline
 62
7
  6
CONTINUOUS
 70
0
 71
3
 72
9
 73
5
 74
0
 42
0.0000001
 43
0.0000001
 44
0.0000000001
 40
0.0
 40
0.0
 40
0.0
 40
0.0
 40
0.2376610461
 40
1.0
 40
1.0
 40
1.0
 40
1.0
 10
269.2652532151
 20
24.3946945391
 30
0.0
 10
269.3012737649
 20
24.3140001879
 30
0.0
 10
269.4358980018
 20
23.9669530903
 30
0.0
 10
269.5053323159
 20
23.5963041759
 30
0.0
 10
269.5278156468
 20
23.3137387766
 30
0.0
  0
SPLINE
  5
66F
100
AcDbEntity
  8
0
100
AcDbSpline
 62
7
  6
CONTINUOUS
 70
0
 71
3
 72
14
 73
10
 74
0
 42
0.0000001
 43
0.0000001
 44
0.0000000001
 40
0.0
 40
0.0
 40
0.0
 40
0.0
 40
0.2870478811
 40
0.4208926565
 40
0.5477396995
 40
0.6678836319
 40
0.7822267269
 40
0.8922647746
 40
1.0
 40
1.0
 40
1.0
 40
1.0
 10
272.2020240401
 20
22.5938918376
 30
0.0
 10
272.1812181997
 20
22.8553749177
 30
0.0
 10
272.1125468495
 20
23.2382710664
 30
0.0
 10
271.9337905639
 20
23.7070019966
 30
0.0
 10
271.7662432004
 20
24.0134508828
 30
0.0
 10
271.5649095815
 20
24.2769296951
 30
0.0
 10
271.3330558345
 20
24.4924067607
 30
0.0
 10
271.0748808727
 20
24.6553280987
 30
0.0
 10
270.8874687117
 20
24.7268354994
 30
0.0
 10
270.7924038903
 20
24.752431566
 30
0.0
  0
SPLINE
  5
670
100
AcDbEntity
  8
0
100
AcDbSpline
 62
7
  6
CONTINUOUS
 70
0
 71
3
 72
11
 73
7
 74
0
 42
0.0000001
 43
0.0000001
 44
0.0000000001
 40
0.0
 40
0.0
 40
0.0
 40
0.0
 40
0.2328768395
 40
0.486024858
 40
0.746640967
 40
1.0
 40
1.0
 40
1.0
 40
1.0
 10
266.9548035395
 20
30.4020192198
 30
0.0
 10
267.0781418327
 20
30.5028851414
 30
0.0
 10
267.3020837998
 20
30.7554575405
 30
0.0
 10
267.5404855453
 20
31.2118108311
 30
0.0
 10
267.6788322012
 20
31.7221229933
 30
0.0
 10
267.6954993671
 20
32.0771191588
 30
0.0
 10
267.6817500622
 20
32.2499173016
 30
0.0
  0
SPLINE
  5
671
100
AcDbEntity
  8
0
100
AcDbSpline
 62
7
  6
CONTINUOUS
 70
0
 71
3
 72
12
 73
8
 74
0
 42
0.0000001
 43
0.0000001
 44
0.0000000001
 40
0.0
 40
0.0
 40
0.0
 40
0.0
 40
0.2298366371
 40
0.3542970211
 40
0.4829889588
 40
0.7449582536
 40
1.0
 40
1.0
 40
1.0
 40
1.0
 10
267.2267649331
 20
29.0032068172
 30
0.0
 10
267.4863464183
 20
29.1905812297
 30
0.0
 10
267.8363519118
 20
29.5520563772
 30
0.0
 10
268.2034502533
 20
30.116661516
 30
0.0
 10
268.5188302835
 20
30.7631709243
 30
0.0
 10
268.7693395782
 20
31.6351271515
 30
0.0
 10
268.8078222356
 20
32.3624525478
 30
0.0
 10
268.7796444012
 20
32.7165851747
 30
0.0
  0
SPLINE
  5
672
100
AcDbEntity
  8
0
100
AcDbSpline
 62
7
  6
CONTINUOUS
 70
0
 71
3
 72
16
 73
12
 74
0
 42
0.0000001
 43
0.0000001
 44
0.0000000001
 40
0.0
 40
0.0
 40
0.0
 40
0.0
 40
0.0482447667
 40
0.0974190909
 40
0.2013044224
 40
0.3162095562
 40
0.4427672059
 40
0.5788033141
 40
0.7203150577
 40
0.8623783681
 40
1.0
 40
1.0
 40
1.0
 40
1.0
 10
268.3673342228
 20
27.9270824553
 30
0.0
 10
268.4574787895
 20
27.9028111602
 30
0.0
 10
268.6447124538
 20
27.8712556733
 30
0.0
 10
269.0361130728
 20
27.8795503447
 30
0.0
 10
269.5424254297
 20
28.0325463533
 30
0.0
 10
270.1040132443
 20
28.4081625692
 30
0.0
 10
270.6031517848
 20
28.949320353
 30
0.0
 10
271.0111482256
 20
29.6217174955
 30
0.0
 10
271.30405772
 20
30.3834402168
 30
0.0
 10
271.4637875399
 20
31.1864919054
 30
0.0
 10
271.474975272
 20
31.7312757337
 30
0.0
 10
271.4538527946
 20
31.9967382357
 30
0.0
  0
SPLINE
  5
673
100
AcDbEntity
  8
0
100
AcDbSpline
 62
7
  6
CONTINUOUS
 70
0
 71
3
 72
9
 73
5
 74
0
 42
0.0000001
 43
0.0000001
 44
0.0000000001
 40
0.0
 40
0.0
 40
0.0
 40
0.0
 40
0.2396861736
 40
1.0
 40
1.0
 40
1.0
 40
1.0
 10
267.576660575
 20
32.7322876548
 30
0.0
 10
267.5907834377
 20
32.6953768347
 30
0.0
 10
267.6434325606
 20
32.5390005758
 30
0.0
 10
267.6718064837
 20
32.3748859399
 30
0.0
 10
267.6817500622
 20
32.2499173016
 30
0.0
  0
SPLINE
  5
674
100
AcDbEntity
  8
0
100
AcDbSpline
 62
7
  6
CONTINUOUS
 70
0
 71
3
 72
9
 73
5
 74
0
 42
0.0000001
 43
0.0000001
 44
0.0000000001
 40
0.0
 40
0.0
 40
0.0
 40
0.0
 40
0.2376610461
 40
1.0
 40
1.0
 40
1.0
 40
1.0
 10
268.5170819696
 20
33.7975409372
 30
0.0
 10
268.5531025194
 20
33.716846586
 30
0.0
 10
268.6877267563
 20
33.3697994884
 30
0.0
 10
268.7571610704
 20
32.999150574
 30
0.0
 10
268.7796444012
 20
32.7165851747
 30
0.0
  0
SPLINE
  5
675
100
AcDbEntity
  8
02___PRT_ALL_AXES
100
AcDbSpline
 62
7
  6
CONTINUOUS
 70
0
 71
3
 72
11
 73
7
 74
0
 42
0.0000001
 43
0.0000001
 44
0.0000000001
 40
0.0
 40
0.0
 40
0.0
 40
0.0
 40
0.2877766171
 40
0.5484962599
 40
0.7827351486
 40
1.0
 40
1.0
 40
1.0
 40
1.0
 10
260.0912708353
 20
16.6024280372
 30
0.0
 10
260.1025618069
 20
16.4605256693
 30
0.0
 10
260.150858179
 20
16.190931312
 30
0.0
 10
260.3104589277
 20
15.8331668549
 30
0.0
 10
260.5472533921
 20
15.5635378713
 30
0.0
 10
260.7524885245
 20
15.459055983
 30
0.0
 10
260.8562658118
 20
15.4311196533
 30
0.0
  0
SPLINE
  5
676
100
AcDbEntity
  8
02___PRT_ALL_AXES
100
AcDbSpline
 62
7
  6
CONTINUOUS
 70
0
 71
3
 72
11
 73
7
 74
0
 42
0.0000001
 43
0.0000001
 44
0.0000000001
 40
0.0
 40
0.0
 40
0.0
 40
0.0
 40
0.2877766171
 40
0.5484962599
 40
0.7827351486
 40
1.0
 40
1.0
 40
1.0
 40
1.0
 10
258.230148334
 20
39.9925932066
 30
0.0
 10
258.2414393055
 20
39.8506908387
 30
0.0
 10
258.2897356776
 20
39.5810964814
 30
0.0
 10
258.4493364264
 20
39.2233320243
 30
0.0
 10
258.6861308907
 20
38.9537030407
 30
0.0
 10
258.8913660232
 20
38.8492211524
 30
0.0
 10
258.9951433104
 20
38.8212848227
 30
0.0
  0
SPLINE
  5
677
100
AcDbEntity
  8
02___PRT_ALL_AXES
100
AcDbSpline
 62
7
  6
CONTINUOUS
 70
0
 71
3
 72
9
 73
5
 74
0
 42
0.0000001
 43
0.0000001
 44
0.0000000001
 40
0.0
 40
0.0
 40
0.0
 40
0.0
 40
0.2710669322
 40
1.0
 40
1.0
 40
1.0
 40
1.0
 10
259.6002301744
 20
41.3175717003
 30
0.0
 10
259.593940884
 20
41.3966140735
 30
0.0
 10
259.5549084187
 20
41.6860146295
 30
0.0
 10
259.4465153992
 20
41.9713774708
 30
0.0
 10
259.3199326485
 20
42.1429654187
 30
0.0
  0
SPLINE
  5
678
100
AcDbEntity
  8
02___PRT_ALL_AXES
100
AcDbSpline
 62
7
  6
CONTINUOUS
 70
0
 71
3
 72
9
 73
5
 74
0
 42
0.0000001
 43
0.0000001
 44
0.0000000001
 40
0.0
 40
0.0
 40
0.0
 40
0.0
 40
0.2551784055
 40
1.0
 40
1.0
 40
1.0
 40
1.0
 10
260.1149110959
 20
17.161187206
 30
0.0
 10
260.1074516386
 20
17.1141434852
 30
0.0
 10
260.0834085542
 20
16.9290242501
 30
0.0
 10
260.0802434293
 20
16.7410179735
 30
0.0
 10
260.0912708353
 20
16.6024280372
 30
0.0
  0
SPLINE
  5
679
100
AcDbEntity
  8
02___PRT_ALL_AXES
100
AcDbSpline
 62
7
  6
CONTINUOUS
 70
0
 71
3
 72
10
 73
6
 74
0
 42
0.0000001
 43
0.0000001
 44
0.0000000001
 40
0.0
 40
0.0
 40
0.0
 40
0.0
 40
0.2224488215
 40
0.5936631006
 40
1.0
 40
1.0
 40
1.0
 40
1.0
 10
260.3793392504
 20
15.7748496388
 30
0.0
 10
260.4772493495
 20
15.8173112949
 30
0.0
 10
260.7229743106
 20
15.9678010813
 30
0.0
 10
261.0513986686
 20
16.3271198162
 30
0.0
 10
261.2260429488
 20
16.6613964389
 30
0.0
 10
261.2962773173
 20
16.8432470699
 30
0.0
  0
SPLINE
  5
67A
100
AcDbEntity
  8
02___PRT_ALL_AXES
100
AcDbSpline
 62
7
  6
CONTINUOUS
 70
0
 71
3
 72
14
 73
10
 74
0
 42
0.0000001
 43
0.0000001
 44
0.0000000001
 40
0.0
 40
0.0
 40
0.0
 40
0.0
 40
0.0971444512
 40
0.2011916055
 40
0.3162749316
 40
0.4430291785
 40
0.5792741086
 40
0.721006764
 40
1.0
 40
1.0
 40
1.0
 40
1.0
 10
259.9049185552
 20
42.2009413086
 30
0.0
 10
259.8065768913
 20
42.2274143955
 30
0.0
 10
259.5901944916
 20
42.24180509
 30
0.0
 10
259.2675583453
 20
42.1435733861
 30
0.0
 10
258.9624849511
 20
41.9398487247
 30
0.0
 10
258.691780643
 20
41.6462171722
 30
0.0
 10
258.4702891087
 20
41.2811249111
 30
0.0
 10
258.2600391166
 20
40.7346269581
 30
0.0
 10
258.2069489637
 20
40.2841576269
 30
0.0
 10
258.230148334
 20
39.9925932066
 30
0.0
  0
SPLINE
  5
67B
100
AcDbEntity
  8
02___PRT_ALL_AXES
100
AcDbSpline
 62
7
  6
CONTINUOUS
 70
0
 71
3
 72
12
 73
8
 74
0
 42
0.0000001
 43
0.0000001
 44
0.0000000001
 40
0.0
 40
0.0
 40
0.0
 40
0.0
 40
0.2198429659
 40
0.3424713957
 40
0.4714403246
 40
0.7383713367
 40
1.0
 40
1.0
 40
1.0
 40
1.0
 10
258.5182167491
 20
39.1650148082
 30
0.0
 10
258.6890429609
 20
39.2390987272
 30
0.0
 10
258.9278334317
 20
39.4202634187
 30
0.0
 10
259.1795214599
 20
39.7307582162
 30
0.0
 10
259.4036284784
 20
40.1103914636
 30
0.0
 10
259.5852063923
 20
40.6436424414
 30
0.0
 10
259.6178062137
 20
41.0966800274
 30
0.0
 10
259.6002301744
 20
41.3175717003
 30
0.0
  0
SPLINE
  5
67C
100
AcDbEntity
  8
02___PRT_ALL_AXES
100
AcDbSpline
 62
7
  6
CONTINUOUS
 70
0
 71
3
 72
11
 73
7
 74
0
 42
0.0000001
 43
0.0000001
 44
0.0000000001
 40
0.0
 40
0.0
 40
0.0
 40
0.0
 40
0.2877766171
 40
0.5484962599
 40
0.7827351486
 40
1.0
 40
1.0
 40
1.0
 40
1.0
 10
260.6699135317
 20
41.0296329247
 30
0.0
 10
260.6586225601
 20
41.1715352926
 30
0.0
 10
260.610326188
 20
41.4411296499
 30
0.0
 10
260.4507254393
 20
41.798894107
 30
0.0
 10
260.2139309749
 20
42.0685230907
 30
0.0
 10
260.0086958425
 20
42.1730049789
 30
0.0
 10
259.9049185552
 20
42.2009413086
 30
0.0
  0
SPLINE
  5
67D
100
AcDbEntity
  8
02___PRT_ALL_AXES
100
AcDbSpline
 62
7
  6
CONTINUOUS
 70
0
 71
3
 72
13
 73
9
 74
0
 42
0.0000001
 43
0.0000001
 44
0.0000000001
 40
0.0
 40
0.0
 40
0.0
 40
0.0
 40
0.1023852779
 40
0.2084138365
 40
0.3209607899
 40
0.441706293
 40
0.7077843124
 40
1.0
 40
1.0
 40
1.0
 40
1.0
 10
260.8562658118
 20
15.4311196533
 30
0.0
 10
260.9236530654
 20
15.4129793397
 30
0.0
 10
261.0664128214
 20
15.3943089766
 30
0.0
 10
261.2854874917
 20
15.4221630685
 30
0.0
 10
261.5039378768
 20
15.5035150553
 30
0.0
 10
261.7944667601
 20
15.6844123063
 30
0.0
 10
262.1153583467
 20
16.0288612105
 30
0.0
 10
262.2942012377
 20
16.3695089604
 30
0.0
 10
262.3659606746
 20
16.5553082943
 30
0.0
  0
SPLINE
  5
67E
100
AcDbEntity
  8
02___PRT_ALL_AXES
100
AcDbSpline
 62
7
  6
CONTINUOUS
 70
0
 71
3
 72
14
 73
10
 74
0
 42
0.0000001
 43
0.0000001
 44
0.0000000001
 40
0.0
 40
0.0
 40
0.0
 40
0.0
 40
0.0971444512
 40
0.2011916055
 40
0.3162749316
 40
0.4430291785
 40
0.5792741086
 40
0.721006764
 40
1.0
 40
1.0
 40
1.0
 40
1.0
 10
258.9951433104
 20
38.8212848227
 30
0.0
 10
259.0934849743
 20
38.7948117358
 30
0.0
 10
259.309867374
 20
38.7804210413
 30
0.0
 10
259.6325035204
 20
38.8786527452
 30
0.0
 10
259.9375769146
 20
39.0823774067
 30
0.0
 10
260.2082812227
 20
39.3760089591
 30
0.0
 10
260.4297727569
 20
39.7411012202
 30
0.0
 10
260.6400227491
 20
40.2875991732
 30
0.0
 10
260.693112902
 20
40.7380685044
 30
0.0
 10
260.6699135317
 20
41.0296329247
 30
0.0
  0
SPLINE
  5
67F
100
AcDbEntity
  8
0
100
AcDbSpline
 62
7
  6
CONTINUOUS
 70
0
 71
3
 72
9
 73
5
 74
0
 42
0.0000001
 43
0.0000001
 44
0.0000000001
 40
0.0
 40
0.0
 40
0.0
 40
0.0
 40
0.4863634841
 40
1.0
 40
1.0
 40
1.0
 40
1.0
 10
274.5563844418
 20
29.2282606953
 30
0.0
 10
275.3841458565
 20
29.8373396412
 30
0.0
 10
276.9120176585
 20
31.334378325
 30
0.0
 10
278.0551143859
 20
33.1318424584
 30
0.0
 10
278.5446846649
 20
34.1004796579
 30
0.0
  0
SPLINE
  5
680
100
AcDbEntity
  8
0
100
AcDbSpline
 62
7
  6
CONTINUOUS
 70
0
 71
3
 72
11
 73
7
 74
0
 42
0.0000001
 43
0.0000001
 44
0.0000000001
 40
0.0
 40
0.0
 40
0.0
 40
0.0
 40
0.2923368786
 40
0.5616523683
 40
0.799717839
 40
1.0
 40
1.0
 40
1.0
 40
1.0
 10
284.2368605286
 20
45.3627100761
 30
0.0
 10
284.4622303253
 20
45.8086145317
 30
0.0
 10
284.9525010389
 20
46.6381601004
 30
0.0
 10
285.8164479688
 20
47.7043615412
 30
0.0
 10
286.727096841
 20
48.5092320483
 30
0.0
 10
287.3796232436
 20
48.891195486
 30
0.0
 10
287.6946413022
 20
49.0250961741
 30
0.0
  0
SPLINE
  5
681
100
AcDbEntity
  8
0
100
AcDbSpline
 62
7
  6
CONTINUOUS
 70
0
 71
3
 72
16
 73
12
 74
0
 42
0.0000001
 43
0.0000001
 44
0.0000000001
 40
0.0
 40
0.0
 40
0.0
 40
0.0
 40
0.1149427973
 40
0.2458484647
 40
0.3877054554
 40
0.5322092423
 40
0.6703722358
 40
0.7949312354
 40
0.9030579719
 40
0.9523795668
 40
1.0
 40
1.0
 40
1.0
 40
1.0
 10
286.5305660184
 20
53.664892625
 30
0.0
 10
286.7427869645
 20
53.6077667111
 30
0.0
 10
287.1713428158
 20
53.3886229435
 30
0.0
 10
287.7106517044
 20
52.8695943584
 30
0.0
 10
288.1457005065
 20
52.1927989467
 30
0.0
 10
288.4320852201
 20
51.4267663146
 30
0.0
 10
288.5406921406
 20
50.6485222557
 30
0.0
 10
288.459879059
 20
49.9352561086
 30
0.0
 10
288.2212519952
 20
49.4343164632
 30
0.0
 10
287.9402293623
 20
49.1559365995
 30
0.0
 10
287.7784402514
 20
49.0607083314
 30
0.0
 10
287.6946422207
 20
49.0250940131
 30
0.0
  0
SPLINE
  5
682
100
AcDbEntity
  8
0
100
AcDbSpline
 62
7
  6
CONTINUOUS
 70
0
 71
3
 72
12
 73
8
 74
0
 42
0.0000001
 43
0.0000001
 44
0.0000000001
 40
0.0
 40
0.0
 40
0.0
 40
0.0
 40
0.1257849653
 40
0.2425137932
 40
0.4746254047
 40
0.7272939732
 40
1.0
 40
1.0
 40
1.0
 40
1.0
 10
284.5305730748
 20
52.4835848666
 30
0.0
 10
284.5755095902
 20
52.4714887962
 30
0.0
 10
284.659691273
 20
52.4353958314
 30
0.0
 10
284.7906093762
 20
52.3132241979
 30
0.0
 10
284.8680589224
 20
52.0935892584
 30
0.0
 10
284.8648042411
 20
51.8115463478
 30
0.0
 10
284.827474788
 20
51.6199048637
 30
0.0
 10
284.802429616
 20
51.5221711198
 30
0.0
  0
SPLINE
  5
683
100
AcDbEntity
  8
0
100
AcDbSpline
 62
7
  6
CONTINUOUS
 70
0
 71
3
 72
17
 73
13
 74
0
 42
0.0000001
 43
0.0000001
 44
0.0000000001
 40
0.0
 40
0.0
 40
0.0
 40
0.0
 40
0.1370067189
 40
0.2947015405
 40
0.4605932337
 40
0.6213277735
 40
0.7640858943
 40
0.8779043238
 40
0.9215200193
 40
0.9556764979
 40
0.9809456874
 40
1.0
 40
1.0
 40
1.0
 40
1.0
 10
274.9496076782
 20
36.3583310493
 30
0.0
 10
275.1426629232
 20
36.306364184
 30
0.0
 10
275.5511139372
 20
36.1693883959
 30
0.0
 10
276.1711450462
 20
35.9089188382
 30
0.0
 10
276.8045062247
 20
35.5942951208
 30
0.0
 10
277.398418051
 20
35.2519493991
 30
0.0
 10
277.9031933775
 20
34.9106084526
 30
0.0
 10
278.2428988138
 20
34.6316671452
 30
0.0
 10
278.4330003677
 20
34.4257959033
 30
0.0
 10
278.5188713894
 20
34.3017121761
 30
0.0
 10
278.5632323635
 20
34.1942097005
 30
0.0
 10
278.5572178171
 20
34.1252998016
 30
0.0
 10
278.5446835777
 20
34.1004802074
 30
0.0
  0
SPLINE
  5
684
100
AcDbEntity
  8
0
100
AcDbSpline
 62
7
  6
CONTINUOUS
 70
0
 71
3
 72
9
 73
5
 74
0
 42
0.0000001
 43
0.0000001
 44
0.0000000001
 40
0.0
 40
0.0
 40
0.0
 40
0.0
 40
0.4835719519
 40
1.0
 40
1.0
 40
1.0
 40
1.0
 10
285.7387143164
 20
53.626658203
 30
0.0
 10
285.8579990928
 20
53.6773544539
 30
0.0
 10
286.1262901198
 20
53.7361262804
 30
0.0
 10
286.396906543
 20
53.7008712587
 30
0.0
 10
286.5305660184
 20
53.664892625
 30
0.0
  0
SPLINE
  5
685
100
AcDbEntity
  8
0
100
AcDbSpline
 62
7
  6
CONTINUOUS
 70
0
 71
3
 72
18
 73
14
 74
0
 42
0.0000001
 43
0.0000001
 44
0.0000000001
 40
0.0
 40
0.0
 40
0.0
 40
0.0
 40
0.1756050275
 40
0.3501501121
 40
0.5156438539
 40
0.6646013976
 40
0.7904730268
 40
0.8431621941
 40
0.8884156064
 40
0.926074973
 40
0.956369646
 40
0.9802254141
 40
1.0
 40
1.0
 40
1.0
 40
1.0
 10
281.8171378404
 20
47.1839691554
 30
0.0
 10
281.9837217836
 20
47.1084990256
 30
0.0
 10
282.3122061123
 20
46.9497600017
 30
0.0
 10
282.7843213754
 20
46.6934561393
 30
0.0
 10
283.2194728522
 20
46.4283934295
 30
0.0
 10
283.5968488535
 20
46.1674366279
 30
0.0
 10
283.8628892619
 20
45.9530472879
 30
0.0
 10
284.0308152606
 20
45.7911600846
 30
0.0
 10
284.124880085
 20
45.6855934001
 30
0.0
 10
284.1939274324
 20
45.5896446288
 30
0.0
 10
284.237433854
 20
45.5039204257
 30
0.0
 10
284.2551263774
 20
45.4277116054
 30
0.0
 10
284.2461426633
 20
45.3810937045
 30
0.0
 10
284.2368592982
 20
45.3627106979
 30
0.0
  0
LINE
  5
686
100
AcDbEntity
  8
0
100
AcDbLine
 62
7
  6
CONTINUOUS
 10
283.4596094883
 20
52.1647665481
 11
283.4657162789
 21
52.1685736505
  0
SPLINE
  5
687
100
AcDbEntity
  8
0
100
AcDbSpline
 62
7
  6
CONTINUOUS
 70
0
 71
3
 72
10
 73
6
 74
0
 42
0.0000001
 43
0.0000001
 44
0.0000000001
 40
0.0
 40
0.0
 40
0.0
 40
0.0
 40
0.5331590188
 40
0.7817362194
 40
1.0
 40
1.0
 40
1.0
 40
1.0
 10
283.4657162789
 20
52.1685736505
 30
0.0
 10
283.6368938167
 20
52.2750705367
 30
0.0
 10
283.901552556
 20
52.4151479896
 30
0.0
 10
284.2695675357
 20
52.5090628725
 30
0.0
 10
284.4508783961
 20
52.5050371852
 30
0.0
 10
284.5305730748
 20
52.4835848666
 30
0.0
  0
SPLINE
  5
688
100
AcDbEntity
  8
0
100
AcDbSpline
 62
7
  6
CONTINUOUS
 70
0
 71
3
 72
13
 73
9
 74
0
 42
0.0000001
 43
0.0000001
 44
0.0000000001
 40
0.0
 40
0.0
 40
0.0
 40
0.0
 40
0.0621239709
 40
0.1352879483
 40
0.2262338238
 40
0.338097385
 40
0.627388098
 40
1.0
 40
1.0
 40
1.0
 40
1.0
 10
274.0822692696
 20
36.3558813203
 30
0.0
 10
274.0907359092
 20
36.3726464828
 30
0.0
 10
274.118751755
 20
36.404594184
 30
0.0
 10
274.1811507574
 20
36.4350858617
 30
0.0
 10
274.2632008631
 20
36.4527435306
 30
0.0
 10
274.4122039257
 20
36.4603173413
 30
0.0
 10
274.645737505
 20
36.4327682395
 30
0.0
 10
274.840829037
 20
36.3876122272
 30
0.0
 10
274.9496076782
 20
36.3583310493
 30
0.0
  0
SPLINE
  5
689
100
AcDbEntity
  8
0
100
AcDbSpline
 62
7
  6
CONTINUOUS
 70
0
 71
3
 72
11
 73
7
 74
0
 42
0.0000001
 43
0.0000001
 44
0.0000000001
 40
0.0
 40
0.0
 40
0.0
 40
0.0
 40
0.2375462937
 40
0.4815814432
 40
0.7355685227
 40
1.0
 40
1.0
 40
1.0
 40
1.0
 10
123.4208838499
 20
71.1122898449
 30
0.0
 10
123.6230823467
 20
70.9976347014
 30
0.0
 10
124.0188222066
 20
70.7382764746
 30
0.0
 10
124.5471296746
 20
70.242333484
 30
0.0
 10
124.9563006031
 20
69.6061062854
 30
0.0
 10
125.0669943769
 20
69.0942297569
 30
0.0
 10
125.0669943769
 20
68.8354784733
 30
0.0
  0
SPLINE
  5
68A
100
AcDbEntity
  8
0
100
AcDbSpline
 62
7
  6
CONTINUOUS
 70
0
 71
3
 72
11
 73
7
 74
0
 42
0.0000001
 43
0.0000001
 44
0.0000000001
 40
0.0
 40
0.0
 40
0.0
 40
0.0
 40
0.2645243612
 40
0.5184610896
 40
0.7624428856
 40
1.0
 40
1.0
 40
1.0
 40
1.0
 10
125.0669943769
 20
68.8354784733
 30
0.0
 10
125.0669943769
 20
68.573020961
 30
0.0
 10
124.9529272895
 20
68.0538898504
 30
0.0
 10
124.5334905741
 20
67.4115989527
 30
0.0
 10
123.9939800001
 20
66.9129511102
 30
0.0
 10
123.5906957454
 20
66.653169568
 30
0.0
 10
123.3848056875
 20
66.5384340783
 30
0.0
  0
SPLINE
  5
68B
100
AcDbEntity
  8
0
100
AcDbSpline
 62
7
  6
CONTINUOUS
 70
0
 71
3
 72
10
 73
6
 74
0
 42
0.0000001
 43
0.0000001
 44
0.0000000001
 40
0.0
 40
0.0
 40
0.0
 40
0.0
 40
0.5191203113
 40
0.762410903
 40
1.0
 40
1.0
 40
1.0
 40
1.0
 10
96.3626333977
 20
64.8020038426
 30
0.0
 10
96.645867986
 20
64.5085425724
 30
0.0
 10
97.1389419564
 20
64.1365488897
 30
0.0
 10
97.8861034265
 20
63.8786337269
 30
0.0
 10
98.2652973291
 20
63.8354784733
 30
0.0
 10
98.4519604811
 20
63.8354784733
 30
0.0
  0
SPLINE
  5
68C
100
AcDbEntity
  8
0
100
AcDbSpline
 62
7
  6
CONTINUOUS
 70
0
 71
3
 72
10
 73
6
 74
0
 42
0.0000001
 43
0.0000001
 44
0.0000000001
 40
0.0
 40
0.0
 40
0.0
 40
0.0
 40
0.2375982077
 40
0.4809079277
 40
1.0
 40
1.0
 40
1.0
 40
1.0
 10
116.7362317285
 20
73.8354785303
 30
0.0
 10
116.5495751856
 20
73.8354792425
 30
0.0
 10
116.1703825286
 20
73.7923469036
 30
0.0
 10
115.4232943307
 20
73.5343974375
 30
0.0
 10
114.9302280364
 20
73.1625088807
 30
0.0
 10
114.6470015741
 20
72.8691124057
 30
0.0
  0
SPLINE
  5
68D
100
AcDbEntity
  8
0
100
AcDbSpline
 62
7
  6
CONTINUOUS
 70
0
 71
3
 72
10
 73
6
 74
0
 42
0.0000001
 43
0.0000001
 44
0.0000000001
 40
0.0
 40
0.0
 40
0.0
 40
0.0
 40
0.5190920723
 40
0.7624017923
 40
1.0
 40
1.0
 40
1.0
 40
1.0
 10
114.6470015741
 20
64.8018445408
 30
0.0
 10
114.9302280364
 20
64.5084480658
 30
0.0
 10
115.4232943307
 20
64.1365595091
 30
0.0
 10
116.1703825286
 20
63.878610043
 30
0.0
 10
116.5495751856
 20
63.8354777041
 30
0.0
 10
116.7362317285
 20
63.8354784162
 30
0.0
  0
SPLINE
  5
68E
100
AcDbEntity
  8
0
100
AcDbSpline
 62
7
  6
CONTINUOUS
 70
0
 71
3
 72
10
 73
6
 74
0
 42
0.0000001
 43
0.0000001
 44
0.0000000001
 40
0.0
 40
0.0
 40
0.0
 40
0.0
 40
0.237589097
 40
0.4808796887
 40
1.0
 40
1.0
 40
1.0
 40
1.0
 10
98.4519604811
 20
73.8354784733
 30
0.0
 10
98.2652973291
 20
73.8354784733
 30
0.0
 10
97.8861034265
 20
73.7923232196
 30
0.0
 10
97.1389419564
 20
73.5344080568
 30
0.0
 10
96.645867986
 20
73.1624143741
 30
0.0
 10
96.3626333977
 20
72.8689531039
 30
0.0
  0
SPLINE
  5
68F
100
AcDbEntity
  8
0
100
AcDbSpline
 62
7
  6
CONTINUOUS
 70
0
 71
3
 72
11
 73
7
 74
0
 42
0.0000001
 43
0.0000001
 44
0.0000000001
 40
0.0
 40
0.0
 40
0.0
 40
0.0
 40
0.2302647341
 40
0.4697552618
 40
0.7252010966
 40
1.0
 40
1.0
 40
1.0
 40
1.0
 10
236.2530241589
 20
240.8639974635
 30
0.0
 10
236.2530232259
 20
241.1085408093
 30
0.0
 10
236.3281025528
 20
241.6102098701
 30
0.0
 10
236.6555386765
 20
242.3171834372
 30
0.0
 10
237.1776337045
 20
242.9557316553
 30
0.0
 10
237.6234400072
 20
243.3070510027
 30
0.0
 10
237.8681310423
 20
243.466099214
 30
0.0
  0
SPLINE
  5
690
100
AcDbEntity
  8
0
100
AcDbSpline
 62
7
  6
CONTINUOUS
 70
0
 71
3
 72
11
 73
7
 74
0
 42
0.0000001
 43
0.0000001
 44
0.0000000001
 40
0.0
 40
0.0
 40
0.0
 40
0.0
 40
0.2747989034
 40
0.5302447382
 40
0.7697352659
 40
1.0
 40
1.0
 40
1.0
 40
1.0
 10
244.6379173895
 20
243.466099214
 30
0.0
 10
244.8826084247
 20
243.3070510027
 30
0.0
 10
245.3284147274
 20
242.9557316553
 30
0.0
 10
245.8505097554
 20
242.3171834372
 30
0.0
 10
246.177945879
 20
241.6102098701
 30
0.0
 10
246.253025206
 20
241.1085408093
 30
0.0
 10
246.253024273
 20
240.8639974635
 30
0.0
  0
ELLIPSE
  5
691
100
AcDbEntity
  8
0
100
AcDbEllipse
 62
7
  6
CONTINUOUS
 10
282.2842859412
 20
49.4418559188
 30
0.0
 11
2.3026363123
 21
2.7063697038
 31
0.0
 40
0.3817970023
 41
-2.4903793944
 42
0.6512132592
  0
ELLIPSE
  5
692
100
AcDbEntity
  8
0
100
AcDbEllipse
 62
7
  6
CONTINUOUS
 10
286.1280293498
 20
54.6467228386
 30
0.0
 11
6.2369292721
 21
8.2518663777
 31
0.0
 40
0.1658463647
 41
3.256734665
 42
3.594679835
  0
ELLIPSE
  5
693
100
AcDbEntity
  8
0
100
AcDbEllipse
 62
7
  6
CONTINUOUS
 10
118.1612639523
 20
68.8354784733
 30
0.0
 11
6.4013381162
 21
-0.0
 31
0.0
 40
0.6248693519
 41
-1.5707965333
 42
1.5707961203
  0
ENDSEC
  0
SECTION
  2
OBJECTS
  0
DICTIONARY
  5
C
100
AcDbDictionary
280
0
281
1
  3
ACAD_GROUP
350
D
  3
ACAD_MLINESTYLE
350
17
  3
ACAD_LAYOUT
350
1A
  3
ACAD_PLOTSETTINGS
350
19
  3
ACAD_PLOTSTYLENAME
350
E
  0
DICTIONARY
  5
D
102
{ACAD_REACTORS
330
C
102
}
100
AcDbDictionary
280
0
281
1
  0
ACDBDICTIONARYWDFLT
  5
E
102
{ACAD_REACTORS
330
C
102
}
100
AcDbDictionary
281
1
  3
Normal
350
F
100
AcDbDictionaryWithDefault
340
F
  0
DICTIONARY
  5
17
102
{ACAD_REACTORS
330
C
102
}
100
AcDbDictionary
280
0
281
1
  3
Standard
350
18
  0
DICTIONARY
  5
19
102
{ACAD_REACTORS
330
C
102
}
100
AcDbDictionary
281
1
  0
DICTIONARY
  5
1A
102
{ACAD_REACTORS
330
C
102
}
100
AcDbDictionary
281
1
  3
Model
350
694
  3
Layout1
350
695
  0
ACDBPLACEHOLDER
  5
F
102
{ACAD_REACTORS
330
E
102
}
  0
MLINESTYLE
  5
18
102
{ACAD_REACTORS
330
17
102
}
100
AcDbMlineStyle
  2
STANDARD
 70
0
  3

 62
256
 51
90.0
 52
90.0
 71
2
 49
0.5
 62
256
  6
BYLAYER
 49
-0.5
 62
256
  6
BYLAYER
  0
LAYOUT
  5
694
102
{ACAD_REACTORS
330
1A
102
}
100
AcDbPlotSettings
  1

  2
none_device
  4
ISO_A3_(420.00_x_297.00_MM)
  6

 40
0.0
 41
0.0
 42
0.0
 43
0.0
 44
420.0
 45
297.0
 46
0.0
 47
0.0
 48
0.0
 49
0.0
140
0.0
141
0.0
142
1.0
143
1.0
 70
1024
 72
1
 73
0
 74
0
  7

 75
0
147
1.0
148
0.0
149
0.0
100
AcDbLayout
  1
Model
 70
0
 71
0
 10
0.0
 20
0.0
 11
420.0
 21
297.0
 12
0.0
 22
0.0
 32
0.0
 14
0.0
 24
0.0
 34
0.0
 15
0.0
 25
0.0
 35
0.0
146
0.0
 13
0.0
 23
0.0
 33
0.0
 16
1.0
 26
0.0
 36
0.0
 17
0.0
 27
1.0
 37
0.0
 76
0
330
216
345
0
346
0
  0
LAYOUT
  5
695
102
{ACAD_REACTORS
330
1A
102
}
100
AcDbPlotSettings
  1

  2
none_device
  4
ISO_A3_(420.00_x_297.00_MM)
  6

 40
0.0
 41
0.0
 42
0.0
 43
0.0
 44
420.0
 45
297.0
 46
0.0
 47
0.0
 48
0.0
 49
0.0
140
0.0
141
0.0
142
1.0
143
1.0
 70
0
 72
1
 73
0
 74
0
  7

 75
0
147
1.0
148
0.0
149
0.0
100
AcDbLayout
  1
Layout1
 70
0
 71
1
 10
0.0
 20
0.0
 11
420.0
 21
297.0
 12
0.0
 22
0.0
 32
0.0
 14
0.0
 24
0.0
 34
0.0
 15
0.0
 25
0.0
 35
0.0
146
0.0
 13
0.0
 23
0.0
 33
0.0
 16
1.0
 26
0.0
 36
0.0
 17
0.0
 27
1.0
 37
0.0
 76
0
330
217
345
0
346
0
  0
ENDSEC
  0
EOF
