999
DXF file: sensoradapter_dm15_etage.dxf
999
Pro/ENGINEER 2018400 by Parametric Technology Corporation
  0
SECTION
  2
HEADER
  9
$ACADVER
  1
AC1027
  9
$DWGCODEPAGE
  3
ANSI_1252
  9
$EXTMAX
 10
420.0
 20
297.0
 30
0.0
  9
$EXTMIN
 10
0.0
 20
0.0
 30
0.0
  9
$LIMMIN
 10
0.0
 20
0.0
  9
$LIMMAX
 10
420.0
 20
297.0
  9
$VIEWCTR
 10
210.0
 20
148.5
  9
$VIEWSIZE
 40
297.0
  9
$CLAYER
  8
0
  9
$LTSCALE
 40
23.1
  9
$CELTYPE
  6
BYLAYER
  9
$DIMSCALE
 40
1.0
  9
$DIMASZ
 40
3.5
  9
$DIMEXO
 40
1.0
  9
$DIMDLI
 40
15.96
  9
$DIMEXE
 40
1.5
  9
$DIMCEN
 40
3.78
  9
$DIMLFAC
 40
1.0
  9
$DIMBLK
  1
_FILLED
  9
$DIMALT
 70
0
  9
$DIMALTF
 40
0.0393700787
  9
$DIMTXT
 40
3.5
  9
$DIMTOL
 70
1
  9
$DIMLIM
 70
0
  9
$DIMTFAC
 40
1.0
  9
$DIMTP
 40
0.01
  9
$DIMTM
 40
0.01
  9
$DIMGAP
 40
0.625
  9
$DIMDSEP
 70
44
  9
$AUNITS
 70
0
  9
$PDMODE
 70
3
  9
$PDSIZE
 40
8.0
  9
$HANDSEED
  5
681
  9
$TILEMODE
 70
1
  9
$MEASUREMENT
 70
1
  9
$INSUNITS
 70
4
  0
ENDSEC
  0
SECTION
  2
CLASSES
  0
CLASS
  1
ACDBDICTIONARYWDFLT
  2
AcDbDictionaryWithDefault
  3
AutoCAD 2000
 90
0
 91
1
280
0
281
0
  0
CLASS
  1
ACDBPLACEHOLDER
  2
AcDbPlaceHolder
  3
AutoCAD 2000
 90
0
 91
1
280
0
281
0
  0
CLASS
  1
LAYOUT
  2
AcDbLayout
  3
AutoCAD 2000
 90
0
 91
0
280
0
281
0
  0
ENDSEC
  0
SECTION
  2
TABLES
  0
TABLE
  2
VPORT
  5
8
100
AcDbSymbolTable
 70
2
  0
VPORT
  5
1F4
100
AcDbSymbolTableRecord
100
AcDbViewportTableRecord
  2
*ACTIVE
 70
0
 10
0.0
 20
0.0
 11
1.0
 21
1.0
 12
210.0
 22
148.5
 13
0.0
 23
0.0
 14
1.0
 24
1.0
 15
0.0
 25
0.0
 16
0.0
 26
0.0
 36
1.0
 17
0.0
 27
0.0
 37
0.0
 40
297.0
 41
1.4141414141
 42
50.0
 43
0.0
 44
0.0
 50
0.0
 51
0.0
 71
0
 72
100
 73
1
 74
1
 75
0
 76
0
 77
0
 78
0
  0
ENDTAB
  0
TABLE
  2
LTYPE
  5
5
100
AcDbSymbolTable
 70
6
  0
LTYPE
  5
14
100
AcDbSymbolTableRecord
100
AcDbLinetypeTableRecord
  2
BYBLOCK
 70
0
  3

 72
65
 73
0
 40
0.0
  0
LTYPE
  5
15
100
AcDbSymbolTableRecord
100
AcDbLinetypeTableRecord
  2
BYLAYER
 70
0
  3

 72
65
 73
0
 40
0.0
  0
LTYPE
  5
16
100
AcDbSymbolTableRecord
100
AcDbLinetypeTableRecord
  2
CONTINUOUS
 70
64
  3
Solid line
 72
65
 73
0
 40
0.0
  0
LTYPE
  5
1F5
100
AcDbSymbolTableRecord
100
AcDbLinetypeTableRecord
  2
CENTER
 70
64
  3
____ _ ____ _ ____ _ ____ _ ____ _ ____ _ ____
 72
65
 73
4
 40
0.6
 49
0.375
 74
0
 49
-0.075
 74
0
 49
0.075
 74
0
 49
-0.075
 74
0
  0
LTYPE
  5
1F6
100
AcDbSymbolTableRecord
100
AcDbLinetypeTableRecord
  2
HIDDEN
 70
64
  3
- - - - - - - - - - - - - - - - - - - -
 72
65
 73
2
 40
0.2
 49
0.1
 74
0
 49
-0.1
 74
0
  0
LTYPE
  5
1F7
100
AcDbSymbolTableRecord
100
AcDbLinetypeTableRecord
  2
PHANTOM
 70
64
  3
_____ _ _ _____ _ _ _____ _ _ _____
 72
65
 73
6
 40
0.8
 49
0.45
 74
0
 49
-0.05
 74
0
 49
0.1
 74
0
 49
-0.05
 74
0
 49
0.1
 74
0
 49
-0.05
 74
0
  0
LTYPE
  5
1F8
100
AcDbSymbolTableRecord
100
AcDbLinetypeTableRecord
  2
DOT
 70
64
  3
. . . . . . . . . . . . . . . . . . . .
 72
65
 73
2
 40
0.2
 49
0.1
 74
0
 49
-0.1
 74
0
  0
LTYPE
  5
1F9
100
AcDbSymbolTableRecord
100
AcDbLinetypeTableRecord
  2
DASHED
 70
64
  3
- - - - - - - - - - - - - - - - - - - -
 72
65
 73
2
 40
0.2
 49
0.1
 74
0
 49
-0.1
 74
0
  0
ENDTAB
  0
TABLE
  2
LAYER
  5
2
100
AcDbSymbolTable
 70
36
  0
LAYER
  5
10
100
AcDbSymbolTableRecord
100
AcDbLayerTableRecord
  2
0
 70
0
 62
7
  6
CONTINUOUS
370
-3
390
F
  0
LAYER
  5
1FA
100
AcDbSymbolTableRecord
100
AcDbLayerTableRecord
  2
DEFAULT_1
 70
0
 62
7
  6
CENTER
370
-3
390
F
  0
LAYER
  5
1FB
100
AcDbSymbolTableRecord
100
AcDbLayerTableRecord
  2
DEFAULT_2
 70
0
 62
8
  6
HIDDEN
370
-3
390
F
  0
LAYER
  5
1FC
100
AcDbSymbolTableRecord
100
AcDbLayerTableRecord
  2
DEFAULT_3
 70
0
 62
7
  6
PHANTOM
370
-3
390
F
  0
LAYER
  5
1FD
100
AcDbSymbolTableRecord
100
AcDbLayerTableRecord
  2
01_ALL_DTM_PLN
 70
0
 62
7
  6
CONTINUOUS
370
-3
390
F
  0
LAYER
  5
1FE
100
AcDbSymbolTableRecord
100
AcDbLayerTableRecord
  2
01__ASM_ALL_DTM_PLN
 70
0
 62
7
  6
CONTINUOUS
370
-3
390
F
  0
LAYER
  5
1FF
100
AcDbSymbolTableRecord
100
AcDbLayerTableRecord
  2
01__ASM_DEF_DTM_PLN
 70
0
 62
7
  6
CONTINUOUS
370
-3
390
F
  0
LAYER
  5
200
100
AcDbSymbolTableRecord
100
AcDbLayerTableRecord
  2
01___PRT_ALL_DTM_PLN
 70
0
 62
7
  6
CONTINUOUS
370
-3
390
F
  0
LAYER
  5
201
100
AcDbSymbolTableRecord
100
AcDbLayerTableRecord
  2
01___PRT_DEF_DTM_PLN
 70
0
 62
7
  6
CONTINUOUS
370
-3
390
F
  0
LAYER
  5
202
100
AcDbSymbolTableRecord
100
AcDbLayerTableRecord
  2
02_ALL_AXES
 70
0
 62
7
  6
CONTINUOUS
370
-3
390
F
  0
LAYER
  5
203
100
AcDbSymbolTableRecord
100
AcDbLayerTableRecord
  2
02__ASM_ALL_AXES
 70
0
 62
7
  6
CONTINUOUS
370
-3
390
F
  0
LAYER
  5
204
100
AcDbSymbolTableRecord
100
AcDbLayerTableRecord
  2
02___PRT_ALL_AXES
 70
0
 62
7
  6
CONTINUOUS
370
-3
390
F
  0
LAYER
  5
205
100
AcDbSymbolTableRecord
100
AcDbLayerTableRecord
  2
03_ALL_CURVES
 70
0
 62
7
  6
CONTINUOUS
370
-3
390
F
  0
LAYER
  5
206
100
AcDbSymbolTableRecord
100
AcDbLayerTableRecord
  2
03__ASM_ALL_CURVES
 70
0
 62
7
  6
CONTINUOUS
370
-3
390
F
  0
LAYER
  5
207
100
AcDbSymbolTableRecord
100
AcDbLayerTableRecord
  2
03___PRT_ALL_CURVES
 70
0
 62
7
  6
CONTINUOUS
370
-3
390
F
  0
LAYER
  5
208
100
AcDbSymbolTableRecord
100
AcDbLayerTableRecord
  2
04_ALL_DTM_PNT
 70
0
 62
7
  6
CONTINUOUS
370
-3
390
F
  0
LAYER
  5
209
100
AcDbSymbolTableRecord
100
AcDbLayerTableRecord
  2
04__ASM_ALL_DTM_PNT
 70
0
 62
7
  6
CONTINUOUS
370
-3
390
F
  0
LAYER
  5
20A
100
AcDbSymbolTableRecord
100
AcDbLayerTableRecord
  2
04___PRT_ALL_DTM_PNT
 70
0
 62
7
  6
CONTINUOUS
370
-3
390
F
  0
LAYER
  5
20B
100
AcDbSymbolTableRecord
100
AcDbLayerTableRecord
  2
05_ALL_DTM_CSYS
 70
0
 62
7
  6
CONTINUOUS
370
-3
390
F
  0
LAYER
  5
20C
100
AcDbSymbolTableRecord
100
AcDbLayerTableRecord
  2
05__ASM_ALL_DTM_CSYS
 70
0
 62
7
  6
CONTINUOUS
370
-3
390
F
  0
LAYER
  5
20D
100
AcDbSymbolTableRecord
100
AcDbLayerTableRecord
  2
05__ASM_DEF_DTM_CSYS
 70
0
 62
7
  6
CONTINUOUS
370
-3
390
F
  0
LAYER
  5
20E
100
AcDbSymbolTableRecord
100
AcDbLayerTableRecord
  2
05___PRT_ALL_DTM_CSYS
 70
0
 62
7
  6
CONTINUOUS
370
-3
390
F
  0
LAYER
  5
20F
100
AcDbSymbolTableRecord
100
AcDbLayerTableRecord
  2
05___PRT_DEF_DTM_CSYS
 70
0
 62
7
  6
CONTINUOUS
370
-3
390
F
  0
LAYER
  5
210
100
AcDbSymbolTableRecord
100
AcDbLayerTableRecord
  2
06_ALL_SURFS
 70
0
 62
7
  6
CONTINUOUS
370
-3
390
F
  0
LAYER
  5
211
100
AcDbSymbolTableRecord
100
AcDbLayerTableRecord
  2
06__ASM_ALL_SURFS
 70
0
 62
7
  6
CONTINUOUS
370
-3
390
F
  0
LAYER
  5
212
100
AcDbSymbolTableRecord
100
AcDbLayerTableRecord
  2
06___PRT_ALL_SURFS
 70
0
 62
7
  6
CONTINUOUS
370
-3
390
F
  0
LAYER
  5
213
100
AcDbSymbolTableRecord
100
AcDbLayerTableRecord
  2
07__ASM_ALL_SKELETONS
 70
0
 62
7
  6
CONTINUOUS
370
-3
390
F
  0
ENDTAB
  0
TABLE
  2
STYLE
  5
3
100
AcDbSymbolTable
 70
1
  0
STYLE
  5
11
100
AcDbSymbolTableRecord
100
AcDbTextStyleTableRecord
  2
STANDARD
 70
0
 40
0.0
 41
0.85
 50
0.0
 71
0
 42
0.2
  3
txt
  4

  0
STYLE
  5
214
100
AcDbSymbolTableRecord
100
AcDbTextStyleTableRecord
  2
TEXTSTYLE_1
 70
0
 40
0.0
 41
0.8
 50
0.0
 71
0
 42
0.2
  3
gdt
  4

  0
ENDTAB
  0
TABLE
  2
VIEW
  5
6
100
AcDbSymbolTable
 70
0
  0
ENDTAB
  0
TABLE
  2
UCS
  5
7
100
AcDbSymbolTable
 70
0
  0
ENDTAB
  0
TABLE
  2
APPID
  5
9
100
AcDbSymbolTable
 70
1
  0
APPID
  5
215
100
AcDbSymbolTableRecord
100
AcDbRegAppTableRecord
  2
ACAD
 70
0
  0
ENDTAB
  0
TABLE
  2
BLOCK_RECORD
  5
1
100
AcDbSymbolTable
 70
0
  0
BLOCK_RECORD
  5
216
100
AcDbSymbolTableRecord
100
AcDbBlockTableRecord
  2
*Model_Space
  0
BLOCK_RECORD
  5
217
100
AcDbSymbolTableRecord
100
AcDbBlockTableRecord
  2
*Paper_Space
  0
BLOCK_RECORD
  5
218
100
AcDbSymbolTableRecord
100
AcDbBlockTableRecord
  2
_FILLED
  0
BLOCK_RECORD
  5
219
100
AcDbSymbolTableRecord
100
AcDbBlockTableRecord
  2
*D0
  0
BLOCK_RECORD
  5
21A
100
AcDbSymbolTableRecord
100
AcDbBlockTableRecord
  2
*D1
  0
BLOCK_RECORD
  5
21B
100
AcDbSymbolTableRecord
100
AcDbBlockTableRecord
  2
*D2
  0
BLOCK_RECORD
  5
21C
100
AcDbSymbolTableRecord
100
AcDbBlockTableRecord
  2
*D3
  0
BLOCK_RECORD
  5
21D
100
AcDbSymbolTableRecord
100
AcDbBlockTableRecord
  2
*D4
  0
BLOCK_RECORD
  5
21E
100
AcDbSymbolTableRecord
100
AcDbBlockTableRecord
  2
*D5
  0
BLOCK_RECORD
  5
21F
100
AcDbSymbolTableRecord
100
AcDbBlockTableRecord
  2
*D6
  0
BLOCK_RECORD
  5
220
100
AcDbSymbolTableRecord
100
AcDbBlockTableRecord
  2
*D7
  0
BLOCK_RECORD
  5
221
100
AcDbSymbolTableRecord
100
AcDbBlockTableRecord
  2
*D8
  0
BLOCK_RECORD
  5
222
100
AcDbSymbolTableRecord
100
AcDbBlockTableRecord
  2
*D9
  0
BLOCK_RECORD
  5
223
100
AcDbSymbolTableRecord
100
AcDbBlockTableRecord
  2
*D10
  0
BLOCK_RECORD
  5
224
100
AcDbSymbolTableRecord
100
AcDbBlockTableRecord
  2
*D11
  0
BLOCK_RECORD
  5
225
100
AcDbSymbolTableRecord
100
AcDbBlockTableRecord
  2
*D12
  0
BLOCK_RECORD
  5
226
100
AcDbSymbolTableRecord
100
AcDbBlockTableRecord
  2
*D13
  0
BLOCK_RECORD
  5
227
100
AcDbSymbolTableRecord
100
AcDbBlockTableRecord
  2
*D14
  0
BLOCK_RECORD
  5
228
100
AcDbSymbolTableRecord
100
AcDbBlockTableRecord
  2
*D15
  0
BLOCK_RECORD
  5
229
100
AcDbSymbolTableRecord
100
AcDbBlockTableRecord
  2
*D16
  0
BLOCK_RECORD
  5
22A
100
AcDbSymbolTableRecord
100
AcDbBlockTableRecord
  2
*D17
  0
ENDTAB
  0
TABLE
  2
DIMSTYLE
  5
A
100
AcDbSymbolTable
 70
1
100
AcDbDimStyleTable
 71
0
  0
DIMSTYLE
105
22B
100
AcDbSymbolTableRecord
100
AcDbDimStyleTableRecord
  2
STANDARD
 70
0
  3

  4

 40
1.0
 41
3.5
 42
1.0
 43
0.38
 44
1.5
 45
0.0
 46
0.0
 47
0.01
 48
0.01
140
3.5
141
0.09
142
0.0
143
25.4
144
1.0
145
0.0
146
1.0
147
0.625
 71
1.0
 72
0.0
 73
0
 74
0
 75
0
 76
0
 77
1
 78
8
 79
2
170
0
171
1
172
0
173
0
174
0
175
0
176
0
177
0
178
0
270
2
179
2
271
2
272
2
273
2
274
2
275
0
280
0
281
0
282
0
283
1
284
8
285
0
286
0
287
3
288
0
340
11
278
44
341
218
342
218
343
218
344
218
  0
DIMSTYLE
105
22C
100
AcDbSymbolTableRecord
100
AcDbDimStyleTableRecord
  2
DIMSTYLE_1
 70
0
  3

  4

 40
1.0
 41
3.5
 42
1.0
 43
0.38
 44
1.5
 45
0.0
 46
0.0
 47
0.01
 48
0.01
140
3.5
141
0.09
142
0.0
143
25.4
144
1.0
145
0.0
146
1.0
147
0.875
 71
0.0
 72
0.0
 73
0
 74
0
 75
0
 76
0
 77
1
 78
8
 79
2
170
0
171
1
172
0
173
0
174
0
175
0
176
0
177
0
178
0
270
2
179
2
271
0
272
0
273
2
274
2
275
0
280
0
281
0
282
0
283
1
284
8
285
0
286
0
287
3
288
0
340
11
278
44
341
218
342
218
343
218
344
218
  0
DIMSTYLE
105
22D
100
AcDbSymbolTableRecord
100
AcDbDimStyleTableRecord
  2
DIMSTYLE_2
 70
0
  3

  4

 40
1.0
 41
3.5
 42
1.0
 43
0.38
 44
1.5
 45
0.0
 46
0.0
 47
0.01
 48
0.01
140
3.5
141
0.09
142
0.0
143
25.4
144
1.0
145
0.0
146
1.0
147
0.875
 71
0.0
 72
0.0
 73
0
 74
0
 75
0
 76
0
 77
1
 78
8
 79
2
170
0
171
1
172
0
173
0
174
0
175
0
176
0
177
0
178
0
270
2
179
2
271
2
272
2
273
2
274
2
275
0
280
0
281
0
282
0
283
1
284
8
285
0
286
0
287
3
288
0
340
11
278
44
341
218
342
218
343
218
344
218
  0
ENDTAB
  0
ENDSEC
  0
SECTION
  2
BLOCKS
  0
BLOCK
  5
20
100
AcDbEntity
  8
0
100
AcDbBlockBegin
  2
*Model_Space
 70
0
 10
0.0
 20
0.0
 30
0.0
  3
*Model_Space
  1

  0
ENDBLK
  5
21
100
AcDbEntity
  8
0
100
AcDbBlockEnd
  0
BLOCK
  5
1C
100
AcDbEntity
  8
0
100
AcDbBlockBegin
  2
*Paper_Space
 70
0
 10
0.0
 20
0.0
 30
0.0
  3
*Paper_Space
  1

  0
ENDBLK
  5
1D
100
AcDbEntity
  8
0
100
AcDbBlockEnd
  0
BLOCK
  5
22E
100
AcDbEntity
  8
0
100
AcDbBlockBegin
  2
_FILLED
 70
64
 10
0.0
 20
0.0
  3
_FILLED
  1

  0
SOLID
  5
22F
100
AcDbEntity
  8
0
  6
BYBLOCK
 62
0
100
AcDbTrace
 10
0.0
 20
0.0
 11
-1.0
 21
0.2142857143
 12
-1.0
 22
-0.2142857143
 13
-1.0
 23
-0.2142857143
  0
ENDBLK
  5
230
100
AcDbEntity
  8
0
  6
BYBLOCK
 62
0
100
AcDbBlockEnd
  0
BLOCK
  5
231
100
AcDbEntity
  8
0
100
AcDbBlockBegin
 62
2
  6
CONTINUOUS
  2
*D0
 70
65
 10
0.0
 20
0.0
  3
*D0
  1

  0
MTEXT
  5
232
100
AcDbEntity
  8
0
100
AcDbMText
 62
2
  6
CONTINUOUS
  7
STANDARD
 71
2
 72
1
 10
158.2373584604
 20
163.6728142767
 30
0.0
 11
1.0
 21
0.0
 31
0.0
 73
2
 44
0.9
  1
(124)
 40
3.5
 41
14.875
  0
LINE
  5
233
100
AcDbEntity
  8
0
100
AcDbLine
 62
2
  6
CONTINUOUS
 10
220.1687591254
 20
247.9978142767
 11
220.1687591254
 21
157.7978142767
  0
LINE
  5
234
100
AcDbEntity
  8
0
100
AcDbLine
 62
2
  6
CONTINUOUS
 10
96.3059577954
 20
248.2978142767
 11
96.3059577954
 21
157.7978142767
  0
LINE
  5
235
100
AcDbEntity
  8
0
100
AcDbLine
 62
2
  6
CONTINUOUS
 10
220.1687591254
 20
159.2978142767
 11
158.2373584604
 21
159.2978142767
  0
LINE
  5
236
100
AcDbEntity
  8
0
100
AcDbLine
 62
2
  6
CONTINUOUS
 10
96.3059577954
 20
159.2978142767
 11
158.2373584604
 21
159.2978142767
  0
INSERT
  5
237
100
AcDbEntity
  8
0
100
AcDbBlockReference
 62
2
  6
CONTINUOUS
  2
_FILLED
 10
220.1687591254
 20
159.2978142767
 41
3.5
 42
3.5
 43
3.5
  0
INSERT
  5
238
100
AcDbEntity
  8
0
100
AcDbBlockReference
 62
2
  6
CONTINUOUS
  2
_FILLED
 10
96.3059577954
 20
159.2978142767
 41
3.5
 42
3.5
 43
3.5
 50
180.0
  0
ENDBLK
  5
239
100
AcDbEntity
  8
0
  6
BYBLOCK
 62
0
100
AcDbBlockEnd
  0
BLOCK
  5
23A
100
AcDbEntity
  8
0
100
AcDbBlockBegin
 62
2
  6
CONTINUOUS
  2
*D1
 70
65
 10
0.0
 20
0.0
  3
*D1
  1

  0
MTEXT
  5
23B
100
AcDbEntity
  8
0
100
AcDbMText
 62
2
  6
CONTINUOUS
  7
STANDARD
 71
2
 72
1
 10
121.1357505365
 20
153.6728142767
 30
0.0
 11
1.0
 21
0.0
 31
0.0
 73
2
 44
0.9
  1
198max
 40
3.5
 41
17.85
  0
LINE
  5
23C
100
AcDbEntity
  8
0
100
AcDbLine
 62
2
  6
CONTINUOUS
 10
22.1027419475
 20
200.9978142767
 11
22.1027419475
 21
147.7978142767
  0
LINE
  5
23D
100
AcDbEntity
  8
0
100
AcDbLine
 62
2
  6
CONTINUOUS
 10
220.1687591254
 20
247.9978142767
 11
220.1687591254
 21
147.7978142767
  0
LINE
  5
23E
100
AcDbEntity
  8
0
100
AcDbLine
 62
2
  6
CONTINUOUS
 10
22.1027419475
 20
149.2978142767
 11
121.1357505365
 21
149.2978142767
  0
LINE
  5
23F
100
AcDbEntity
  8
0
100
AcDbLine
 62
2
  6
CONTINUOUS
 10
220.1687591254
 20
149.2978142767
 11
121.1357505365
 21
149.2978142767
  0
INSERT
  5
240
100
AcDbEntity
  8
0
100
AcDbBlockReference
 62
2
  6
CONTINUOUS
  2
_FILLED
 10
22.1027419475
 20
149.2978142767
 41
3.5
 42
3.5
 43
3.5
 50
180.0
  0
INSERT
  5
241
100
AcDbEntity
  8
0
100
AcDbBlockReference
 62
2
  6
CONTINUOUS
  2
_FILLED
 10
220.1687591254
 20
149.2978142767
 41
3.5
 42
3.5
 43
3.5
  0
ENDBLK
  5
242
100
AcDbEntity
  8
0
  6
BYBLOCK
 62
0
100
AcDbBlockEnd
  0
BLOCK
  5
243
100
AcDbEntity
  8
0
100
AcDbBlockBegin
 62
2
  6
CONTINUOUS
  2
*D2
 70
65
 10
0.0
 20
0.0
  3
*D2
  1

  0
MTEXT
  5
244
100
AcDbEntity
  8
0
100
AcDbMText
 62
2
  6
CONTINUOUS
  7
STANDARD
 71
2
 72
1
 10
5.0277419475
 20
230.4978142767
 30
0.0
 11
0.0
 21
1.0
 31
0.0
 73
2
 44
0.9
  1
47
 40
3.5
 41
5.95
  0
LINE
  5
245
100
AcDbEntity
  8
0
100
AcDbLine
 62
2
  6
CONTINUOUS
 10
16.2646730365
 20
206.9978142767
 11
7.9027419475
 21
206.9978142767
  0
LINE
  5
246
100
AcDbEntity
  8
0
100
AcDbLine
 62
2
  6
CONTINUOUS
 10
92.0989130365
 20
253.9978142767
 11
7.9027419475
 21
253.9978142767
  0
LINE
  5
247
100
AcDbEntity
  8
0
100
AcDbLine
 62
2
  6
CONTINUOUS
 10
9.4027419475
 20
206.9978142767
 11
9.4027419475
 21
230.4978142767
  0
LINE
  5
248
100
AcDbEntity
  8
0
100
AcDbLine
 62
2
  6
CONTINUOUS
 10
9.4027419475
 20
253.9978142767
 11
9.4027419475
 21
230.4978142767
  0
INSERT
  5
249
100
AcDbEntity
  8
0
100
AcDbBlockReference
 62
2
  6
CONTINUOUS
  2
_FILLED
 10
9.4027419475
 20
206.9978142767
 41
3.5
 42
3.5
 43
3.5
 50
270.0
  0
INSERT
  5
24A
100
AcDbEntity
  8
0
100
AcDbBlockReference
 62
2
  6
CONTINUOUS
  2
_FILLED
 10
9.4027419475
 20
253.9978142767
 41
3.5
 42
3.5
 43
3.5
 50
90.0
  0
ENDBLK
  5
24B
100
AcDbEntity
  8
0
  6
BYBLOCK
 62
0
100
AcDbBlockEnd
  0
BLOCK
  5
24C
100
AcDbEntity
  8
0
100
AcDbBlockBegin
 62
2
  6
CONTINUOUS
  2
*D3
 70
65
 10
0.0
 20
0.0
  3
*D3
  1

  0
MTEXT
  5
24D
100
AcDbEntity
  8
0
100
AcDbMText
 62
2
  6
CONTINUOUS
  7
STANDARD
 71
1
 72
1
 10
111.7278044782
 20
57.9691573265
 30
0.0
 11
0.0
 21
1.0
 31
0.0
 73
2
 44
0.9
  1
19,4
 40
3.5
 41
11.9
  0
LINE
  5
24E
100
AcDbEntity
  8
0
100
AcDbLine
 62
2
  6
CONTINUOUS
 10
161.1687591254
 20
48.3997971447
 11
114.6028044782
 21
48.3997971447
  0
LINE
  5
24F
100
AcDbEntity
  8
0
100
AcDbLine
 62
2
  6
CONTINUOUS
 10
116.1028044782
 20
48.3997971447
 11
116.1028044782
 21
38.6997971447
  0
LINE
  5
250
100
AcDbEntity
  8
0
100
AcDbLine
 62
2
  6
CONTINUOUS
 10
116.1028044782
 20
38.6997971447
 11
116.1028044782
 21
69.8691573265
  0
LINE
  5
251
100
AcDbEntity
  8
0
100
AcDbLine
 62
2
  6
CONTINUOUS
 10
116.1028044782
 20
28.9997971447
 11
116.1028044782
 21
38.6997971447
  0
INSERT
  5
252
100
AcDbEntity
  8
0
100
AcDbBlockReference
 62
2
  6
CONTINUOUS
  2
_FILLED
 10
116.1028044782
 20
48.3997971447
 41
3.5
 42
3.5
 43
3.5
 50
90.0
  0
INSERT
  5
253
100
AcDbEntity
  8
0
100
AcDbBlockReference
 62
2
  6
CONTINUOUS
  2
_FILLED
 10
116.1028044782
 20
28.9997971447
 41
3.5
 42
3.5
 43
3.5
 50
270.0
  0
ENDBLK
  5
254
100
AcDbEntity
  8
0
  6
BYBLOCK
 62
0
100
AcDbBlockEnd
  0
BLOCK
  5
255
100
AcDbEntity
  8
0
100
AcDbBlockBegin
 62
2
  6
CONTINUOUS
  2
*D4
 70
65
 10
0.0
 20
0.0
  3
*D4
  1

  0
MTEXT
  5
256
100
AcDbEntity
  8
0
100
AcDbMText
 62
2
  6
CONTINUOUS
  7
STANDARD
 71
1
 72
1
 10
242.0678486219
 20
157.8812892356
 30
0.0
 11
0.0
 21
1.0
 31
0.0
 73
2
 44
0.9
  1
3/8" UNF
 40
3.5
 41
23.8
  0
LINE
  5
257
100
AcDbEntity
  8
0
100
AcDbLine
 62
2
  6
CONTINUOUS
 10
257.2837965413
 20
142.8154221447
 11
245.5678486219
 21
142.8154221447
  0
LINE
  5
258
100
AcDbEntity
  8
0
100
AcDbLine
 62
2
  6
CONTINUOUS
 10
245.5678486219
 20
142.8154221447
 11
244.9428486219
 21
142.8154221447
  0
LINE
  5
259
100
AcDbEntity
  8
0
100
AcDbLine
 62
2
  6
CONTINUOUS
 10
257.2837965413
 20
152.2154221447
 11
245.5678486219
 21
152.2154221447
  0
LINE
  5
25A
100
AcDbEntity
  8
0
100
AcDbLine
 62
2
  6
CONTINUOUS
 10
245.5678486219
 20
152.2154221447
 11
244.9428486219
 21
152.2154221447
  0
LINE
  5
25B
100
AcDbEntity
  8
0
100
AcDbLine
 62
2
  6
CONTINUOUS
 10
246.4428486219
 20
142.8154221447
 11
246.4428486219
 21
137.8154221447
  0
LINE
  5
25C
100
AcDbEntity
  8
0
100
AcDbLine
 62
2
  6
CONTINUOUS
 10
246.4428486219
 20
137.8154221447
 11
246.4428486219
 21
147.5154221447
  0
LINE
  5
25D
100
AcDbEntity
  8
0
100
AcDbLine
 62
2
  6
CONTINUOUS
 10
246.4428486219
 20
152.2154221447
 11
246.4428486219
 21
181.6812892356
  0
LINE
  5
25E
100
AcDbEntity
  8
0
100
AcDbLine
 62
2
  6
CONTINUOUS
 10
246.4428486219
 20
181.6812892356
 11
246.4428486219
 21
147.5154221447
  0
INSERT
  5
25F
100
AcDbEntity
  8
0
100
AcDbBlockReference
 62
2
  6
CONTINUOUS
  2
_FILLED
 10
246.4428486219
 20
142.8154221447
 41
3.5
 42
3.5
 43
3.5
 50
90.0
  0
INSERT
  5
260
100
AcDbEntity
  8
0
100
AcDbBlockReference
 62
2
  6
CONTINUOUS
  2
_FILLED
 10
246.4428486219
 20
152.2154221447
 41
3.5
 42
3.5
 43
3.5
 50
270.0
  0
ENDBLK
  5
261
100
AcDbEntity
  8
0
  6
BYBLOCK
 62
0
100
AcDbBlockEnd
  0
BLOCK
  5
262
100
AcDbEntity
  8
0
100
AcDbBlockBegin
 62
2
  6
CONTINUOUS
  2
*D5
 70
65
 10
0.0
 20
0.0
  3
*D5
  1

  0
MTEXT
  5
263
100
AcDbEntity
  8
0
100
AcDbMText
 62
2
  6
CONTINUOUS
  7
STANDARD
 71
1
 72
1
 10
271.4088385413
 20
165.3015914771
 30
0.0
 11
1.0
 21
0.0
 31
0.0
 73
2
 44
0.9
  1
7
 40
3.5
 41
2.975
  0
LINE
  5
264
100
AcDbEntity
  8
0
100
AcDbLine
 62
2
  6
CONTINUOUS
 10
258.2837965413
 20
153.2154221447
 11
258.2837965413
 21
162.4265914771
  0
LINE
  5
265
100
AcDbEntity
  8
0
100
AcDbLine
 62
2
  6
CONTINUOUS
 10
265.2837965413
 20
153.2154221447
 11
265.2837965413
 21
162.4265914771
  0
LINE
  5
266
100
AcDbEntity
  8
0
100
AcDbLine
 62
2
  6
CONTINUOUS
 10
258.2837965413
 20
160.9265914771
 11
253.2837965413
 21
160.9265914771
  0
LINE
  5
267
100
AcDbEntity
  8
0
100
AcDbLine
 62
2
  6
CONTINUOUS
 10
253.2837965413
 20
160.9265914771
 11
261.7837965413
 21
160.9265914771
  0
LINE
  5
268
100
AcDbEntity
  8
0
100
AcDbLine
 62
2
  6
CONTINUOUS
 10
265.2837965413
 20
160.9265914771
 11
274.3838385413
 21
160.9265914771
  0
LINE
  5
269
100
AcDbEntity
  8
0
100
AcDbLine
 62
2
  6
CONTINUOUS
 10
274.3838385413
 20
160.9265914771
 11
261.7837965413
 21
160.9265914771
  0
INSERT
  5
26A
100
AcDbEntity
  8
0
100
AcDbBlockReference
 62
2
  6
CONTINUOUS
  2
_FILLED
 10
258.2837965413
 20
160.9265914771
 41
3.5
 42
3.5
 43
3.5
  0
INSERT
  5
26B
100
AcDbEntity
  8
0
100
AcDbBlockReference
 62
2
  6
CONTINUOUS
  2
_FILLED
 10
265.2837965413
 20
160.9265914771
 41
3.5
 42
3.5
 43
3.5
 50
180.0
  0
ENDBLK
  5
26C
100
AcDbEntity
  8
0
  6
BYBLOCK
 62
0
100
AcDbBlockEnd
  0
BLOCK
  5
26D
100
AcDbEntity
  8
0
100
AcDbBlockBegin
 62
2
  6
CONTINUOUS
  2
*D6
 70
65
 10
0.0
 20
0.0
  3
*D6
  1

  0
MTEXT
  5
26E
100
AcDbEntity
  8
0
100
AcDbMText
 62
2
  6
CONTINUOUS
  7
STANDARD
 71
2
 72
1
 10
147.0055806934
 20
100.5154221447
 30
0.0
 11
0.0
 21
1.0
 31
0.0
 73
2
 44
0.9
  1
70
 40
3.5
 41
5.95
  0
LINE
  5
26F
100
AcDbEntity
  8
0
100
AcDbLine
 62
2
  6
CONTINUOUS
 10
211.0805806934
 20
65.5154221447
 11
149.8805806934
 21
65.5154221447
  0
LINE
  5
270
100
AcDbEntity
  8
0
100
AcDbLine
 62
2
  6
CONTINUOUS
 10
211.0805806934
 20
135.5154221447
 11
149.8805806934
 21
135.5154221447
  0
LINE
  5
271
100
AcDbEntity
  8
0
100
AcDbLine
 62
2
  6
CONTINUOUS
 10
151.3805806934
 20
65.5154221447
 11
151.3805806934
 21
100.5154221447
  0
LINE
  5
272
100
AcDbEntity
  8
0
100
AcDbLine
 62
2
  6
CONTINUOUS
 10
151.3805806934
 20
135.5154221447
 11
151.3805806934
 21
100.5154221447
  0
INSERT
  5
273
100
AcDbEntity
  8
0
100
AcDbBlockReference
 62
2
  6
CONTINUOUS
  2
_FILLED
 10
151.3805806934
 20
65.5154221447
 41
3.5
 42
3.5
 43
3.5
 50
270.0
  0
INSERT
  5
274
100
AcDbEntity
  8
0
100
AcDbBlockReference
 62
2
  6
CONTINUOUS
  2
_FILLED
 10
151.3805806934
 20
135.5154221447
 41
3.5
 42
3.5
 43
3.5
 50
90.0
  0
ENDBLK
  5
275
100
AcDbEntity
  8
0
  6
BYBLOCK
 62
0
100
AcDbBlockEnd
  0
BLOCK
  5
276
100
AcDbEntity
  8
0
100
AcDbBlockBegin
 62
2
  6
CONTINUOUS
  2
*D7
 70
65
 10
0.0
 20
0.0
  3
*D7
  1

  0
MTEXT
  5
277
100
AcDbEntity
  8
0
100
AcDbMText
 62
2
  6
CONTINUOUS
  7
STANDARD
 71
2
 72
1
 10
157.0055806934
 20
100.5154221447
 30
0.0
 11
0.0
 21
1.0
 31
0.0
 73
2
 44
0.9
  1
56
 40
3.5
 41
5.95
  0
LINE
  5
278
100
AcDbEntity
  8
0
100
AcDbLine
 62
2
  6
CONTINUOUS
 10
218.5805806934
 20
128.5154221447
 11
159.8805806934
 21
128.5154221447
  0
LINE
  5
279
100
AcDbEntity
  8
0
100
AcDbLine
 62
2
  6
CONTINUOUS
 10
218.5805806934
 20
72.5154221447
 11
159.8805806934
 21
72.5154221447
  0
LINE
  5
27A
100
AcDbEntity
  8
0
100
AcDbLine
 62
2
  6
CONTINUOUS
 10
161.3805806934
 20
128.5154221447
 11
161.3805806934
 21
100.5154221447
  0
LINE
  5
27B
100
AcDbEntity
  8
0
100
AcDbLine
 62
2
  6
CONTINUOUS
 10
161.3805806934
 20
72.5154221447
 11
161.3805806934
 21
100.5154221447
  0
INSERT
  5
27C
100
AcDbEntity
  8
0
100
AcDbBlockReference
 62
2
  6
CONTINUOUS
  2
_FILLED
 10
161.3805806934
 20
128.5154221447
 41
3.5
 42
3.5
 43
3.5
 50
90.0
  0
INSERT
  5
27D
100
AcDbEntity
  8
0
100
AcDbBlockReference
 62
2
  6
CONTINUOUS
  2
_FILLED
 10
161.3805806934
 20
72.5154221447
 41
3.5
 42
3.5
 43
3.5
 50
270.0
  0
ENDBLK
  5
27E
100
AcDbEntity
  8
0
  6
BYBLOCK
 62
0
100
AcDbBlockEnd
  0
BLOCK
  5
27F
100
AcDbEntity
  8
0
100
AcDbBlockBegin
 62
2
  6
CONTINUOUS
  2
*D8
 70
65
 10
0.0
 20
0.0
  3
*D8
  1

  0
MTEXT
  5
280
100
AcDbEntity
  8
0
100
AcDbMText
 62
2
  6
CONTINUOUS
  7
STANDARD
 71
3
 72
1
 10
186.0282659662
 20
124.5109572092
 30
0.0
 11
1.0
 21
0.0
 31
0.0
 73
2
 44
0.9
  1
7,6
 40
3.5
 41
8.925
  0
LINE
  5
281
100
AcDbEntity
  8
0
100
AcDbLine
 62
2
  6
CONTINUOUS
 10
199.1805806934
 20
110.2654221447
 11
199.1805806934
 21
121.6359572092
  0
LINE
  5
282
100
AcDbEntity
  8
0
100
AcDbLine
 62
2
  6
CONTINUOUS
 10
191.5805806934
 20
109.3154221447
 11
191.5805806934
 21
121.6359572092
  0
LINE
  5
283
100
AcDbEntity
  8
0
100
AcDbLine
 62
2
  6
CONTINUOUS
 10
199.1805806934
 20
120.1359572092
 11
204.1805806934
 21
120.1359572092
  0
LINE
  5
284
100
AcDbEntity
  8
0
100
AcDbLine
 62
2
  6
CONTINUOUS
 10
204.1805806934
 20
120.1359572092
 11
195.3805806934
 21
120.1359572092
  0
LINE
  5
285
100
AcDbEntity
  8
0
100
AcDbLine
 62
2
  6
CONTINUOUS
 10
191.5805806934
 20
120.1359572092
 11
177.1032659662
 21
120.1359572092
  0
LINE
  5
286
100
AcDbEntity
  8
0
100
AcDbLine
 62
2
  6
CONTINUOUS
 10
177.1032659662
 20
120.1359572092
 11
195.3805806934
 21
120.1359572092
  0
INSERT
  5
287
100
AcDbEntity
  8
0
100
AcDbBlockReference
 62
2
  6
CONTINUOUS
  2
_FILLED
 10
199.1805806934
 20
120.1359572092
 41
3.5
 42
3.5
 43
3.5
 50
180.0
  0
INSERT
  5
288
100
AcDbEntity
  8
0
100
AcDbBlockReference
 62
2
  6
CONTINUOUS
  2
_FILLED
 10
191.5805806934
 20
120.1359572092
 41
3.5
 42
3.5
 43
3.5
  0
ENDBLK
  5
289
100
AcDbEntity
  8
0
  6
BYBLOCK
 62
0
100
AcDbBlockEnd
  0
BLOCK
  5
28A
100
AcDbEntity
  8
0
100
AcDbBlockBegin
 62
2
  6
CONTINUOUS
  2
*D9
 70
65
 10
0.0
 20
0.0
  3
*D9
  1

  0
MTEXT
  5
28B
100
AcDbEntity
  8
0
100
AcDbMText
 62
2
  6
CONTINUOUS
  7
STANDARD
 71
1
 72
1
 10
380.7716398714
 20
131.4494332487
 30
0.0
 11
1.0
 21
0.0
 31
0.0
 73
2
 44
0.9
  1
7,6
 40
3.5
 41
8.925
  0
LINE
  5
28C
100
AcDbEntity
  8
0
100
AcDbLine
 62
2
  6
CONTINUOUS
 10
374.6465978714
 20
138.7154221447
 11
374.6465978714
 21
125.5744332487
  0
LINE
  5
28D
100
AcDbEntity
  8
0
100
AcDbLine
 62
2
  6
CONTINUOUS
 10
367.0465978714
 20
137.7654221447
 11
367.0465978714
 21
125.5744332487
  0
LINE
  5
28E
100
AcDbEntity
  8
0
100
AcDbLine
 62
2
  6
CONTINUOUS
 10
374.6465978714
 20
127.0744332487
 11
389.6966398714
 21
127.0744332487
  0
LINE
  5
28F
100
AcDbEntity
  8
0
100
AcDbLine
 62
2
  6
CONTINUOUS
 10
389.6966398714
 20
127.0744332487
 11
370.8465978714
 21
127.0744332487
  0
LINE
  5
290
100
AcDbEntity
  8
0
100
AcDbLine
 62
2
  6
CONTINUOUS
 10
367.0465978714
 20
127.0744332487
 11
362.0465978714
 21
127.0744332487
  0
LINE
  5
291
100
AcDbEntity
  8
0
100
AcDbLine
 62
2
  6
CONTINUOUS
 10
362.0465978714
 20
127.0744332487
 11
370.8465978714
 21
127.0744332487
  0
INSERT
  5
292
100
AcDbEntity
  8
0
100
AcDbBlockReference
 62
2
  6
CONTINUOUS
  2
_FILLED
 10
374.6465978714
 20
127.0744332487
 41
3.5
 42
3.5
 43
3.5
 50
180.0
  0
INSERT
  5
293
100
AcDbEntity
  8
0
100
AcDbBlockReference
 62
2
  6
CONTINUOUS
  2
_FILLED
 10
367.0465978714
 20
127.0744332487
 41
3.5
 42
3.5
 43
3.5
  0
ENDBLK
  5
294
100
AcDbEntity
  8
0
  6
BYBLOCK
 62
0
100
AcDbBlockEnd
  0
BLOCK
  5
295
100
AcDbEntity
  8
0
100
AcDbBlockBegin
 62
2
  6
CONTINUOUS
  2
*D10
 70
65
 10
0.0
 20
0.0
  3
*D10
  1

  0
MTEXT
  5
296
100
AcDbEntity
  8
0
100
AcDbMText
 62
2
  6
CONTINUOUS
  7
STANDARD
 71
2
 72
1
 10
390.4715978714
 20
147.5154221447
 30
0.0
 11
0.0
 21
1.0
 31
0.0
 73
2
 44
0.9
  1
M16
 40
3.5
 41
8.925
  0
LINE
  5
297
100
AcDbEntity
  8
0
100
AcDbLine
 62
2
  6
CONTINUOUS
 10
375.4465978714
 20
139.5154221447
 11
396.3465978714
 21
139.5154221447
  0
LINE
  5
298
100
AcDbEntity
  8
0
100
AcDbLine
 62
2
  6
CONTINUOUS
 10
375.4465978714
 20
155.5154221447
 11
396.3465978714
 21
155.5154221447
  0
LINE
  5
299
100
AcDbEntity
  8
0
100
AcDbLine
 62
2
  6
CONTINUOUS
 10
394.8465978714
 20
139.5154221447
 11
394.8465978714
 21
134.5154221447
  0
LINE
  5
29A
100
AcDbEntity
  8
0
100
AcDbLine
 62
2
  6
CONTINUOUS
 10
394.8465978714
 20
134.5154221447
 11
394.8465978714
 21
147.5154221447
  0
LINE
  5
29B
100
AcDbEntity
  8
0
100
AcDbLine
 62
2
  6
CONTINUOUS
 10
394.8465978714
 20
155.5154221447
 11
394.8465978714
 21
160.5154221447
  0
LINE
  5
29C
100
AcDbEntity
  8
0
100
AcDbLine
 62
2
  6
CONTINUOUS
 10
394.8465978714
 20
160.5154221447
 11
394.8465978714
 21
147.5154221447
  0
INSERT
  5
29D
100
AcDbEntity
  8
0
100
AcDbBlockReference
 62
2
  6
CONTINUOUS
  2
_FILLED
 10
394.8465978714
 20
139.5154221447
 41
3.5
 42
3.5
 43
3.5
 50
90.0
  0
INSERT
  5
29E
100
AcDbEntity
  8
0
100
AcDbBlockReference
 62
2
  6
CONTINUOUS
  2
_FILLED
 10
394.8465978714
 20
155.5154221447
 41
3.5
 42
3.5
 43
3.5
 50
270.0
  0
ENDBLK
  5
29F
100
AcDbEntity
  8
0
  6
BYBLOCK
 62
0
100
AcDbBlockEnd
  0
BLOCK
  5
2A0
100
AcDbEntity
  8
0
100
AcDbBlockBegin
 62
2
  6
CONTINUOUS
  2
*D11
 70
65
 10
0.0
 20
0.0
  3
*D11
  1

  0
MTEXT
  5
2A1
100
AcDbEntity
  8
0
100
AcDbMText
 62
2
  6
CONTINUOUS
  7
STANDARD
 71
2
 72
1
 10
167.0055806934
 20
100.5154221447
 30
0.0
 11
0.0
 21
1.0
 31
0.0
 73
2
 44
0.9
  1
M16
 40
3.5
 41
8.925
  0
LINE
  5
2A2
100
AcDbEntity
  8
0
100
AcDbLine
 62
2
  6
CONTINUOUS
 10
190.7805806934
 20
92.5154221447
 11
169.8805806934
 21
92.5154221447
  0
LINE
  5
2A3
100
AcDbEntity
  8
0
100
AcDbLine
 62
2
  6
CONTINUOUS
 10
190.7805806934
 20
108.5154221447
 11
169.8805806934
 21
108.5154221447
  0
LINE
  5
2A4
100
AcDbEntity
  8
0
100
AcDbLine
 62
2
  6
CONTINUOUS
 10
171.3805806934
 20
92.5154221447
 11
171.3805806934
 21
87.5154221447
  0
LINE
  5
2A5
100
AcDbEntity
  8
0
100
AcDbLine
 62
2
  6
CONTINUOUS
 10
171.3805806934
 20
87.5154221447
 11
171.3805806934
 21
100.5154221447
  0
LINE
  5
2A6
100
AcDbEntity
  8
0
100
AcDbLine
 62
2
  6
CONTINUOUS
 10
171.3805806934
 20
108.5154221447
 11
171.3805806934
 21
113.5154221447
  0
LINE
  5
2A7
100
AcDbEntity
  8
0
100
AcDbLine
 62
2
  6
CONTINUOUS
 10
171.3805806934
 20
113.5154221447
 11
171.3805806934
 21
100.5154221447
  0
INSERT
  5
2A8
100
AcDbEntity
  8
0
100
AcDbBlockReference
 62
2
  6
CONTINUOUS
  2
_FILLED
 10
171.3805806934
 20
92.5154221447
 41
3.5
 42
3.5
 43
3.5
 50
90.0
  0
INSERT
  5
2A9
100
AcDbEntity
  8
0
100
AcDbBlockReference
 62
2
  6
CONTINUOUS
  2
_FILLED
 10
171.3805806934
 20
108.5154221447
 41
3.5
 42
3.5
 43
3.5
 50
270.0
  0
ENDBLK
  5
2AA
100
AcDbEntity
  8
0
  6
BYBLOCK
 62
0
100
AcDbBlockEnd
  0
BLOCK
  5
2AB
100
AcDbEntity
  8
0
100
AcDbBlockBegin
 62
2
  6
CONTINUOUS
  2
*D12
 70
65
 10
0.0
 20
0.0
  3
*D12
  1

  0
MTEXT
  5
2AC
100
AcDbEntity
  8
0
100
AcDbMText
 62
2
  6
CONTINUOUS
  7
STANDARD
 71
2
 72
1
 10
227.0805806934
 20
47.1904221447
 30
0.0
 11
1.0
 21
0.0
 31
0.0
 73
2
 44
0.9
  1
30
 40
3.5
 41
5.95
  0
LINE
  5
2AD
100
AcDbEntity
  8
0
100
AcDbLine
 62
2
  6
CONTINUOUS
 10
212.0805806934
 20
64.5154221447
 11
212.0805806934
 21
41.3154221447
  0
LINE
  5
2AE
100
AcDbEntity
  8
0
100
AcDbLine
 62
2
  6
CONTINUOUS
 10
242.0805806934
 20
64.5154221447
 11
242.0805806934
 21
41.3154221447
  0
LINE
  5
2AF
100
AcDbEntity
  8
0
100
AcDbLine
 62
2
  6
CONTINUOUS
 10
212.0805806934
 20
42.8154221447
 11
227.0805806934
 21
42.8154221447
  0
LINE
  5
2B0
100
AcDbEntity
  8
0
100
AcDbLine
 62
2
  6
CONTINUOUS
 10
242.0805806934
 20
42.8154221447
 11
227.0805806934
 21
42.8154221447
  0
INSERT
  5
2B1
100
AcDbEntity
  8
0
100
AcDbBlockReference
 62
2
  6
CONTINUOUS
  2
_FILLED
 10
212.0805806934
 20
42.8154221447
 41
3.5
 42
3.5
 43
3.5
 50
180.0
  0
INSERT
  5
2B2
100
AcDbEntity
  8
0
100
AcDbBlockReference
 62
2
  6
CONTINUOUS
  2
_FILLED
 10
242.0805806934
 20
42.8154221447
 41
3.5
 42
3.5
 43
3.5
  0
ENDBLK
  5
2B3
100
AcDbEntity
  8
0
  6
BYBLOCK
 62
0
100
AcDbBlockEnd
  0
BLOCK
  5
2B4
100
AcDbEntity
  8
0
100
AcDbBlockBegin
 62
2
  6
CONTINUOUS
  2
*D13
 70
65
 10
0.0
 20
0.0
  3
*D13
  1

  0
MTEXT
  5
2B5
100
AcDbEntity
  8
0
100
AcDbMText
 62
2
  6
CONTINUOUS
  7
STANDARD
 71
2
 72
1
 10
234.5805806934
 20
57.1904221447
 30
0.0
 11
1.0
 21
0.0
 31
0.0
 73
2
 44
0.9
  1
15
 40
3.5
 41
5.95
  0
LINE
  5
2B6
100
AcDbEntity
  8
0
100
AcDbLine
 62
2
  6
CONTINUOUS
 10
242.0805806934
 20
64.5154221447
 11
242.0805806934
 21
51.3154221447
  0
LINE
  5
2B7
100
AcDbEntity
  8
0
100
AcDbLine
 62
2
  6
CONTINUOUS
 10
227.0805806934
 20
64.0154221447
 11
227.0805806934
 21
51.3154221447
  0
LINE
  5
2B8
100
AcDbEntity
  8
0
100
AcDbLine
 62
2
  6
CONTINUOUS
 10
242.0805806934
 20
52.8154221447
 11
247.0805806934
 21
52.8154221447
  0
LINE
  5
2B9
100
AcDbEntity
  8
0
100
AcDbLine
 62
2
  6
CONTINUOUS
 10
247.0805806934
 20
52.8154221447
 11
234.5805806934
 21
52.8154221447
  0
LINE
  5
2BA
100
AcDbEntity
  8
0
100
AcDbLine
 62
2
  6
CONTINUOUS
 10
227.0805806934
 20
52.8154221447
 11
222.0805806934
 21
52.8154221447
  0
LINE
  5
2BB
100
AcDbEntity
  8
0
100
AcDbLine
 62
2
  6
CONTINUOUS
 10
222.0805806934
 20
52.8154221447
 11
234.5805806934
 21
52.8154221447
  0
INSERT
  5
2BC
100
AcDbEntity
  8
0
100
AcDbBlockReference
 62
2
  6
CONTINUOUS
  2
_FILLED
 10
242.0805806934
 20
52.8154221447
 41
3.5
 42
3.5
 43
3.5
 50
180.0
  0
INSERT
  5
2BD
100
AcDbEntity
  8
0
100
AcDbBlockReference
 62
2
  6
CONTINUOUS
  2
_FILLED
 10
227.0805806934
 20
52.8154221447
 41
3.5
 42
3.5
 43
3.5
  0
ENDBLK
  5
2BE
100
AcDbEntity
  8
0
  6
BYBLOCK
 62
0
100
AcDbBlockEnd
  0
BLOCK
  5
2BF
100
AcDbEntity
  8
0
100
AcDbBlockBegin
 62
2
  6
CONTINUOUS
  2
*D14
 70
65
 10
0.0
 20
0.0
  3
*D14
  1

  0
MTEXT
  5
2C0
100
AcDbEntity
  8
0
100
AcDbMText
 62
2
  6
CONTINUOUS
  7
STANDARD
 71
2
 72
1
 10
339.1465978714
 20
209.5904221447
 30
0.0
 11
1.0
 21
0.0
 31
0.0
 73
2
 44
0.9
  1
30
 40
3.5
 41
5.95
  0
LINE
  5
2C1
100
AcDbEntity
  8
0
100
AcDbLine
 62
2
  6
CONTINUOUS
 10
324.1465978714
 20
183.5154221447
 11
324.1465978714
 21
206.7154221447
  0
LINE
  5
2C2
100
AcDbEntity
  8
0
100
AcDbLine
 62
2
  6
CONTINUOUS
 10
354.1465978714
 20
183.5154221447
 11
354.1465978714
 21
206.7154221447
  0
LINE
  5
2C3
100
AcDbEntity
  8
0
100
AcDbLine
 62
2
  6
CONTINUOUS
 10
324.1465978714
 20
205.2154221447
 11
339.1465978714
 21
205.2154221447
  0
LINE
  5
2C4
100
AcDbEntity
  8
0
100
AcDbLine
 62
2
  6
CONTINUOUS
 10
354.1465978714
 20
205.2154221447
 11
339.1465978714
 21
205.2154221447
  0
INSERT
  5
2C5
100
AcDbEntity
  8
0
100
AcDbBlockReference
 62
2
  6
CONTINUOUS
  2
_FILLED
 10
324.1465978714
 20
205.2154221447
 41
3.5
 42
3.5
 43
3.5
 50
180.0
  0
INSERT
  5
2C6
100
AcDbEntity
  8
0
100
AcDbBlockReference
 62
2
  6
CONTINUOUS
  2
_FILLED
 10
354.1465978714
 20
205.2154221447
 41
3.5
 42
3.5
 43
3.5
  0
ENDBLK
  5
2C7
100
AcDbEntity
  8
0
  6
BYBLOCK
 62
0
100
AcDbBlockEnd
  0
BLOCK
  5
2C8
100
AcDbEntity
  8
0
100
AcDbBlockBegin
 62
2
  6
CONTINUOUS
  2
*D15
 70
65
 10
0.0
 20
0.0
  3
*D15
  1

  0
MTEXT
  5
2C9
100
AcDbEntity
  8
0
100
AcDbMText
 62
2
  6
CONTINUOUS
  7
STANDARD
 71
2
 72
1
 10
331.6465978714
 20
199.5904221447
 30
0.0
 11
1.0
 21
0.0
 31
0.0
 73
2
 44
0.9
  1
15
 40
3.5
 41
5.95
  0
LINE
  5
2CA
100
AcDbEntity
  8
0
100
AcDbLine
 62
2
  6
CONTINUOUS
 10
324.1465978714
 20
183.5154221447
 11
324.1465978714
 21
196.7154221447
  0
LINE
  5
2CB
100
AcDbEntity
  8
0
100
AcDbLine
 62
2
  6
CONTINUOUS
 10
339.1465978714
 20
120.5154221447
 11
339.1465978714
 21
196.7154221447
  0
LINE
  5
2CC
100
AcDbEntity
  8
0
100
AcDbLine
 62
2
  6
CONTINUOUS
 10
324.1465978714
 20
195.2154221447
 11
319.1465978714
 21
195.2154221447
  0
LINE
  5
2CD
100
AcDbEntity
  8
0
100
AcDbLine
 62
2
  6
CONTINUOUS
 10
319.1465978714
 20
195.2154221447
 11
331.6465978714
 21
195.2154221447
  0
LINE
  5
2CE
100
AcDbEntity
  8
0
100
AcDbLine
 62
2
  6
CONTINUOUS
 10
339.1465978714
 20
195.2154221447
 11
344.1465978714
 21
195.2154221447
  0
LINE
  5
2CF
100
AcDbEntity
  8
0
100
AcDbLine
 62
2
  6
CONTINUOUS
 10
344.1465978714
 20
195.2154221447
 11
331.6465978714
 21
195.2154221447
  0
INSERT
  5
2D0
100
AcDbEntity
  8
0
100
AcDbBlockReference
 62
2
  6
CONTINUOUS
  2
_FILLED
 10
324.1465978714
 20
195.2154221447
 41
3.5
 42
3.5
 43
3.5
  0
INSERT
  5
2D1
100
AcDbEntity
  8
0
100
AcDbBlockReference
 62
2
  6
CONTINUOUS
  2
_FILLED
 10
339.1465978714
 20
195.2154221447
 41
3.5
 42
3.5
 43
3.5
 50
180.0
  0
ENDBLK
  5
2D2
100
AcDbEntity
  8
0
  6
BYBLOCK
 62
0
100
AcDbBlockEnd
  0
BLOCK
  5
2D3
100
AcDbEntity
  8
0
100
AcDbBlockBegin
 62
2
  6
CONTINUOUS
  2
*D16
 70
65
 10
0.0
 20
0.0
  3
*D16
  1

  0
MTEXT
  5
2D4
100
AcDbEntity
  8
0
100
AcDbMText
 62
2
  6
CONTINUOUS
  7
STANDARD
 71
2
 72
1
 10
410.4715978714
 20
147.5154221447
 30
0.0
 11
0.0
 21
1.0
 31
0.0
 73
2
 44
0.9
  1
70
 40
3.5
 41
5.95
  0
LINE
  5
2D5
100
AcDbEntity
  8
0
100
AcDbLine
 62
2
  6
CONTINUOUS
 10
355.1465978714
 20
182.5154221447
 11
416.3465978714
 21
182.5154221447
  0
LINE
  5
2D6
100
AcDbEntity
  8
0
100
AcDbLine
 62
2
  6
CONTINUOUS
 10
355.1465978714
 20
112.5154221447
 11
416.3465978714
 21
112.5154221447
  0
LINE
  5
2D7
100
AcDbEntity
  8
0
100
AcDbLine
 62
2
  6
CONTINUOUS
 10
414.8465978714
 20
182.5154221447
 11
414.8465978714
 21
147.5154221447
  0
LINE
  5
2D8
100
AcDbEntity
  8
0
100
AcDbLine
 62
2
  6
CONTINUOUS
 10
414.8465978714
 20
112.5154221447
 11
414.8465978714
 21
147.5154221447
  0
INSERT
  5
2D9
100
AcDbEntity
  8
0
100
AcDbBlockReference
 62
2
  6
CONTINUOUS
  2
_FILLED
 10
414.8465978714
 20
182.5154221447
 41
3.5
 42
3.5
 43
3.5
 50
90.0
  0
INSERT
  5
2DA
100
AcDbEntity
  8
0
100
AcDbBlockReference
 62
2
  6
CONTINUOUS
  2
_FILLED
 10
414.8465978714
 20
112.5154221447
 41
3.5
 42
3.5
 43
3.5
 50
270.0
  0
ENDBLK
  5
2DB
100
AcDbEntity
  8
0
  6
BYBLOCK
 62
0
100
AcDbBlockEnd
  0
BLOCK
  5
2DC
100
AcDbEntity
  8
0
100
AcDbBlockBegin
 62
2
  6
CONTINUOUS
  2
*D17
 70
65
 10
0.0
 20
0.0
  3
*D17
  1

  0
MTEXT
  5
2DD
100
AcDbEntity
  8
0
100
AcDbMText
 62
2
  6
CONTINUOUS
  7
STANDARD
 71
2
 72
1
 10
400.4715978714
 20
147.5154221447
 30
0.0
 11
0.0
 21
1.0
 31
0.0
 73
2
 44
0.9
  1
56
 40
3.5
 41
5.95
  0
LINE
  5
2DE
100
AcDbEntity
  8
0
100
AcDbLine
 62
2
  6
CONTINUOUS
 10
347.6465978714
 20
175.5154221447
 11
406.3465978714
 21
175.5154221447
  0
LINE
  5
2DF
100
AcDbEntity
  8
0
100
AcDbLine
 62
2
  6
CONTINUOUS
 10
347.6465978714
 20
119.5154221447
 11
406.3465978714
 21
119.5154221447
  0
LINE
  5
2E0
100
AcDbEntity
  8
0
100
AcDbLine
 62
2
  6
CONTINUOUS
 10
404.8465978714
 20
175.5154221447
 11
404.8465978714
 21
147.5154221447
  0
LINE
  5
2E1
100
AcDbEntity
  8
0
100
AcDbLine
 62
2
  6
CONTINUOUS
 10
404.8465978714
 20
119.5154221447
 11
404.8465978714
 21
147.5154221447
  0
INSERT
  5
2E2
100
AcDbEntity
  8
0
100
AcDbBlockReference
 62
2
  6
CONTINUOUS
  2
_FILLED
 10
404.8465978714
 20
175.5154221447
 41
3.5
 42
3.5
 43
3.5
 50
90.0
  0
INSERT
  5
2E3
100
AcDbEntity
  8
0
100
AcDbBlockReference
 62
2
  6
CONTINUOUS
  2
_FILLED
 10
404.8465978714
 20
119.5154221447
 41
3.5
 42
3.5
 43
3.5
 50
270.0
  0
ENDBLK
  5
2E4
100
AcDbEntity
  8
0
  6
BYBLOCK
 62
0
100
AcDbBlockEnd
  0
ENDSEC
  0
SECTION
  2
ENTITIES
  0
DIMENSION
  5
2E5
100
AcDbEntity
  8
0
100
AcDbDimension
 62
2
  6
CONTINUOUS
  2
*D0
 10
96.3059577954
 20
159.2978142767
 11
158.2373584604
 21
159.2978142767
 70
160
 71
2
 72
2
 41
0.9
 42
123.8628013301
  1
(<>)
  3
DIMSTYLE_1
100
AcDbAlignedDimension
 13
220.1687591254
 23
248.9978142767
 14
96.3059577954
 24
249.2978142767
 50
180.0
100
AcDbRotatedDimension
  0
DIMENSION
  5
2E6
100
AcDbEntity
  8
0
100
AcDbDimension
 62
2
  6
CONTINUOUS
  2
*D1
 10
220.1687591254
 20
149.2978142767
 11
121.1357505365
 21
149.2978142767
 70
160
 71
2
 72
2
 41
0.9
 42
198.066017178
  1
<>max
  3
DIMSTYLE_1
100
AcDbAlignedDimension
 13
22.1027419475
 23
201.9978142767
 14
220.1687591254
 24
248.9978142767
100
AcDbRotatedDimension
  0
DIMENSION
  5
2E7
100
AcDbEntity
  8
0
100
AcDbDimension
 62
2
  6
CONTINUOUS
  2
*D2
 10
9.4027419475
 20
253.9978142767
 11
9.4027419475
 21
230.4978146388
 70
160
 71
2
 72
2
 41
0.9
 42
47.0
  3
DIMSTYLE_2
100
AcDbAlignedDimension
 13
17.2646730365
 23
206.9978142767
 14
93.0989130365
 24
253.9978142767
 50
90.0
100
AcDbRotatedDimension
  0
DIMENSION
  5
2E8
100
AcDbEntity
  8
0
100
AcDbDimension
 62
2
  6
CONTINUOUS
  2
*D3
 10
116.1028044782
 20
28.9997971447
 11
116.1028044782
 21
64.3840002482
 70
160
 71
1
 72
2
 41
0.9
 42
19.4
  3
DIMSTYLE_2
100
AcDbAlignedDimension
 13
162.1687591254
 23
48.3997971447
 14
224.4525355443
 24
28.9997971447
 50
270.0
100
AcDbRotatedDimension
  0
DIMENSION
  5
2E9
100
AcDbEntity
  8
0
100
AcDbDimension
 62
2
  6
CONTINUOUS
  2
*D4
 10
246.4428486219
 20
152.2154221447
 11
246.4428486219
 21
169.781284852
 70
160
 71
1
 72
2
 41
0.9
 42
9.4
  1
3/8" UNF
  3
DIMSTYLE_2
100
AcDbAlignedDimension
 13
258.2837965413
 23
142.8154221447
 14
258.2837965413
 24
152.2154221447
 50
90.0
100
AcDbRotatedDimension
  0
DIMENSION
  5
2EA
100
AcDbEntity
  8
0
100
AcDbDimension
 62
2
  6
CONTINUOUS
  2
*D5
 10
265.2837965413
 20
160.9265914771
 11
272.8963458252
 21
160.9265914771
 70
160
 71
1
 72
2
 41
0.9
 42
7.0
  3
DIMSTYLE_2
100
AcDbAlignedDimension
 13
258.2837965413
 23
152.2154221447
 14
265.2837965413
 24
152.2154221447
100
AcDbRotatedDimension
  0
DIMENSION
  5
2EB
100
AcDbEntity
  8
0
100
AcDbDimension
 62
2
  6
CONTINUOUS
  2
*D6
 10
151.3805806934
 20
135.5154221447
 11
151.3805806934
 21
100.5154255577
 70
160
 71
2
 72
2
 41
0.9
 42
70.0
  3
DIMSTYLE_2
100
AcDbAlignedDimension
 13
212.0805806934
 23
65.5154221447
 14
212.0805806934
 24
135.5154221447
 50
90.0
100
AcDbRotatedDimension
  0
DIMENSION
  5
2EC
100
AcDbEntity
  8
0
100
AcDbDimension
 62
2
  6
CONTINUOUS
  2
*D7
 10
161.3805806934
 20
72.5154221447
 11
161.3805806934
 21
100.5154194542
 70
160
 71
2
 72
2
 41
0.9
 42
56.0
  3
DIMSTYLE_2
100
AcDbAlignedDimension
 13
219.5805806934
 23
128.5154221447
 14
219.5805806934
 24
72.5154221447
 50
270.0
100
AcDbRotatedDimension
  0
DIMENSION
  5
2ED
100
AcDbEntity
  8
0
100
AcDbDimension
 62
2
  6
CONTINUOUS
  2
*D8
 10
191.5805806934
 20
120.1359572092
 11
181.5657641602
 21
120.1359572092
 70
160
 71
3
 72
2
 41
0.9
 42
7.6
  3
DIMSTYLE_2
100
AcDbAlignedDimension
 13
199.1805806934
 23
109.2654221447
 14
191.5805806934
 24
108.3154221447
 50
180.0
100
AcDbRotatedDimension
  0
DIMENSION
  5
2EE
100
AcDbEntity
  8
0
100
AcDbDimension
 62
2
  6
CONTINUOUS
  2
*D9
 10
367.0465978714
 20
127.0744332487
 11
385.2341436768
 21
127.0744332487
 70
160
 71
1
 72
2
 41
0.9
 42
7.6
  3
DIMSTYLE_2
100
AcDbAlignedDimension
 13
374.6465978714
 23
139.7154221447
 14
367.0465978714
 24
138.7654221447
 50
180.0
100
AcDbRotatedDimension
  0
DIMENSION
  5
2EF
100
AcDbEntity
  8
0
100
AcDbDimension
 62
2
  6
CONTINUOUS
  2
*D10
 10
394.8465978714
 20
155.5154221447
 11
394.8465978714
 21
147.5154221447
 70
160
 71
2
 72
2
 41
0.9
 42
16.0
  1
M<>
  3
DIMSTYLE_2
100
AcDbAlignedDimension
 13
374.4465978714
 23
139.5154221447
 14
374.4465978714
 24
155.5154221447
 50
90.0
100
AcDbRotatedDimension
  0
DIMENSION
  5
2F0
100
AcDbEntity
  8
0
100
AcDbDimension
 62
2
  6
CONTINUOUS
  2
*D11
 10
171.3805806934
 20
108.5154221447
 11
171.3805806934
 21
100.5154221447
 70
160
 71
2
 72
2
 41
0.9
 42
16.0
  1
M<>
  3
DIMSTYLE_2
100
AcDbAlignedDimension
 13
191.7805806934
 23
92.5154221447
 14
191.7805806934
 24
108.5154221447
 50
90.0
100
AcDbRotatedDimension
  0
DIMENSION
  5
2F1
100
AcDbEntity
  8
0
100
AcDbDimension
 62
2
  6
CONTINUOUS
  2
*D12
 10
242.0805806934
 20
42.8154221447
 11
227.0805725098
 21
42.8154221447
 70
160
 71
2
 72
2
 41
0.9
 42
30.0
  3
DIMSTYLE_2
100
AcDbAlignedDimension
 13
212.0805806934
 23
65.5154221447
 14
242.0805806934
 24
65.5154221447
100
AcDbRotatedDimension
  0
DIMENSION
  5
2F2
100
AcDbEntity
  8
0
100
AcDbDimension
 62
2
  6
CONTINUOUS
  2
*D13
 10
227.0805806934
 20
52.8154221447
 11
235.0454223633
 21
52.8154221447
 70
160
 71
2
 72
2
 41
0.9
 42
15.0
  3
DIMSTYLE_2
100
AcDbAlignedDimension
 13
242.0805806934
 23
65.5154221447
 14
227.0805806934
 24
65.0154221447
 50
180.0
100
AcDbRotatedDimension
  0
DIMENSION
  5
2F3
100
AcDbEntity
  8
0
100
AcDbDimension
 62
2
  6
CONTINUOUS
  2
*D14
 10
354.1465978714
 20
205.2154221447
 11
339.1465905762
 21
205.2154221447
 70
160
 71
2
 72
2
 41
0.9
 42
30.0
  3
DIMSTYLE_2
100
AcDbAlignedDimension
 13
324.1465978714
 23
182.5154221447
 14
354.1465978714
 24
182.5154221447
100
AcDbRotatedDimension
  0
DIMENSION
  5
2F4
100
AcDbEntity
  8
0
100
AcDbDimension
 62
2
  6
CONTINUOUS
  2
*D15
 10
339.1465978714
 20
195.2154221447
 11
332.1114367676
 21
195.2154221447
 70
160
 71
2
 72
2
 41
0.9
 42
15.0
  3
DIMSTYLE_2
100
AcDbAlignedDimension
 13
324.1465978714
 23
182.5154221447
 14
339.1465978714
 24
119.5154221447
100
AcDbRotatedDimension
  0
DIMENSION
  5
2F5
100
AcDbEntity
  8
0
100
AcDbDimension
 62
2
  6
CONTINUOUS
  2
*D16
 10
414.8465978714
 20
112.5154221447
 11
414.8465978714
 21
147.5154160702
 70
160
 71
2
 72
2
 41
0.9
 42
70.0
  3
DIMSTYLE_2
100
AcDbAlignedDimension
 13
354.1465978714
 23
182.5154221447
 14
354.1465978714
 24
112.5154221447
 50
270.0
100
AcDbRotatedDimension
  0
DIMENSION
  5
2F6
100
AcDbEntity
  8
0
100
AcDbDimension
 62
2
  6
CONTINUOUS
  2
*D17
 10
404.8465978714
 20
119.5154221447
 11
404.8465978714
 21
147.5154221737
 70
160
 71
2
 72
2
 41
0.9
 42
56.0
  3
DIMSTYLE_2
100
AcDbAlignedDimension
 13
346.6465978714
 23
175.5154221447
 14
346.6465978714
 24
119.5154221447
 50
270.0
100
AcDbRotatedDimension
  0
MTEXT
  5
2F7
100
AcDbEntity
  8
0
100
AcDbMText
 62
2
  6
CONTINUOUS
  7
STANDARD
 71
1
 72
1
 10
327.1307690099
 20
42.6619713942
 30
0.0
 11
1.0
 21
0.0
 31
0.0
 73
2
 44
0.9
  1
Sensoradapter Ø15 / Etage\PWerkstoff: 1.4435\P \PBlattmaßstab 1:1\P \PIndex: A vom 01.06.2018
 40
3.5
 41
74.375
  0
MTEXT
  5
2F8
100
AcDbEntity
  8
0
100
AcDbMText
 62
2
  6
CONTINUOUS
  7
STANDARD
 71
1
 72
1
 10
310.9152556126
 20
86.9900414341
 30
0.0
 11
1.0
 21
0.0
 31
0.0
 73
2
 44
0.9
  1
MASSSTAB 0,500
 40
3.5
 41
41.65
  0
LINE
  5
2F9
100
AcDbEntity
  8
0
100
AcDbLine
 62
7
  6
CONTINUOUS
 10
0.0
 20
0.0
 11
0.0
 21
297.0
  0
LINE
  5
2FA
100
AcDbEntity
  8
0
100
AcDbLine
 62
7
  6
CONTINUOUS
 10
0.0
 20
0.0
 11
420.0
 21
0.0
  0
LINE
  5
2FB
100
AcDbEntity
  8
0
100
AcDbLine
 62
7
  6
CONTINUOUS
 10
0.0
 20
297.0
 11
420.0
 21
297.0
  0
LINE
  5
2FC
100
AcDbEntity
  8
0
100
AcDbLine
 62
7
  6
CONTINUOUS
 10
420.0
 20
0.0
 11
420.0
 21
297.0
  0
LINE
  5
2FD
100
AcDbEntity
  8
02___PRT_ALL_AXES
100
AcDbLine
 62
7
  6
CONTINUOUS
 10
22.1027419475
 20
201.9978142767
 11
22.1027419475
 21
211.9978142767
  0
LINE
  5
2FE
100
AcDbEntity
  8
02___PRT_ALL_AXES
100
AcDbLine
 62
7
  6
CONTINUOUS
 10
25.6027419475
 20
201.3478142767
 11
25.6027419475
 21
212.6478142767
  0
LINE
  5
2FF
100
AcDbEntity
  8
0
100
AcDbLine
 62
7
  6
CONTINUOUS
 10
29.6027419475
 20
214.7978142767
 11
29.6027419475
 21
199.1978142767
  0
LINE
  5
300
100
AcDbEntity
  8
0
100
AcDbLine
 62
7
  6
CONTINUOUS
 10
29.8027419475
 20
214.9978142767
 11
29.8027419475
 21
198.9978142767
  0
LINE
  5
301
100
AcDbEntity
  8
0
100
AcDbLine
 62
7
  6
CONTINUOUS
 10
37.2027419475
 20
215.7478142767
 11
37.2027419475
 21
198.2478142767
  0
LINE
  5
302
100
AcDbEntity
  8
0
100
AcDbLine
 62
7
  6
CONTINUOUS
 10
37.4027419475
 20
215.9478142767
 11
37.4027419475
 21
198.0478142767
  0
LINE
  5
303
100
AcDbEntity
  8
0
100
AcDbLine
 62
7
  6
CONTINUOUS
 10
29.6027419473
 20
199.1978142768
 11
29.8027419473
 21
198.9978142768
  0
LINE
  5
304
100
AcDbEntity
  8
0
100
AcDbLine
 62
7
  6
CONTINUOUS
 10
37.2027419474
 20
198.2478142768
 11
37.4027419474
 21
198.0478142768
  0
LINE
  5
305
100
AcDbEntity
  8
0
100
AcDbLine
 62
7
  6
CONTINUOUS
 10
50.7027419475
 20
186.4978142767
 11
50.1027419475
 21
187.0978142767
  0
LINE
  5
306
100
AcDbEntity
  8
0
100
AcDbLine
 62
7
  6
CONTINUOUS
 10
47.9027419475
 20
215.9478142767
 11
47.9027419475
 21
198.0478142767
  0
LINE
  5
307
100
AcDbEntity
  8
0
100
AcDbLine
 62
7
  6
CONTINUOUS
 10
48.1027419475
 20
215.7478142767
 11
48.1027419475
 21
198.2478142767
  0
LINE
  5
308
100
AcDbEntity
  8
0
100
AcDbLine
 62
7
  6
CONTINUOUS
 10
50.1027419475
 20
226.8978142767
 11
50.1027419475
 21
187.0978142767
  0
LINE
  5
309
100
AcDbEntity
  8
02___PRT_ALL_AXES
100
AcDbLine
 62
7
  6
CONTINUOUS
 10
50.1027419475
 20
171.9978142767
 11
50.1027419475
 21
187.0978142767
  0
LINE
  5
30A
100
AcDbEntity
  8
02___PRT_ALL_AXES
100
AcDbLine
 62
7
  6
CONTINUOUS
 10
50.1027419475
 20
226.8978142767
 11
50.1027419475
 21
241.9978142767
  0
LINE
  5
30B
100
AcDbEntity
  8
0
100
AcDbLine
 62
7
  6
CONTINUOUS
 10
50.7027419475
 20
226.8978142767
 11
50.7027419475
 21
187.0978142767
  0
LINE
  5
30C
100
AcDbEntity
  8
0
100
AcDbLine
 62
7
  6
CONTINUOUS
 10
48.1027419476
 20
215.7478142765
 11
47.9027419477
 21
215.9478142765
  0
LINE
  5
30D
100
AcDbEntity
  8
02___PRT_ALL_AXES
100
AcDbLine
 62
7
  6
CENTER
 10
65.1027419475
 20
234.9978142767
 11
65.1027419475
 21
227.4978142767
  0
LINE
  5
30E
100
AcDbEntity
  8
02___PRT_ALL_AXES
100
AcDbLine
 62
7
  6
CENTER
 10
65.1027419475
 20
219.8478142767
 11
65.1027419475
 21
215.8477142767
  0
LINE
  5
30F
100
AcDbEntity
  8
02___PRT_ALL_AXES
100
AcDbLine
 62
7
  6
CENTER
 10
65.1027419475
 20
194.1478142767
 11
65.1027419475
 21
190.1477142767
  0
LINE
  5
310
100
AcDbEntity
  8
02___PRT_ALL_AXES
100
AcDbLine
 62
7
  6
CENTER
 10
65.1027419475
 20
178.9978142767
 11
65.1027419475
 21
171.4978142767
  0
LINE
  5
311
100
AcDbEntity
  8
02___PRT_ALL_AXES
100
AcDbLine
 62
7
  6
CENTER
 10
65.1027419475
 20
178.9978142767
 11
65.1027419475
 21
186.4978142767
  0
LINE
  5
312
100
AcDbEntity
  8
02___PRT_ALL_AXES
100
AcDbLine
 62
7
  6
CENTER
 10
65.1027419475
 20
194.1478142767
 11
65.1027419475
 21
198.1479142767
  0
LINE
  5
313
100
AcDbEntity
  8
02___PRT_ALL_AXES
100
AcDbLine
 62
7
  6
CENTER
 10
65.1027419475
 20
219.8478142767
 11
65.1027419475
 21
223.8479142767
  0
LINE
  5
314
100
AcDbEntity
  8
02___PRT_ALL_AXES
100
AcDbLine
 62
7
  6
CENTER
 10
65.1027419475
 20
234.9978142767
 11
65.1027419475
 21
242.4978142767
  0
LINE
  5
315
100
AcDbEntity
  8
0
100
AcDbLine
 62
7
  6
CONTINUOUS
 10
29.6027419474
 20
214.7978142766
 11
29.8027419474
 21
214.9978142766
  0
LINE
  5
316
100
AcDbEntity
  8
02___PRT_ALL_AXES
100
AcDbLine
 62
7
  6
CONTINUOUS
 10
80.1027419475
 20
171.9978142767
 11
50.1027419475
 21
171.9978142767
  0
LINE
  5
317
100
AcDbEntity
  8
0
100
AcDbLine
 62
7
  6
CONTINUOUS
 10
79.5027419475
 20
187.0978142767
 11
79.8027419475
 21
186.7978142767
  0
LINE
  5
318
100
AcDbEntity
  8
0
100
AcDbLine
 62
7
  6
CONTINUOUS
 10
37.2027419474
 20
215.7478142766
 11
37.4027419474
 21
215.9478142766
  0
LINE
  5
319
100
AcDbEntity
  8
0
100
AcDbLine
 62
7
  6
CONTINUOUS
 10
50.1027419475
 20
226.8978142767
 11
50.7027419475
 21
227.4978142767
  0
LINE
  5
31A
100
AcDbEntity
  8
02___PRT_ALL_AXES
100
AcDbLine
 62
7
  6
CENTER
 10
65.1027419475
 20
178.9978142767
 11
57.6027419475
 21
178.9978142767
  0
LINE
  5
31B
100
AcDbEntity
  8
02___PRT_ALL_AXES
100
AcDbLine
 62
7
  6
CENTER
 10
65.1027419475
 20
178.9978142767
 11
72.6027419475
 21
178.9978142767
  0
LINE
  5
31C
100
AcDbEntity
  8
02___PRT_ALL_AXES
100
AcDbLine
 62
7
  6
CONTINUOUS
 10
22.1027419475
 20
201.9978142767
 11
25.6027419475
 21
201.3478142767
  0
LINE
  5
31D
100
AcDbEntity
  8
0
100
AcDbLine
 62
7
  6
CONTINUOUS
 10
50.7027419475
 20
226.8978142767
 11
50.4027419475
 21
227.1978142767
  0
LINE
  5
31E
100
AcDbEntity
  8
0
100
AcDbLine
 62
7
  6
CONTINUOUS
 10
79.5027419475
 20
187.0978142767
 11
79.5027419475
 21
226.8978142767
  0
LINE
  5
31F
100
AcDbEntity
  8
02___PRT_ALL_AXES
100
AcDbLine
 62
7
  6
CONTINUOUS
 10
80.1027419475
 20
241.9978142767
 11
80.1027419475
 21
226.8978142767
  0
LINE
  5
320
100
AcDbEntity
  8
02___PRT_ALL_AXES
100
AcDbLine
 62
7
  6
CONTINUOUS
 10
80.1027419475
 20
187.0978142767
 11
80.1027419475
 21
171.9978142767
  0
LINE
  5
321
100
AcDbEntity
  8
0
100
AcDbLine
 62
7
  6
CONTINUOUS
 10
80.1027419475
 20
187.0978142767
 11
80.1027419475
 21
226.8978142767
  0
LINE
  5
322
100
AcDbEntity
  8
0
100
AcDbLine
 62
7
  6
CONTINUOUS
 10
82.1027419475
 20
214.4978142767
 11
82.1027419475
 21
199.4978142767
  0
LINE
  5
323
100
AcDbEntity
  8
0
100
AcDbLine
 62
7
  6
CONTINUOUS
 10
50.7027419475
 20
186.4978142767
 11
79.5027419475
 21
186.4978142767
  0
LINE
  5
324
100
AcDbEntity
  8
0
100
AcDbLine
 62
7
  6
CONTINUOUS
 10
50.7027419475
 20
187.0978142767
 11
79.5027419475
 21
187.0978142767
  0
LINE
  5
325
100
AcDbEntity
  8
02___PRT_ALL_AXES
100
AcDbLine
 62
7
  6
CENTER
 10
65.1027419475
 20
194.1478142767
 11
61.1026419475
 21
194.1478142767
  0
LINE
  5
326
100
AcDbEntity
  8
02___PRT_ALL_AXES
100
AcDbLine
 62
7
  6
CENTER
 10
65.1027419475
 20
194.1478142767
 11
69.1028419475
 21
194.1478142767
  0
LINE
  5
327
100
AcDbEntity
  8
0
100
AcDbLine
 62
7
  6
CONTINUOUS
 10
37.4027419475
 20
198.0478142767
 11
47.9027419475
 21
198.0478142767
  0
LINE
  5
328
100
AcDbEntity
  8
02___PRT_ALL_AXES
100
AcDbLine
 62
7
  6
CONTINUOUS
 10
37.4027419475
 20
198.0478142767
 11
47.9027419475
 21
198.0478142767
  0
LINE
  5
329
100
AcDbEntity
  8
0
100
AcDbLine
 62
7
  6
CONTINUOUS
 10
29.8027419475
 20
198.9978142767
 11
37.2027419475
 21
198.9978142767
  0
LINE
  5
32A
100
AcDbEntity
  8
02___PRT_ALL_AXES
100
AcDbLine
 62
7
  6
CONTINUOUS
 10
29.8027419475
 20
198.9978142767
 11
37.2027419475
 21
198.9978142767
  0
LINE
  5
32B
100
AcDbEntity
  8
0
100
AcDbLine
 62
7
  6
CONTINUOUS
 10
48.1027419475
 20
199.4978142767
 11
50.1027419475
 21
199.4978142767
  0
LINE
  5
32C
100
AcDbEntity
  8
0
100
AcDbLine
 62
7
  6
CONTINUOUS
 10
80.1027419475
 20
199.4978142767
 11
82.1027419475
 21
199.4978142767
  0
LINE
  5
32D
100
AcDbEntity
  8
0
100
AcDbLine
 62
7
  6
CONTINUOUS
 10
79.5027419475
 20
227.4978142767
 11
80.1027419475
 21
226.8978142767
  0
LINE
  5
32E
100
AcDbEntity
  8
02___PRT_ALL_AXES
100
AcDbLine
 62
7
  6
CONTINUOUS
 10
96.3059577954
 20
258.6978142767
 11
96.3059577954
 21
249.2978142767
  0
LINE
  5
32F
100
AcDbEntity
  8
0
100
AcDbLine
 62
7
  6
CONTINUOUS
 10
48.1027419476
 20
198.2478142768
 11
47.9027419476
 21
198.0478142768
  0
LINE
  5
330
100
AcDbEntity
  8
0
100
AcDbLine
 62
7
  6
CONTINUOUS
 10
79.5027419475
 20
226.8978142767
 11
79.8027419475
 21
227.1978142767
  0
LINE
  5
331
100
AcDbEntity
  8
02___PRT_ALL_AXES
100
AcDbLine
 62
7
  6
CONTINUOUS
 10
25.6027419475
 20
201.7478142767
 11
29.6027419475
 21
201.7478142767
  0
LINE
  5
332
100
AcDbEntity
  8
02___PRT_ALL_AXES
100
AcDbLine
 62
7
  6
CENTER
 10
87.1027419475
 20
206.9978142767
 11
17.2646730365
 21
206.9978142767
  0
LINE
  5
333
100
AcDbEntity
  8
02___PRT_ALL_AXES
100
AcDbLine
 62
7
  6
CONTINUOUS
 10
103.3059577954
 20
258.6978142767
 11
103.3059577954
 21
249.2978142767
  0
LINE
  5
334
100
AcDbEntity
  8
0
100
AcDbLine
 62
7
  6
CONTINUOUS
 10
50.4027419475
 20
186.7978142767
 11
50.7027419475
 21
187.0978142767
  0
LINE
  5
335
100
AcDbEntity
  8
02___PRT_ALL_AXES
100
AcDbLine
 62
7
  6
CONTINUOUS
 10
25.6027419475
 20
212.2478142767
 11
29.6027419475
 21
212.2478142767
  0
LINE
  5
336
100
AcDbEntity
  8
0
100
AcDbLine
 62
7
  6
CONTINUOUS
 10
48.1027419475
 20
214.4978142767
 11
50.1027419475
 21
214.4978142767
  0
LINE
  5
337
100
AcDbEntity
  8
0
100
AcDbLine
 62
7
  6
CONTINUOUS
 10
80.1027419475
 20
214.4978142767
 11
82.1027419475
 21
214.4978142767
  0
LINE
  5
338
100
AcDbEntity
  8
0
100
AcDbLine
 62
7
  6
CONTINUOUS
 10
29.8027419475
 20
214.9978142767
 11
37.2027419475
 21
214.9978142767
  0
LINE
  5
339
100
AcDbEntity
  8
02___PRT_ALL_AXES
100
AcDbLine
 62
7
  6
CONTINUOUS
 10
29.8027419475
 20
214.9978142767
 11
37.2027419475
 21
214.9978142767
  0
LINE
  5
33A
100
AcDbEntity
  8
0
100
AcDbLine
 62
7
  6
CONTINUOUS
 10
37.4027419475
 20
215.9478142767
 11
47.9027419475
 21
215.9478142767
  0
LINE
  5
33B
100
AcDbEntity
  8
02___PRT_ALL_AXES
100
AcDbLine
 62
7
  6
CONTINUOUS
 10
37.4027419475
 20
215.9478142767
 11
47.9027419475
 21
215.9478142767
  0
LINE
  5
33C
100
AcDbEntity
  8
0
100
AcDbLine
 62
7
  6
CONTINUOUS
 10
103.3159453831
 20
223.2846108411
 11
113.9225471009
 21
212.6780091233
  0
LINE
  5
33D
100
AcDbEntity
  8
0
100
AcDbLine
 62
7
  6
CONTINUOUS
 10
103.3159453831
 20
223.2846108411
 11
127.5736299819
 21
247.54229544
  0
LINE
  5
33E
100
AcDbEntity
  8
0
100
AcDbLine
 62
7
  6
CONTINUOUS
 10
127.5736299819
 20
247.54229544
 11
146.5092661569
 21
259.3745941446
  0
LINE
  5
33F
100
AcDbEntity
  8
02___PRT_ALL_AXES
100
AcDbLine
 62
7
  6
CONTINUOUS
 10
192.1687591254
 20
218.9978142767
 11
162.1687591254
 21
218.9978142767
  0
LINE
  5
340
100
AcDbEntity
  8
02___PRT_ALL_AXES
100
AcDbLine
 62
7
  6
CENTER
 10
65.1027419475
 20
219.8478142767
 11
61.1026419475
 21
219.8478142767
  0
LINE
  5
341
100
AcDbEntity
  8
02___PRT_ALL_AXES
100
AcDbLine
 62
7
  6
CENTER
 10
65.1027419475
 20
219.8478142767
 11
69.1028419475
 21
219.8478142767
  0
LINE
  5
342
100
AcDbEntity
  8
0
100
AcDbLine
 62
7
  6
CONTINUOUS
 10
162.1687591254
 20
273.8978142767
 11
162.7687591254
 21
274.4978142767
  0
LINE
  5
343
100
AcDbEntity
  8
02___PRT_ALL_AXES
100
AcDbLine
 62
7
  6
CONTINUOUS
 10
22.1027419475
 20
211.9978142767
 11
25.6027419475
 21
212.6478142767
  0
LINE
  5
344
100
AcDbEntity
  8
02___PRT_ALL_AXES
100
AcDbLine
 62
7
  6
CONTINUOUS
 10
220.1687591254
 20
248.9978142767
 11
216.6687591254
 21
248.3478142767
  0
LINE
  5
345
100
AcDbEntity
  8
02___PRT_ALL_AXES
100
AcDbLine
 62
7
  6
CENTER
 10
177.1687591254
 20
225.9978142767
 11
169.6687591254
 21
225.9978142767
  0
LINE
  5
346
100
AcDbEntity
  8
02___PRT_ALL_AXES
100
AcDbLine
 62
7
  6
CENTER
 10
177.1687591254
 20
225.9978142767
 11
184.6687591254
 21
225.9978142767
  0
LINE
  5
347
100
AcDbEntity
  8
0
100
AcDbLine
 62
7
  6
CONTINUOUS
 10
79.5027419475
 20
226.8978142767
 11
50.7027419475
 21
226.8978142767
  0
LINE
  5
348
100
AcDbEntity
  8
0
100
AcDbLine
 62
7
  6
CONTINUOUS
 10
79.5027419475
 20
227.4978142767
 11
50.7027419475
 21
227.4978142767
  0
LINE
  5
349
100
AcDbEntity
  8
0
100
AcDbLine
 62
7
  6
CONTINUOUS
 10
80.1027419475
 20
187.0978142767
 11
79.5027419475
 21
186.4978142767
  0
LINE
  5
34A
100
AcDbEntity
  8
0
100
AcDbLine
 62
7
  6
CONTINUOUS
 10
113.9225471009
 20
212.6780091233
 11
138.9555556898
 21
237.7110177123
  0
LINE
  5
34B
100
AcDbEntity
  8
0
100
AcDbLine
 62
7
  6
CONTINUOUS
 10
162.7687591254
 20
233.4978142767
 11
191.5687591254
 21
233.4978142767
  0
LINE
  5
34C
100
AcDbEntity
  8
0
100
AcDbLine
 62
7
  6
CONTINUOUS
 10
162.7687591254
 20
234.0978142767
 11
191.5687591254
 21
234.0978142767
  0
LINE
  5
34D
100
AcDbEntity
  8
02___PRT_ALL_AXES
100
AcDbLine
 62
7
  6
CENTER
 10
65.1027419475
 20
234.9978142767
 11
57.6027419475
 21
234.9978142767
  0
LINE
  5
34E
100
AcDbEntity
  8
02___PRT_ALL_AXES
100
AcDbLine
 62
7
  6
CENTER
 10
65.1027419475
 20
234.9978142767
 11
72.6027419475
 21
234.9978142767
  0
LINE
  5
34F
100
AcDbEntity
  8
02___PRT_ALL_AXES
100
AcDbLine
 62
7
  6
CENTER
 10
177.1687591254
 20
241.1478142767
 11
173.1686591254
 21
241.1478142767
  0
LINE
  5
350
100
AcDbEntity
  8
02___PRT_ALL_AXES
100
AcDbLine
 62
7
  6
CENTER
 10
177.1687591254
 20
241.1478142767
 11
181.1688591254
 21
241.1478142767
  0
LINE
  5
351
100
AcDbEntity
  8
02___PRT_ALL_AXES
100
AcDbLine
 62
7
  6
CONTINUOUS
 10
50.1027419475
 20
241.9978142767
 11
80.1027419475
 21
241.9978142767
  0
LINE
  5
352
100
AcDbEntity
  8
0
100
AcDbLine
 62
7
  6
CONTINUOUS
 10
204.8687591254
 20
245.0478142767
 11
194.3687591254
 21
245.0478142767
  0
LINE
  5
353
100
AcDbEntity
  8
02___PRT_ALL_AXES
100
AcDbLine
 62
7
  6
CONTINUOUS
 10
204.8687591254
 20
245.0478142767
 11
194.3687591254
 21
245.0478142767
  0
LINE
  5
354
100
AcDbEntity
  8
0
100
AcDbLine
 62
7
  6
CONTINUOUS
 10
212.4687591254
 20
245.9978142767
 11
205.0687591254
 21
245.9978142767
  0
LINE
  5
355
100
AcDbEntity
  8
02___PRT_ALL_AXES
100
AcDbLine
 62
7
  6
CONTINUOUS
 10
212.4687591254
 20
245.9978142767
 11
205.0687591254
 21
245.9978142767
  0
LINE
  5
356
100
AcDbEntity
  8
0
100
AcDbLine
 62
7
  6
CONTINUOUS
 10
160.1687591254
 20
246.4978142767
 11
162.1687591254
 21
246.4978142767
  0
LINE
  5
357
100
AcDbEntity
  8
0
100
AcDbLine
 62
7
  6
CONTINUOUS
 10
192.1687591254
 20
246.4978142767
 11
194.1687591254
 21
246.4978142767
  0
LINE
  5
358
100
AcDbEntity
  8
0
100
AcDbLine
 62
7
  6
CONTINUOUS
 10
191.5687591254
 20
273.8978142767
 11
191.8687591254
 21
274.1978142767
  0
LINE
  5
359
100
AcDbEntity
  8
02___PRT_ALL_AXES
100
AcDbLine
 62
7
  6
CONTINUOUS
 10
216.6687591254
 20
248.7478142767
 11
212.6687591254
 21
248.7478142767
  0
LINE
  5
35A
100
AcDbEntity
  8
02___PRT_ALL_AXES
100
AcDbLine
 62
7
  6
CONTINUOUS
 10
103.3059577954
 20
249.2978142767
 11
96.3059577954
 21
249.2978142767
  0
LINE
  5
35B
100
AcDbEntity
  8
02___PRT_ALL_AXES
100
AcDbLine
 62
7
  6
CONTINUOUS
 10
131.503281563
 20
249.9978142767
 11
103.3059577954
 21
249.9978142767
  0
LINE
  5
35C
100
AcDbEntity
  8
0
100
AcDbLine
 62
7
  6
CONTINUOUS
 10
131.503281563
 20
249.9978142767
 11
103.3059577954
 21
249.9978142767
  0
LINE
  5
35D
100
AcDbEntity
  8
02___PRT_ALL_AXES
100
AcDbLine
 62
7
  6
CENTER
 10
222.8217930365
 20
253.9978142767
 11
93.0989130365
 21
253.9978142767
  0
LINE
  5
35E
100
AcDbEntity
  8
0
100
AcDbLine
 62
7
  6
CONTINUOUS
 10
128.5279516192
 20
248.138621783
 11
138.9555556898
 21
237.7110177123
  0
LINE
  5
35F
100
AcDbEntity
  8
0
100
AcDbLine
 62
7
  6
CONTINUOUS
 10
162.4687591254
 20
233.7978142767
 11
162.7687591254
 21
234.0978142767
  0
LINE
  5
360
100
AcDbEntity
  8
0
100
AcDbLine
 62
7
  6
CONTINUOUS
 10
194.1687591253
 20
262.7478142766
 11
194.3687591253
 21
262.9478142766
  0
LINE
  5
361
100
AcDbEntity
  8
02___PRT_ALL_AXES
100
AcDbLine
 62
7
  6
CONTINUOUS
 10
144.3059577954
 20
257.9978142767
 11
103.3059577954
 21
257.9978142767
  0
LINE
  5
362
100
AcDbEntity
  8
0
100
AcDbLine
 62
7
  6
CONTINUOUS
 10
144.3059577954
 20
257.9978142767
 11
103.3059577954
 21
257.9978142767
  0
LINE
  5
363
100
AcDbEntity
  8
02___PRT_ALL_AXES
100
AcDbLine
 62
7
  6
CONTINUOUS
 10
103.3059577954
 20
258.6978142767
 11
96.3059577954
 21
258.6978142767
  0
LINE
  5
364
100
AcDbEntity
  8
02___PRT_ALL_AXES
100
AcDbLine
 62
7
  6
CONTINUOUS
 10
216.6687591254
 20
259.2478142767
 11
212.6687591254
 21
259.2478142767
  0
LINE
  5
365
100
AcDbEntity
  8
0
100
AcDbLine
 62
7
  6
CONTINUOUS
 10
160.1687591254
 20
261.4978142767
 11
162.1687591254
 21
261.4978142767
  0
LINE
  5
366
100
AcDbEntity
  8
0
100
AcDbLine
 62
7
  6
CONTINUOUS
 10
192.1687591254
 20
261.4978142767
 11
194.1687591254
 21
261.4978142767
  0
LINE
  5
367
100
AcDbEntity
  8
0
100
AcDbLine
 62
7
  6
CONTINUOUS
 10
212.4687591254
 20
261.9978142767
 11
205.0687591254
 21
261.9978142767
  0
LINE
  5
368
100
AcDbEntity
  8
02___PRT_ALL_AXES
100
AcDbLine
 62
7
  6
CONTINUOUS
 10
212.4687591254
 20
261.9978142767
 11
205.0687591254
 21
261.9978142767
  0
LINE
  5
369
100
AcDbEntity
  8
0
100
AcDbLine
 62
7
  6
CONTINUOUS
 10
162.7687591254
 20
233.4978142767
 11
162.1687591254
 21
234.0978142767
  0
LINE
  5
36A
100
AcDbEntity
  8
0
100
AcDbLine
 62
7
  6
CONTINUOUS
 10
160.1687591254
 20
261.4978142767
 11
160.1687591254
 21
246.4978142767
  0
LINE
  5
36B
100
AcDbEntity
  8
0
100
AcDbLine
 62
7
  6
CONTINUOUS
 10
204.8687591254
 20
262.9478142767
 11
194.3687591254
 21
262.9478142767
  0
LINE
  5
36C
100
AcDbEntity
  8
02___PRT_ALL_AXES
100
AcDbLine
 62
7
  6
CONTINUOUS
 10
204.8687591254
 20
262.9478142767
 11
194.3687591254
 21
262.9478142767
  0
LINE
  5
36D
100
AcDbEntity
  8
02___PRT_ALL_AXES
100
AcDbLine
 62
7
  6
CENTER
 10
177.1687591254
 20
266.8478142767
 11
173.1686591254
 21
266.8478142767
  0
LINE
  5
36E
100
AcDbEntity
  8
02___PRT_ALL_AXES
100
AcDbLine
 62
7
  6
CENTER
 10
177.1687591254
 20
266.8478142767
 11
181.1688591254
 21
266.8478142767
  0
LINE
  5
36F
100
AcDbEntity
  8
0
100
AcDbLine
 62
7
  6
CONTINUOUS
 10
162.1687591254
 20
273.8978142767
 11
162.1687591254
 21
234.0978142767
  0
LINE
  5
370
100
AcDbEntity
  8
02___PRT_ALL_AXES
100
AcDbLine
 62
7
  6
CONTINUOUS
 10
162.1687591254
 20
218.9978142767
 11
162.1687591254
 21
234.0978142767
  0
LINE
  5
371
100
AcDbEntity
  8
02___PRT_ALL_AXES
100
AcDbLine
 62
7
  6
CONTINUOUS
 10
162.1687591254
 20
273.8978142767
 11
162.1687591254
 21
288.9978142767
  0
LINE
  5
372
100
AcDbEntity
  8
0
100
AcDbLine
 62
7
  6
CONTINUOUS
 10
162.7687591254
 20
273.8978142767
 11
162.7687591254
 21
234.0978142767
  0
LINE
  5
373
100
AcDbEntity
  8
0
100
AcDbLine
 62
7
  6
CONTINUOUS
 10
191.5687591254
 20
273.8978142767
 11
162.7687591254
 21
273.8978142767
  0
LINE
  5
374
100
AcDbEntity
  8
0
100
AcDbLine
 62
7
  6
CONTINUOUS
 10
191.5687591254
 20
274.4978142767
 11
162.7687591254
 21
274.4978142767
  0
LINE
  5
375
100
AcDbEntity
  8
02___PRT_ALL_AXES
100
AcDbLine
 62
7
  6
CONTINUOUS
 10
220.1687591254
 20
258.9978142767
 11
216.6687591254
 21
259.6478142767
  0
LINE
  5
376
100
AcDbEntity
  8
0
100
AcDbLine
 62
7
  6
CONTINUOUS
 10
192.1687591254
 20
234.0978142767
 11
191.5687591254
 21
233.4978142767
  0
LINE
  5
377
100
AcDbEntity
  8
0
100
AcDbLine
 62
7
  6
CONTINUOUS
 10
205.0687591255
 20
245.2478142768
 11
204.8687591255
 21
245.0478142768
  0
LINE
  5
378
100
AcDbEntity
  8
0
100
AcDbLine
 62
7
  6
CONTINUOUS
 10
212.6687591255
 20
246.1978142768
 11
212.4687591255
 21
245.9978142768
  0
LINE
  5
379
100
AcDbEntity
  8
02___PRT_ALL_AXES
100
AcDbLine
 62
7
  6
CENTER
 10
177.1687591254
 20
281.9978142767
 11
169.6687591254
 21
281.9978142767
  0
LINE
  5
37A
100
AcDbEntity
  8
02___PRT_ALL_AXES
100
AcDbLine
 62
7
  6
CENTER
 10
177.1687591254
 20
281.9978142767
 11
184.6687591254
 21
281.9978142767
  0
LINE
  5
37B
100
AcDbEntity
  8
0
100
AcDbLine
 62
7
  6
CONTINUOUS
 10
191.5687591254
 20
234.0978142767
 11
191.8687591254
 21
233.7978142767
  0
LINE
  5
37C
100
AcDbEntity
  8
02___PRT_ALL_AXES
100
AcDbLine
 62
7
  6
CENTER
 10
177.1687591254
 20
281.9978142767
 11
177.1687591254
 21
274.4978142767
  0
LINE
  5
37D
100
AcDbEntity
  8
02___PRT_ALL_AXES
100
AcDbLine
 62
7
  6
CENTER
 10
177.1687591254
 20
266.8478142767
 11
177.1687591254
 21
262.8477142767
  0
LINE
  5
37E
100
AcDbEntity
  8
02___PRT_ALL_AXES
100
AcDbLine
 62
7
  6
CENTER
 10
177.1687591254
 20
241.1478142767
 11
177.1687591254
 21
237.1477142767
  0
LINE
  5
37F
100
AcDbEntity
  8
02___PRT_ALL_AXES
100
AcDbLine
 62
7
  6
CENTER
 10
177.1687591254
 20
225.9978142767
 11
177.1687591254
 21
218.4978142767
  0
LINE
  5
380
100
AcDbEntity
  8
02___PRT_ALL_AXES
100
AcDbLine
 62
7
  6
CENTER
 10
177.1687591254
 20
225.9978142767
 11
177.1687591254
 21
233.4978142767
  0
LINE
  5
381
100
AcDbEntity
  8
02___PRT_ALL_AXES
100
AcDbLine
 62
7
  6
CENTER
 10
177.1687591254
 20
241.1478142767
 11
177.1687591254
 21
245.1479142767
  0
LINE
  5
382
100
AcDbEntity
  8
02___PRT_ALL_AXES
100
AcDbLine
 62
7
  6
CENTER
 10
177.1687591254
 20
266.8478142767
 11
177.1687591254
 21
270.8479142767
  0
LINE
  5
383
100
AcDbEntity
  8
02___PRT_ALL_AXES
100
AcDbLine
 62
7
  6
CENTER
 10
177.1687591254
 20
281.9978142767
 11
177.1687591254
 21
289.4978142767
  0
LINE
  5
384
100
AcDbEntity
  8
02___PRT_ALL_AXES
100
AcDbLine
 62
7
  6
CONTINUOUS
 10
162.1687591254
 20
288.9978142767
 11
192.1687591254
 21
288.9978142767
  0
LINE
  5
385
100
AcDbEntity
  8
0
100
AcDbLine
 62
7
  6
CONTINUOUS
 10
162.7687591254
 20
273.8978142767
 11
162.4687591254
 21
274.1978142767
  0
LINE
  5
386
100
AcDbEntity
  8
0
100
AcDbLine
 62
7
  6
CONTINUOUS
 10
194.1687591253
 20
245.2478142769
 11
194.3687591253
 21
245.0478142769
  0
LINE
  5
387
100
AcDbEntity
  8
0
100
AcDbLine
 62
7
  6
CONTINUOUS
 10
191.5687591254
 20
234.0978142767
 11
191.5687591254
 21
273.8978142767
  0
LINE
  5
388
100
AcDbEntity
  8
02___PRT_ALL_AXES
100
AcDbLine
 62
7
  6
CONTINUOUS
 10
192.1687591254
 20
288.9978142767
 11
192.1687591254
 21
273.8978142767
  0
LINE
  5
389
100
AcDbEntity
  8
02___PRT_ALL_AXES
100
AcDbLine
 62
7
  6
CONTINUOUS
 10
192.1687591254
 20
234.0978142767
 11
192.1687591254
 21
218.9978142767
  0
LINE
  5
38A
100
AcDbEntity
  8
0
100
AcDbLine
 62
7
  6
CONTINUOUS
 10
192.1687591254
 20
234.0978142767
 11
192.1687591254
 21
273.8978142767
  0
LINE
  5
38B
100
AcDbEntity
  8
0
100
AcDbLine
 62
7
  6
CONTINUOUS
 10
194.1687591254
 20
245.2478142767
 11
194.1687591254
 21
262.7478142767
  0
LINE
  5
38C
100
AcDbEntity
  8
0
100
AcDbLine
 62
7
  6
CONTINUOUS
 10
194.3687591254
 20
245.0478142767
 11
194.3687591254
 21
262.9478142767
  0
LINE
  5
38D
100
AcDbEntity
  8
0
100
AcDbLine
 62
7
  6
CONTINUOUS
 10
204.8687591254
 20
245.0478142767
 11
204.8687591254
 21
262.9478142767
  0
LINE
  5
38E
100
AcDbEntity
  8
0
100
AcDbLine
 62
7
  6
CONTINUOUS
 10
205.0687591254
 20
245.2478142767
 11
205.0687591254
 21
262.7478142767
  0
LINE
  5
38F
100
AcDbEntity
  8
0
100
AcDbLine
 62
7
  6
CONTINUOUS
 10
191.5687591254
 20
274.4978142767
 11
192.1687591254
 21
273.8978142767
  0
LINE
  5
390
100
AcDbEntity
  8
0
100
AcDbLine
 62
7
  6
CONTINUOUS
 10
205.0687591256
 20
262.7478142766
 11
204.8687591256
 21
262.9478142766
  0
LINE
  5
391
100
AcDbEntity
  8
0
100
AcDbLine
 62
7
  6
CONTINUOUS
 10
212.4687591254
 20
245.9978142767
 11
212.4687591254
 21
261.9978142767
  0
LINE
  5
392
100
AcDbEntity
  8
0
100
AcDbLine
 62
7
  6
CONTINUOUS
 10
212.6687591254
 20
246.1978142767
 11
212.6687591254
 21
261.7978142767
  0
LINE
  5
393
100
AcDbEntity
  8
0
100
AcDbLine
 62
7
  6
CONTINUOUS
 10
212.6687591256
 20
261.7978142766
 11
212.4687591256
 21
261.9978142766
  0
LINE
  5
394
100
AcDbEntity
  8
02___PRT_ALL_AXES
100
AcDbLine
 62
7
  6
CONTINUOUS
 10
216.6687591254
 20
259.6478142767
 11
216.6687591254
 21
248.3478142767
  0
LINE
  5
395
100
AcDbEntity
  8
02___PRT_ALL_AXES
100
AcDbLine
 62
7
  6
CONTINUOUS
 10
220.1687591254
 20
258.9978142767
 11
220.1687591254
 21
248.9978142767
  0
LINE
  5
396
100
AcDbEntity
  8
02___PRT_ALL_AXES
100
AcDbLine
 62
7
  6
CONTINUOUS
 10
254.3145751953
 20
171.9978142767
 11
251.3145751953
 21
171.9978142767
  0
LINE
  5
397
100
AcDbEntity
  8
0
100
AcDbLine
 62
7
  6
CONTINUOUS
 10
254.9145751953
 20
274.4978142767
 11
254.3145751953
 21
273.8978142767
  0
LINE
  5
398
100
AcDbEntity
  8
0
100
AcDbLine
 62
7
  6
CONTINUOUS
 10
286.5145751953
 20
186.4978142767
 11
271.7145751953
 21
186.4978142767
  0
LINE
  5
399
100
AcDbEntity
  8
0
100
AcDbLine
 62
7
  6
CONTINUOUS
 10
254.9145751953
 20
186.4978142767
 11
269.7145751953
 21
186.4978142767
  0
LINE
  5
39A
100
AcDbEntity
  8
0
100
AcDbLine
 62
7
  6
CONTINUOUS
 10
286.5145751953
 20
187.0978142767
 11
271.7145751953
 21
187.0978142767
  0
LINE
  5
39B
100
AcDbEntity
  8
0
100
AcDbLine
 62
7
  6
CONTINUOUS
 10
254.9145751953
 20
187.0978142767
 11
269.7145751953
 21
187.0978142767
  0
LINE
  5
39C
100
AcDbEntity
  8
0
100
AcDbLine
 62
7
  6
CONTINUOUS
 10
254.3145751953
 20
187.0978142767
 11
254.9145751953
 21
186.4978142767
  0
LINE
  5
39D
100
AcDbEntity
  8
0
100
AcDbLine
 62
7
  6
CONTINUOUS
 10
269.7145751953
 20
273.8978142767
 11
270.0145751953
 21
274.1978142767
  0
LINE
  5
39E
100
AcDbEntity
  8
0
100
AcDbLine
 62
7
  6
CONTINUOUS
 10
271.7145751953
 20
274.4978142767
 11
271.1145751953
 21
273.8978142767
  0
LINE
  5
39F
100
AcDbEntity
  8
0
100
AcDbLine
 62
7
  6
CONTINUOUS
 10
269.7145751953
 20
187.0978142767
 11
270.0145751953
 21
186.7978142767
  0
LINE
  5
3A0
100
AcDbEntity
  8
0
100
AcDbLine
 62
7
  6
CONTINUOUS
 10
271.1145751953
 20
187.0978142767
 11
271.7145751953
 21
186.4978142767
  0
LINE
  5
3A1
100
AcDbEntity
  8
02___PRT_ALL_AXES
100
AcDbLine
 62
7
  6
CENTER
 10
270.7145751953
 20
206.9978142767
 11
257.7645751953
 21
206.9978142767
  0
LINE
  5
3A2
100
AcDbEntity
  8
02___PRT_ALL_AXES
100
AcDbLine
 62
7
  6
CENTER
 10
270.7145751953
 20
206.9978142767
 11
283.6645751953
 21
206.9978142767
  0
LINE
  5
3A3
100
AcDbEntity
  8
02___PRT_ALL_AXES
100
AcDbLine
 62
7
  6
CONTINUOUS
 10
251.3145751953
 20
171.9978142767
 11
251.3145751953
 21
288.9978142767
  0
LINE
  5
3A4
100
AcDbEntity
  8
0
100
AcDbLine
 62
7
  6
CONTINUOUS
 10
286.5145751953
 20
273.8978142767
 11
286.8145751953
 21
274.1978142767
  0
LINE
  5
3A5
100
AcDbEntity
  8
0
100
AcDbLine
 62
7
  6
CONTINUOUS
 10
286.5145751953
 20
187.0978142767
 11
286.8145751953
 21
186.7978142767
  0
LINE
  5
3A6
100
AcDbEntity
  8
02___PRT_ALL_AXES
100
AcDbLine
 62
7
  6
CONTINUOUS
 10
254.3145751953
 20
171.9978142767
 11
254.3145751953
 21
288.9978142767
  0
LINE
  5
3A7
100
AcDbEntity
  8
0
100
AcDbLine
 62
7
  6
CONTINUOUS
 10
254.9145751953
 20
187.0978142767
 11
254.9145751953
 21
226.8978142767
  0
LINE
  5
3A8
100
AcDbEntity
  8
0
100
AcDbLine
 62
7
  6
CONTINUOUS
 10
254.9145751953
 20
234.0978142767
 11
254.9145751953
 21
273.8978142767
  0
LINE
  5
3A9
100
AcDbEntity
  8
0
100
AcDbLine
 62
7
  6
CONTINUOUS
 10
254.9145751953
 20
234.0978142767
 11
254.6145751953
 21
233.7978142767
  0
LINE
  5
3AA
100
AcDbEntity
  8
0
100
AcDbLine
 62
7
  6
CONTINUOUS
 10
254.9145751953
 20
226.8978142767
 11
254.6145751953
 21
227.1978142767
  0
LINE
  5
3AB
100
AcDbEntity
  8
0
100
AcDbLine
 62
7
  6
CONTINUOUS
 10
254.9145751953
 20
227.4978142767
 11
254.3145751953
 21
226.8978142767
  0
LINE
  5
3AC
100
AcDbEntity
  8
0
100
AcDbLine
 62
7
  6
CONTINUOUS
 10
254.3145751953
 20
234.0978142767
 11
254.9145751953
 21
233.4978142767
  0
LINE
  5
3AD
100
AcDbEntity
  8
0
100
AcDbLine
 62
7
  6
CONTINUOUS
 10
263.2145751953
 20
227.4978142767
 11
263.2145751953
 21
253.9978142767
  0
LINE
  5
3AE
100
AcDbEntity
  8
0
100
AcDbLine
 62
7
  6
CONTINUOUS
 10
286.5145751953
 20
226.8978142767
 11
271.7145751953
 21
226.8978142767
  0
LINE
  5
3AF
100
AcDbEntity
  8
0
100
AcDbLine
 62
7
  6
CONTINUOUS
 10
254.9145751953
 20
226.8978142767
 11
269.7145751953
 21
226.8978142767
  0
LINE
  5
3B0
100
AcDbEntity
  8
0
100
AcDbLine
 62
7
  6
CONTINUOUS
 10
269.7145751953
 20
273.8978142767
 11
269.7145751953
 21
262.0358488623
  0
LINE
  5
3B1
100
AcDbEntity
  8
0
100
AcDbLine
 62
7
  6
CONTINUOUS
 10
269.7145751953
 20
226.8978142767
 11
269.7145751953
 21
215.8728786331
  0
LINE
  5
3B2
100
AcDbEntity
  8
0
100
AcDbLine
 62
7
  6
CONTINUOUS
 10
269.7145751953
 20
198.1227499301
 11
269.7145751953
 21
187.0978142767
  0
LINE
  5
3B3
100
AcDbEntity
  8
0
100
AcDbLine
 62
7
  6
CONTINUOUS
 10
286.5145751953
 20
227.4978142767
 11
271.7145751953
 21
227.4978142767
  0
LINE
  5
3B4
100
AcDbEntity
  8
0
100
AcDbLine
 62
7
  6
CONTINUOUS
 10
254.9145751953
 20
227.4978142767
 11
269.7145751953
 21
227.4978142767
  0
LINE
  5
3B5
100
AcDbEntity
  8
0
100
AcDbLine
 62
7
  6
CONTINUOUS
 10
270.3145751953
 20
226.8978142767
 11
269.7145751953
 21
227.4978142767
  0
LINE
  5
3B6
100
AcDbEntity
  8
0
100
AcDbLine
 62
7
  6
CONTINUOUS
 10
271.7145751953
 20
226.8978142767
 11
271.4145751953
 21
227.1978142767
  0
LINE
  5
3B7
100
AcDbEntity
  8
0
100
AcDbLine
 62
7
  6
CONTINUOUS
 10
270.3145751953
 20
273.8978142767
 11
270.3145751953
 21
261.487140014
  0
LINE
  5
3B8
100
AcDbEntity
  8
0
100
AcDbLine
 62
7
  6
CONTINUOUS
 10
270.3145751953
 20
226.8978142767
 11
270.3145751953
 21
215.9178400193
  0
LINE
  5
3B9
100
AcDbEntity
  8
0
100
AcDbLine
 62
7
  6
CONTINUOUS
 10
270.3145751953
 20
198.0777885381
 11
270.3145751953
 21
187.0978142767
  0
LINE
  5
3BA
100
AcDbEntity
  8
02___PRT_ALL_AXES
100
AcDbLine
 62
7
  6
CENTER
 10
270.7145751953
 20
253.9978142767
 11
270.7145751953
 21
245.2978142767
  0
LINE
  5
3BB
100
AcDbEntity
  8
03___PRT_ALL_CURVES
100
AcDbLine
 62
4
  6
CONTINUOUS
 10
270.7145751953
 20
253.9978142767
 11
270.7145751953
 21
251.6254080382
  0
LINE
  5
3BC
100
AcDbEntity
  8
02___PRT_ALL_AXES
100
AcDbLine
 62
7
  6
CENTER
 10
270.7145751953
 20
206.9978142767
 11
270.7145751953
 21
194.0478142767
  0
LINE
  5
3BD
100
AcDbEntity
  8
03___PRT_ALL_CURVES
100
AcDbLine
 62
4
  6
CONTINUOUS
 10
270.7145751953
 20
206.9978142767
 11
270.7145751953
 21
211.1455496038
  0
LINE
  5
3BE
100
AcDbEntity
  8
02___PRT_ALL_AXES
100
AcDbLine
 62
7
  6
CENTER
 10
270.7145751953
 20
206.9978142767
 11
270.7145751953
 21
219.9478142767
  0
LINE
  5
3BF
100
AcDbEntity
  8
02___PRT_ALL_AXES
100
AcDbLine
 62
7
  6
CENTER
 10
270.7145751953
 20
253.9978142767
 11
270.7145751953
 21
262.6978142767
  0
LINE
  5
3C0
100
AcDbEntity
  8
0
100
AcDbLine
 62
7
  6
CONTINUOUS
 10
271.1145751953
 20
187.0978142767
 11
271.1145751953
 21
198.0777885341
  0
LINE
  5
3C1
100
AcDbEntity
  8
0
100
AcDbLine
 62
7
  6
CONTINUOUS
 10
271.1145751953
 20
215.9178400153
 11
271.1145751953
 21
226.8978142767
  0
LINE
  5
3C2
100
AcDbEntity
  8
0
100
AcDbLine
 62
7
  6
CONTINUOUS
 10
271.1145751953
 20
261.487140014
 11
271.1145751953
 21
273.8978142767
  0
LINE
  5
3C3
100
AcDbEntity
  8
0
100
AcDbLine
 62
7
  6
CONTINUOUS
 10
271.7145751953
 20
187.0978142767
 11
271.7145751953
 21
198.1227499203
  0
LINE
  5
3C4
100
AcDbEntity
  8
0
100
AcDbLine
 62
7
  6
CONTINUOUS
 10
271.7145751953
 20
215.8728786233
 11
271.7145751953
 21
226.8978142767
  0
LINE
  5
3C5
100
AcDbEntity
  8
0
100
AcDbLine
 62
7
  6
CONTINUOUS
 10
271.7145751953
 20
262.0358488623
 11
271.7145751953
 21
273.8978142767
  0
LINE
  5
3C6
100
AcDbEntity
  8
0
100
AcDbLine
 62
7
  6
CONTINUOUS
 10
269.7145751953
 20
226.8978142767
 11
270.0145751953
 21
227.1978142767
  0
LINE
  5
3C7
100
AcDbEntity
  8
0
100
AcDbLine
 62
7
  6
CONTINUOUS
 10
271.7145751953
 20
227.4978142767
 11
271.1145751953
 21
226.8978142767
  0
LINE
  5
3C8
100
AcDbEntity
  8
0
100
AcDbLine
 62
7
  6
CONTINUOUS
 10
286.5145751953
 20
233.4978142767
 11
278.2145751953
 21
233.4978142767
  0
LINE
  5
3C9
100
AcDbEntity
  8
0
100
AcDbLine
 62
7
  6
CONTINUOUS
 10
254.9145751953
 20
233.4978142767
 11
263.2145751953
 21
233.4978142767
  0
LINE
  5
3CA
100
AcDbEntity
  8
0
100
AcDbLine
 62
7
  6
CONTINUOUS
 10
286.5145751953
 20
234.0978142767
 11
278.2145751953
 21
234.0978142767
  0
LINE
  5
3CB
100
AcDbEntity
  8
0
100
AcDbLine
 62
7
  6
CONTINUOUS
 10
254.9145751953
 20
234.0978142767
 11
263.2145751953
 21
234.0978142767
  0
LINE
  5
3CC
100
AcDbEntity
  8
0
100
AcDbLine
 62
7
  6
CONTINUOUS
 10
278.2145751953
 20
227.4978142767
 11
278.2145751953
 21
253.9978142767
  0
LINE
  5
3CD
100
AcDbEntity
  8
0
100
AcDbLine
 62
7
  6
CONTINUOUS
 10
286.5145751953
 20
233.4978142767
 11
287.1145751953
 21
234.0978142767
  0
LINE
  5
3CE
100
AcDbEntity
  8
02___PRT_ALL_AXES
100
AcDbLine
 62
7
  6
CONTINUOUS
 10
254.3145751953
 20
241.9978142767
 11
251.3145751953
 21
241.9978142767
  0
LINE
  5
3CF
100
AcDbEntity
  8
0
100
AcDbLine
 62
7
  6
CONTINUOUS
 10
287.1145751953
 20
226.8978142767
 11
286.5145751953
 21
227.4978142767
  0
LINE
  5
3D0
100
AcDbEntity
  8
0
100
AcDbLine
 62
7
  6
CONTINUOUS
 10
286.5145751953
 20
226.8978142767
 11
286.8145751953
 21
227.1978142767
  0
LINE
  5
3D1
100
AcDbEntity
  8
0
100
AcDbLine
 62
7
  6
CONTINUOUS
 10
286.5145751953
 20
234.0978142767
 11
286.8145751953
 21
233.7978142767
  0
LINE
  5
3D2
100
AcDbEntity
  8
0
100
AcDbLine
 62
7
  6
CONTINUOUS
 10
286.5145751953
 20
273.8978142767
 11
286.5145751953
 21
234.0978142767
  0
LINE
  5
3D3
100
AcDbEntity
  8
0
100
AcDbLine
 62
7
  6
CONTINUOUS
 10
286.5145751953
 20
226.8978142767
 11
286.5145751953
 21
187.0978142767
  0
LINE
  5
3D4
100
AcDbEntity
  8
0
100
AcDbLine
 62
7
  6
CONTINUOUS
 10
287.1145751953
 20
273.8978142767
 11
287.1145751953
 21
234.0978142767
  0
LINE
  5
3D5
100
AcDbEntity
  8
0
100
AcDbLine
 62
7
  6
CONTINUOUS
 10
287.1145751953
 20
226.8978142767
 11
287.1145751953
 21
187.0978142767
  0
LINE
  5
3D6
100
AcDbEntity
  8
0
100
AcDbLine
 62
7
  6
CONTINUOUS
 10
254.9145751953
 20
187.0978142767
 11
254.6145751953
 21
186.7978142767
  0
LINE
  5
3D7
100
AcDbEntity
  8
0
100
AcDbLine
 62
7
  6
CONTINUOUS
 10
254.9145751953
 20
273.8978142767
 11
254.6145751953
 21
274.1978142767
  0
LINE
  5
3D8
100
AcDbEntity
  8
02___PRT_ALL_AXES
100
AcDbLine
 62
7
  6
CENTER
 10
270.7145751953
 20
253.9978142767
 11
262.0145751953
 21
253.9978142767
  0
LINE
  5
3D9
100
AcDbEntity
  8
02___PRT_ALL_AXES
100
AcDbLine
 62
7
  6
CENTER
 10
270.7145751953
 20
253.9978142767
 11
279.4145751953
 21
253.9978142767
  0
LINE
  5
3DA
100
AcDbEntity
  8
0
100
AcDbLine
 62
7
  6
CONTINUOUS
 10
269.7145751953
 20
186.4978142767
 11
270.3145751953
 21
187.0978142767
  0
LINE
  5
3DB
100
AcDbEntity
  8
0
100
AcDbLine
 62
7
  6
CONTINUOUS
 10
271.7145751953
 20
187.0978142767
 11
271.4145751953
 21
186.7978142767
  0
LINE
  5
3DC
100
AcDbEntity
  8
0
100
AcDbLine
 62
7
  6
CONTINUOUS
 10
270.3145751953
 20
273.8978142767
 11
269.7145751953
 21
274.4978142767
  0
LINE
  5
3DD
100
AcDbEntity
  8
0
100
AcDbLine
 62
7
  6
CONTINUOUS
 10
271.7145751953
 20
273.8978142767
 11
271.4145751953
 21
274.1978142767
  0
LINE
  5
3DE
100
AcDbEntity
  8
0
100
AcDbLine
 62
7
  6
CONTINUOUS
 10
286.5145751953
 20
186.4978142767
 11
287.1145751953
 21
187.0978142767
  0
LINE
  5
3DF
100
AcDbEntity
  8
0
100
AcDbLine
 62
7
  6
CONTINUOUS
 10
286.5145751953
 20
273.8978142767
 11
271.7145751953
 21
273.8978142767
  0
LINE
  5
3E0
100
AcDbEntity
  8
0
100
AcDbLine
 62
7
  6
CONTINUOUS
 10
254.9145751953
 20
273.8978142767
 11
269.7145751953
 21
273.8978142767
  0
LINE
  5
3E1
100
AcDbEntity
  8
0
100
AcDbLine
 62
7
  6
CONTINUOUS
 10
286.5145751953
 20
274.4978142767
 11
271.7145751953
 21
274.4978142767
  0
LINE
  5
3E2
100
AcDbEntity
  8
0
100
AcDbLine
 62
7
  6
CONTINUOUS
 10
254.9145751953
 20
274.4978142767
 11
269.7145751953
 21
274.4978142767
  0
LINE
  5
3E3
100
AcDbEntity
  8
0
100
AcDbLine
 62
7
  6
CONTINUOUS
 10
287.1145751953
 20
273.8978142767
 11
286.5145751953
 21
274.4978142767
  0
LINE
  5
3E4
100
AcDbEntity
  8
02___PRT_ALL_AXES
100
AcDbLine
 62
7
  6
CONTINUOUS
 10
254.3145751953
 20
288.9978142767
 11
251.3145751953
 21
288.9978142767
  0
LINE
  5
3E5
100
AcDbEntity
  8
02___PRT_ALL_AXES
100
AcDbLine
 62
7
  6
CONTINUOUS
 10
22.1027419475
 20
23.9997971447
 11
22.1027419475
 21
33.9997971447
  0
LINE
  5
3E6
100
AcDbEntity
  8
02___PRT_ALL_AXES
100
AcDbLine
 62
7
  6
CONTINUOUS
 10
25.6027419475
 20
23.3498958989
 11
25.6027419475
 21
34.6496983906
  0
LINE
  5
3E7
100
AcDbEntity
  8
0
100
AcDbLine
 62
7
  6
CONTINUOUS
 10
29.6027419475
 20
36.799705756
 11
29.6027419475
 21
21.1998885335
  0
LINE
  5
3E8
100
AcDbEntity
  8
0
100
AcDbLine
 62
7
  6
CONTINUOUS
 10
29.8027419475
 20
36.9997971447
 11
29.8027419475
 21
20.9997971447
  0
LINE
  5
3E9
100
AcDbEntity
  8
0
100
AcDbLine
 62
7
  6
CONTINUOUS
 10
37.2027419475
 20
37.7496946051
 11
37.2027419475
 21
20.2498996844
  0
LINE
  5
3EA
100
AcDbEntity
  8
0
100
AcDbLine
 62
7
  6
CONTINUOUS
 10
37.4027419475
 20
37.9497971447
 11
37.4027419475
 21
20.0497971447
  0
LINE
  5
3EB
100
AcDbEntity
  8
0
100
AcDbLine
 62
7
  6
CONTINUOUS
 10
47.9027419475
 20
37.9497971447
 11
47.9027419475
 21
20.0497971447
  0
LINE
  5
3EC
100
AcDbEntity
  8
0
100
AcDbLine
 62
7
  6
CONTINUOUS
 10
48.1027419475
 20
37.7496946051
 11
48.1027419475
 21
20.2498996843
  0
LINE
  5
3ED
100
AcDbEntity
  8
0
100
AcDbLine
 62
7
  6
CONTINUOUS
 10
50.1027419475
 20
44.7997971447
 11
50.1027419475
 21
29.9997971447
  0
LINE
  5
3EE
100
AcDbEntity
  8
0
100
AcDbLine
 62
7
  6
CONTINUOUS
 10
50.1027419475
 20
13.1997971447
 11
50.1027419475
 21
27.9997971447
  0
LINE
  5
3EF
100
AcDbEntity
  8
02___PRT_ALL_AXES
100
AcDbLine
 62
7
  6
CONTINUOUS
 10
50.1027419475
 20
45.3997971447
 11
50.1027419475
 21
48.3997971447
  0
LINE
  5
3F0
100
AcDbEntity
  8
0
100
AcDbLine
 62
7
  6
CONTINUOUS
 10
50.7027419475
 20
44.7997971447
 11
50.7027419475
 21
29.9997971447
  0
LINE
  5
3F1
100
AcDbEntity
  8
0
100
AcDbLine
 62
7
  6
CONTINUOUS
 10
50.7027419475
 20
13.1997971447
 11
50.7027419475
 21
27.9997971447
  0
LINE
  5
3F2
100
AcDbEntity
  8
0
100
AcDbLine
 62
7
  6
CONTINUOUS
 10
29.6027419475
 20
36.7997971447
 11
29.8027419475
 21
36.9997971447
  0
LINE
  5
3F3
100
AcDbEntity
  8
0
100
AcDbLine
 62
7
  6
CONTINUOUS
 10
29.6027419475
 20
21.1997971447
 11
29.8027419475
 21
20.9997971447
  0
LINE
  5
3F4
100
AcDbEntity
  8
0
100
AcDbLine
 62
7
  6
CONTINUOUS
 10
37.2027419475
 20
20.2497971447
 11
37.4027419475
 21
20.0497971447
  0
LINE
  5
3F5
100
AcDbEntity
  8
0
100
AcDbLine
 62
7
  6
CONTINUOUS
 10
37.2027419475
 20
37.7497971447
 11
37.4027419475
 21
37.9497971447
  0
LINE
  5
3F6
100
AcDbEntity
  8
0
100
AcDbLine
 62
7
  6
CONTINUOUS
 10
50.1027419475
 20
44.7997971447
 11
50.7027419475
 21
45.3997971447
  0
LINE
  5
3F7
100
AcDbEntity
  8
0
100
AcDbLine
 62
7
  6
CONTINUOUS
 10
50.1027419475
 20
13.1997971447
 11
50.7027419475
 21
12.5997971447
  0
LINE
  5
3F8
100
AcDbEntity
  8
0
100
AcDbLine
 62
7
  6
CONTINUOUS
 10
50.4027419475
 20
29.6997971447
 11
50.7027419475
 21
29.9997971447
  0
LINE
  5
3F9
100
AcDbEntity
  8
0
100
AcDbLine
 62
7
  6
CONTINUOUS
 10
50.1027419475
 20
27.9997971447
 11
50.7027419475
 21
28.5997971447
  0
LINE
  5
3FA
100
AcDbEntity
  8
0
100
AcDbLine
 62
7
  6
CONTINUOUS
 10
50.7027419475
 20
27.9997971447
 11
50.4027419475
 21
28.2997971447
  0
LINE
  5
3FB
100
AcDbEntity
  8
0
100
AcDbLine
 62
7
  6
CONTINUOUS
 10
50.7027419475
 20
29.3997971447
 11
50.1027419475
 21
29.9997971447
  0
LINE
  5
3FC
100
AcDbEntity
  8
0
100
AcDbLine
 62
7
  6
CONTINUOUS
 10
48.1027419475
 20
37.7497971447
 11
47.9027419475
 21
37.9497971447
  0
LINE
  5
3FD
100
AcDbEntity
  8
0
100
AcDbLine
 62
7
  6
CONTINUOUS
 10
79.5027419475
 20
44.7997971447
 11
79.5027419475
 21
29.9997971447
  0
LINE
  5
3FE
100
AcDbEntity
  8
0
100
AcDbLine
 62
7
  6
CONTINUOUS
 10
79.5027419475
 20
13.1997971447
 11
79.5027419475
 21
27.9997971447
  0
LINE
  5
3FF
100
AcDbEntity
  8
0
100
AcDbLine
 62
7
  6
CONTINUOUS
 10
80.1027419475
 20
44.7997971447
 11
80.1027419475
 21
29.9997971447
  0
LINE
  5
400
100
AcDbEntity
  8
0
100
AcDbLine
 62
7
  6
CONTINUOUS
 10
80.1027419475
 20
13.1997971447
 11
80.1027419475
 21
27.9997971447
  0
LINE
  5
401
100
AcDbEntity
  8
02___PRT_ALL_AXES
100
AcDbLine
 62
7
  6
CONTINUOUS
 10
80.1027419475
 20
45.3997971447
 11
80.1027419475
 21
48.3997971447
  0
LINE
  5
402
100
AcDbEntity
  8
0
100
AcDbLine
 62
7
  6
CONTINUOUS
 10
48.1027419475
 20
20.2497971447
 11
47.9027419475
 21
20.0497971447
  0
LINE
  5
403
100
AcDbEntity
  8
0
100
AcDbLine
 62
7
  6
CONTINUOUS
 10
79.8027419475
 20
45.0997971447
 11
79.5027419475
 21
44.7997971447
  0
LINE
  5
404
100
AcDbEntity
  8
0
100
AcDbLine
 62
7
  6
CONTINUOUS
 10
79.5027419475
 20
13.1997971447
 11
79.8027419475
 21
12.8997971447
  0
LINE
  5
405
100
AcDbEntity
  8
0
100
AcDbLine
 62
7
  6
CONTINUOUS
 10
50.7027419475
 20
44.7997971447
 11
50.4027419475
 21
45.0997971447
  0
LINE
  5
406
100
AcDbEntity
  8
0
100
AcDbLine
 62
7
  6
CONTINUOUS
 10
82.1027419475
 20
36.4997971447
 11
82.1027419475
 21
21.4997971447
  0
LINE
  5
407
100
AcDbEntity
  8
0
100
AcDbLine
 62
7
  6
CONTINUOUS
 10
50.4027419475
 20
12.8997971447
 11
50.7027419475
 21
13.1997971447
  0
LINE
  5
408
100
AcDbEntity
  8
0
100
AcDbLine
 62
7
  6
CONTINUOUS
 10
80.1027419475
 20
29.9997971447
 11
79.5027419475
 21
29.3997971447
  0
LINE
  5
409
100
AcDbEntity
  8
0
100
AcDbLine
 62
7
  6
CONTINUOUS
 10
79.5027419475
 20
27.9997971447
 11
79.8027419475
 21
28.2997971447
  0
LINE
  5
40A
100
AcDbEntity
  8
0
100
AcDbLine
 62
7
  6
CONTINUOUS
 10
80.1027419475
 20
27.9997971447
 11
79.5027419475
 21
28.5997971447
  0
LINE
  5
40B
100
AcDbEntity
  8
0
100
AcDbLine
 62
7
  6
CONTINUOUS
 10
79.5027419475
 20
29.9997971447
 11
79.8027419475
 21
29.6997971447
  0
LINE
  5
40C
100
AcDbEntity
  8
02___PRT_ALL_AXES
100
AcDbLine
 62
7
  6
CONTINUOUS
 10
96.3059577954
 20
24.2997971447
 11
96.3059577954
 21
33.6997971447
  0
LINE
  5
40D
100
AcDbEntity
  8
02___PRT_ALL_AXES
100
AcDbLine
 62
7
  6
CONTINUOUS
 10
220.1687591254
 20
23.9997971447
 11
216.6687591254
 21
23.3497971447
  0
LINE
  5
40E
100
AcDbEntity
  8
02___PRT_ALL_AXES
100
AcDbLine
 62
7
  6
CONTINUOUS
 10
22.1027419475
 20
23.9997971447
 11
25.6027419475
 21
23.3497971447
  0
LINE
  5
40F
100
AcDbEntity
  8
02___PRT_ALL_AXES
100
AcDbLine
 62
7
  6
CONTINUOUS
 10
103.3059577954
 20
24.2997971447
 11
103.3059577954
 21
33.6997971447
  0
LINE
  5
410
100
AcDbEntity
  8
0
100
AcDbLine
 62
7
  6
CONTINUOUS
 10
79.5027419475
 20
12.5997971447
 11
80.1027419475
 21
13.1997971447
  0
LINE
  5
411
100
AcDbEntity
  8
0
100
AcDbLine
 62
7
  6
CONTINUOUS
 10
191.5687591254
 20
12.5997971447
 11
162.7687591254
 21
12.5997971447
  0
LINE
  5
412
100
AcDbEntity
  8
0
100
AcDbLine
 62
7
  6
CONTINUOUS
 10
79.5027419475
 20
12.5997971447
 11
50.7027419475
 21
12.5997971447
  0
LINE
  5
413
100
AcDbEntity
  8
0
100
AcDbLine
 62
7
  6
CONTINUOUS
 10
191.5687591254
 20
13.1997971447
 11
162.7687591254
 21
13.1997971447
  0
LINE
  5
414
100
AcDbEntity
  8
0
100
AcDbLine
 62
7
  6
CONTINUOUS
 10
79.5027419475
 20
13.1997971447
 11
50.7027419475
 21
13.1997971447
  0
LINE
  5
415
100
AcDbEntity
  8
0
100
AcDbLine
 62
7
  6
CONTINUOUS
 10
79.5027419475
 20
45.3997971447
 11
80.1027419475
 21
44.7997971447
  0
LINE
  5
416
100
AcDbEntity
  8
02___PRT_ALL_AXES
100
AcDbLine
 62
7
  6
CONTINUOUS
 10
204.8687591254
 20
20.0497971447
 11
194.3687591254
 21
20.0497971447
  0
LINE
  5
417
100
AcDbEntity
  8
02___PRT_ALL_AXES
100
AcDbLine
 62
7
  6
CONTINUOUS
 10
37.4027419475
 20
20.0497971447
 11
47.9027419475
 21
20.0497971447
  0
LINE
  5
418
100
AcDbEntity
  8
02___PRT_ALL_AXES
100
AcDbLine
 62
7
  6
CONTINUOUS
 10
212.4687591254
 20
20.9997971447
 11
205.0687591254
 21
20.9997971447
  0
LINE
  5
419
100
AcDbEntity
  8
02___PRT_ALL_AXES
100
AcDbLine
 62
7
  6
CONTINUOUS
 10
29.8027419475
 20
20.9997971447
 11
37.2027419475
 21
20.9997971447
  0
LINE
  5
41A
100
AcDbEntity
  8
0
100
AcDbLine
 62
7
  6
CONTINUOUS
 10
48.1027419475
 20
21.4997971447
 11
50.1027419475
 21
21.4997971447
  0
LINE
  5
41B
100
AcDbEntity
  8
0
100
AcDbLine
 62
7
  6
CONTINUOUS
 10
80.1027419475
 20
21.4997971447
 11
162.1687591254
 21
21.4997971447
  0
LINE
  5
41C
100
AcDbEntity
  8
0
100
AcDbLine
 62
7
  6
CONTINUOUS
 10
192.1687591254
 20
21.4997971447
 11
194.1687591254
 21
21.4997971447
  0
LINE
  5
41D
100
AcDbEntity
  8
02___PRT_ALL_AXES
100
AcDbLine
 62
7
  6
CONTINUOUS
 10
216.6687591254
 20
23.7497971447
 11
212.6687591254
 21
23.7497971447
  0
LINE
  5
41E
100
AcDbEntity
  8
02___PRT_ALL_AXES
100
AcDbLine
 62
7
  6
CONTINUOUS
 10
25.6027419475
 20
23.7497971447
 11
29.6027419475
 21
23.7497971447
  0
LINE
  5
41F
100
AcDbEntity
  8
02___PRT_ALL_AXES
100
AcDbLine
 62
7
  6
CONTINUOUS
 10
103.3059577954
 20
24.2997971447
 11
96.3059577954
 21
24.2997971447
  0
LINE
  5
420
100
AcDbEntity
  8
02___PRT_ALL_AXES
100
AcDbLine
 62
7
  6
CONTINUOUS
 10
137.9046185779
 20
24.9997971447
 11
103.3059577954
 21
24.9997971447
  0
LINE
  5
421
100
AcDbEntity
  8
0
100
AcDbLine
 62
7
  6
CONTINUOUS
 10
50.7027419475
 20
27.9997971447
 11
79.5027419475
 21
27.9997971447
  0
LINE
  5
422
100
AcDbEntity
  8
0
100
AcDbLine
 62
7
  6
CONTINUOUS
 10
162.7687591254
 20
27.9997971447
 11
191.5687591254
 21
27.9997971447
  0
LINE
  5
423
100
AcDbEntity
  8
0
100
AcDbLine
 62
7
  6
CONTINUOUS
 10
50.7027419475
 20
28.5997971447
 11
79.5027419475
 21
28.5997971447
  0
LINE
  5
424
100
AcDbEntity
  8
0
100
AcDbLine
 62
7
  6
CONTINUOUS
 10
162.7687591254
 20
28.5997971447
 11
191.5687591254
 21
28.5997971447
  0
LINE
  5
425
100
AcDbEntity
  8
02___PRT_ALL_AXES
100
AcDbLine
 62
7
  6
CENTER
 10
17.6762155443
 20
28.9997971447
 11
224.4525355443
 21
28.9997971447
  0
LINE
  5
426
100
AcDbEntity
  8
0
100
AcDbLine
 62
7
  6
CONTINUOUS
 10
191.5687591254
 20
29.3997971447
 11
162.7687591254
 21
29.3997971447
  0
LINE
  5
427
100
AcDbEntity
  8
0
100
AcDbLine
 62
7
  6
CONTINUOUS
 10
79.5027419475
 20
29.3997971447
 11
50.7027419475
 21
29.3997971447
  0
LINE
  5
428
100
AcDbEntity
  8
0
100
AcDbLine
 62
7
  6
CONTINUOUS
 10
191.5687591254
 20
29.9997971447
 11
162.7687591254
 21
29.9997971447
  0
LINE
  5
429
100
AcDbEntity
  8
0
100
AcDbLine
 62
7
  6
CONTINUOUS
 10
79.5027419475
 20
29.9997971447
 11
50.7027419475
 21
29.9997971447
  0
LINE
  5
42A
100
AcDbEntity
  8
02___PRT_ALL_AXES
100
AcDbLine
 62
7
  6
CONTINUOUS
 10
137.9046207805
 20
32.9997971447
 11
103.3059577954
 21
32.9997971447
  0
LINE
  5
42B
100
AcDbEntity
  8
02___PRT_ALL_AXES
100
AcDbLine
 62
7
  6
CONTINUOUS
 10
103.3059577954
 20
33.6997971447
 11
96.3059577954
 21
33.6997971447
  0
LINE
  5
42C
100
AcDbEntity
  8
02___PRT_ALL_AXES
100
AcDbLine
 62
7
  6
CONTINUOUS
 10
216.6687591254
 20
34.2497971447
 11
212.6687591254
 21
34.2497971447
  0
LINE
  5
42D
100
AcDbEntity
  8
02___PRT_ALL_AXES
100
AcDbLine
 62
7
  6
CONTINUOUS
 10
25.6027419475
 20
34.2497971447
 11
29.6027419475
 21
34.2497971447
  0
LINE
  5
42E
100
AcDbEntity
  8
0
100
AcDbLine
 62
7
  6
CONTINUOUS
 10
48.1027419475
 20
36.4997971447
 11
50.1027419475
 21
36.4997971447
  0
LINE
  5
42F
100
AcDbEntity
  8
0
100
AcDbLine
 62
7
  6
CONTINUOUS
 10
80.1027419475
 20
36.4997971447
 11
162.1687591254
 21
36.4997971447
  0
LINE
  5
430
100
AcDbEntity
  8
0
100
AcDbLine
 62
7
  6
CONTINUOUS
 10
192.1687591254
 20
36.4997971447
 11
194.1687591254
 21
36.4997971447
  0
LINE
  5
431
100
AcDbEntity
  8
02___PRT_ALL_AXES
100
AcDbLine
 62
7
  6
CONTINUOUS
 10
212.4687591254
 20
36.9997971447
 11
205.0687591254
 21
36.9997971447
  0
LINE
  5
432
100
AcDbEntity
  8
02___PRT_ALL_AXES
100
AcDbLine
 62
7
  6
CONTINUOUS
 10
29.8027419475
 20
36.9997971447
 11
37.2027419475
 21
36.9997971447
  0
LINE
  5
433
100
AcDbEntity
  8
02___PRT_ALL_AXES
100
AcDbLine
 62
7
  6
CONTINUOUS
 10
204.8687591254
 20
37.9497971447
 11
194.3687591254
 21
37.9497971447
  0
LINE
  5
434
100
AcDbEntity
  8
02___PRT_ALL_AXES
100
AcDbLine
 62
7
  6
CONTINUOUS
 10
37.4027419475
 20
37.9497971447
 11
47.9027419475
 21
37.9497971447
  0
LINE
  5
435
100
AcDbEntity
  8
0
100
AcDbLine
 62
7
  6
CONTINUOUS
 10
50.7027419475
 20
44.7997971447
 11
79.5027419475
 21
44.7997971447
  0
LINE
  5
436
100
AcDbEntity
  8
0
100
AcDbLine
 62
7
  6
CONTINUOUS
 10
162.7687591254
 20
44.7997971447
 11
191.5687591254
 21
44.7997971447
  0
LINE
  5
437
100
AcDbEntity
  8
0
100
AcDbLine
 62
7
  6
CONTINUOUS
 10
162.1687591254
 20
44.7997971447
 11
162.7687591254
 21
45.3997971447
  0
LINE
  5
438
100
AcDbEntity
  8
02___PRT_ALL_AXES
100
AcDbLine
 62
7
  6
CONTINUOUS
 10
50.1027419475
 20
45.3997971447
 11
80.1027419475
 21
45.3997971447
  0
LINE
  5
439
100
AcDbEntity
  8
02___PRT_ALL_AXES
100
AcDbLine
 62
7
  6
CONTINUOUS
 10
162.1687591254
 20
45.3997971447
 11
192.1687591254
 21
45.3997971447
  0
LINE
  5
43A
100
AcDbEntity
  8
02___PRT_ALL_AXES
100
AcDbLine
 62
7
  6
CONTINUOUS
 10
50.1027419475
 20
48.3997971447
 11
80.1027419475
 21
48.3997971447
  0
LINE
  5
43B
100
AcDbEntity
  8
02___PRT_ALL_AXES
100
AcDbLine
 62
7
  6
CONTINUOUS
 10
162.1687591254
 20
48.3997971447
 11
192.1687591254
 21
48.3997971447
  0
LINE
  5
43C
100
AcDbEntity
  8
0
100
AcDbLine
 62
7
  6
CONTINUOUS
 10
162.1687591254
 20
13.1997971447
 11
162.7687591254
 21
12.5997971447
  0
LINE
  5
43D
100
AcDbEntity
  8
02___PRT_ALL_AXES
100
AcDbLine
 62
7
  6
CONTINUOUS
 10
22.1027419475
 20
33.9997971447
 11
25.6027419475
 21
34.6497971447
  0
LINE
  5
43E
100
AcDbEntity
  8
02___PRT_ALL_AXES
100
AcDbLine
 62
7
  6
CONTINUOUS
 10
220.1687591254
 20
33.9997971447
 11
216.6687591254
 21
34.6497971447
  0
LINE
  5
43F
100
AcDbEntity
  8
0
100
AcDbLine
 62
7
  6
CONTINUOUS
 10
162.7687591254
 20
27.9997971447
 11
162.4687591254
 21
28.2997971447
  0
LINE
  5
440
100
AcDbEntity
  8
0
100
AcDbLine
 62
7
  6
CONTINUOUS
 10
162.4687591254
 20
29.6997971447
 11
162.7687591254
 21
29.9997971447
  0
LINE
  5
441
100
AcDbEntity
  8
0
100
AcDbLine
 62
7
  6
CONTINUOUS
 10
162.1687591254
 20
27.9997971447
 11
162.7687591254
 21
28.5997971447
  0
LINE
  5
442
100
AcDbEntity
  8
0
100
AcDbLine
 62
7
  6
CONTINUOUS
 10
162.1687591254
 20
29.9997971447
 11
162.7687591254
 21
29.3997971447
  0
LINE
  5
443
100
AcDbEntity
  8
0
100
AcDbLine
 62
7
  6
CONTINUOUS
 10
160.1687591254
 20
36.4997971447
 11
160.1687591254
 21
21.4997971447
  0
LINE
  5
444
100
AcDbEntity
  8
0
100
AcDbLine
 62
7
  6
CONTINUOUS
 10
162.1687591254
 20
44.7997971447
 11
162.1687591254
 21
29.9997971447
  0
LINE
  5
445
100
AcDbEntity
  8
0
100
AcDbLine
 62
7
  6
CONTINUOUS
 10
162.1687591254
 20
13.1997971447
 11
162.1687591254
 21
27.9997971447
  0
LINE
  5
446
100
AcDbEntity
  8
02___PRT_ALL_AXES
100
AcDbLine
 62
7
  6
CONTINUOUS
 10
162.1687591254
 20
45.3997971447
 11
162.1687591254
 21
48.3997971447
  0
LINE
  5
447
100
AcDbEntity
  8
0
100
AcDbLine
 62
7
  6
CONTINUOUS
 10
191.8687591254
 20
45.0997971447
 11
191.5687591254
 21
44.7997971447
  0
LINE
  5
448
100
AcDbEntity
  8
0
100
AcDbLine
 62
7
  6
CONTINUOUS
 10
191.5687591254
 20
13.1997971447
 11
191.8687591254
 21
12.8997971447
  0
LINE
  5
449
100
AcDbEntity
  8
0
100
AcDbLine
 62
7
  6
CONTINUOUS
 10
162.7687591254
 20
44.7997971447
 11
162.4687591254
 21
45.0997971447
  0
LINE
  5
44A
100
AcDbEntity
  8
0
100
AcDbLine
 62
7
  6
CONTINUOUS
 10
162.7687591254
 20
44.7997971447
 11
162.7687591254
 21
29.9997971447
  0
LINE
  5
44B
100
AcDbEntity
  8
0
100
AcDbLine
 62
7
  6
CONTINUOUS
 10
162.7687591254
 20
13.1997971447
 11
162.7687591254
 21
27.9997971447
  0
LINE
  5
44C
100
AcDbEntity
  8
0
100
AcDbLine
 62
7
  6
CONTINUOUS
 10
162.4687591254
 20
12.8997971447
 11
162.7687591254
 21
13.1997971447
  0
LINE
  5
44D
100
AcDbEntity
  8
0
100
AcDbLine
 62
7
  6
CONTINUOUS
 10
194.1687591254
 20
37.7497971447
 11
194.3687591254
 21
37.9497971447
  0
LINE
  5
44E
100
AcDbEntity
  8
0
100
AcDbLine
 62
7
  6
CONTINUOUS
 10
194.1687591254
 20
20.2497971447
 11
194.3687591254
 21
20.0497971447
  0
LINE
  5
44F
100
AcDbEntity
  8
0
100
AcDbLine
 62
7
  6
CONTINUOUS
 10
192.1687591254
 20
29.9997971447
 11
191.5687591254
 21
29.3997971447
  0
LINE
  5
450
100
AcDbEntity
  8
0
100
AcDbLine
 62
7
  6
CONTINUOUS
 10
191.5687591254
 20
27.9997971447
 11
191.8687591254
 21
28.2997971447
  0
LINE
  5
451
100
AcDbEntity
  8
0
100
AcDbLine
 62
7
  6
CONTINUOUS
 10
192.1687591254
 20
27.9997971447
 11
191.5687591254
 21
28.5997971447
  0
LINE
  5
452
100
AcDbEntity
  8
0
100
AcDbLine
 62
7
  6
CONTINUOUS
 10
191.5687591254
 20
29.9997971447
 11
191.8687591254
 21
29.6997971447
  0
LINE
  5
453
100
AcDbEntity
  8
0
100
AcDbLine
 62
7
  6
CONTINUOUS
 10
191.5687591254
 20
45.3997971447
 11
192.1687591254
 21
44.7997971447
  0
LINE
  5
454
100
AcDbEntity
  8
0
100
AcDbLine
 62
7
  6
CONTINUOUS
 10
191.5687591254
 20
12.5997971447
 11
192.1687591254
 21
13.1997971447
  0
LINE
  5
455
100
AcDbEntity
  8
0
100
AcDbLine
 62
7
  6
CONTINUOUS
 10
205.0687591254
 20
20.2497971447
 11
204.8687591254
 21
20.0497971447
  0
LINE
  5
456
100
AcDbEntity
  8
0
100
AcDbLine
 62
7
  6
CONTINUOUS
 10
205.0687591254
 20
37.7497971447
 11
204.8687591254
 21
37.9497971447
  0
LINE
  5
457
100
AcDbEntity
  8
0
100
AcDbLine
 62
7
  6
CONTINUOUS
 10
191.5687591254
 20
44.7997971447
 11
191.5687591254
 21
29.9997971447
  0
LINE
  5
458
100
AcDbEntity
  8
0
100
AcDbLine
 62
7
  6
CONTINUOUS
 10
191.5687591254
 20
13.1997971447
 11
191.5687591254
 21
27.9997971447
  0
LINE
  5
459
100
AcDbEntity
  8
0
100
AcDbLine
 62
7
  6
CONTINUOUS
 10
192.1687591254
 20
44.7997971447
 11
192.1687591254
 21
29.9997971447
  0
LINE
  5
45A
100
AcDbEntity
  8
0
100
AcDbLine
 62
7
  6
CONTINUOUS
 10
192.1687591254
 20
13.1997971447
 11
192.1687591254
 21
27.9997971447
  0
LINE
  5
45B
100
AcDbEntity
  8
02___PRT_ALL_AXES
100
AcDbLine
 62
7
  6
CONTINUOUS
 10
192.1687591254
 20
45.3997971447
 11
192.1687591254
 21
48.3997971447
  0
LINE
  5
45C
100
AcDbEntity
  8
0
100
AcDbLine
 62
7
  6
CONTINUOUS
 10
194.1687591254
 20
20.2498996843
 11
194.1687591254
 21
37.7496946051
  0
LINE
  5
45D
100
AcDbEntity
  8
0
100
AcDbLine
 62
7
  6
CONTINUOUS
 10
194.3687591254
 20
20.0497971447
 11
194.3687591254
 21
37.9497971447
  0
LINE
  5
45E
100
AcDbEntity
  8
0
100
AcDbLine
 62
7
  6
CONTINUOUS
 10
212.6687591254
 20
21.1997971447
 11
212.4687591254
 21
20.9997971447
  0
LINE
  5
45F
100
AcDbEntity
  8
0
100
AcDbLine
 62
7
  6
CONTINUOUS
 10
212.6687591254
 20
36.7997971447
 11
212.4687591254
 21
36.9997971447
  0
LINE
  5
460
100
AcDbEntity
  8
0
100
AcDbLine
 62
7
  6
CONTINUOUS
 10
204.8687591254
 20
20.0497971447
 11
204.8687591254
 21
37.9497971447
  0
LINE
  5
461
100
AcDbEntity
  8
0
100
AcDbLine
 62
7
  6
CONTINUOUS
 10
205.0687591254
 20
20.2498996844
 11
205.0687591254
 21
37.7496946051
  0
LINE
  5
462
100
AcDbEntity
  8
0
100
AcDbLine
 62
7
  6
CONTINUOUS
 10
212.4687591254
 20
20.9997971447
 11
212.4687591254
 21
36.9997971447
  0
LINE
  5
463
100
AcDbEntity
  8
0
100
AcDbLine
 62
7
  6
CONTINUOUS
 10
212.6687591254
 20
21.1998885335
 11
212.6687591254
 21
36.799705756
  0
LINE
  5
464
100
AcDbEntity
  8
02___PRT_ALL_AXES
100
AcDbLine
 62
7
  6
CONTINUOUS
 10
216.6687591254
 20
23.3498958989
 11
216.6687591254
 21
34.6496983906
  0
LINE
  5
465
100
AcDbEntity
  8
02___PRT_ALL_AXES
100
AcDbLine
 62
7
  6
CONTINUOUS
 10
220.1687591254
 20
23.9997971447
 11
220.1687591254
 21
33.9997971447
  0
LINE
  5
466
100
AcDbEntity
  8
02___PRT_ALL_AXES
100
AcDbLine
 62
7
  6
CONTINUOUS
 10
184.0805806934
 20
95.5154221447
 11
184.0805806934
 21
105.5154221447
  0
LINE
  5
467
100
AcDbEntity
  8
02___PRT_ALL_AXES
100
AcDbLine
 62
7
  6
CONTINUOUS
 10
187.5805806934
 20
94.8654221447
 11
187.5805806934
 21
106.1654221447
  0
LINE
  5
468
100
AcDbEntity
  8
0
100
AcDbLine
 62
7
  6
CONTINUOUS
 10
191.5805806934
 20
108.3154221447
 11
191.5805806934
 21
92.7154221447
  0
LINE
  5
469
100
AcDbEntity
  8
0
100
AcDbLine
 62
7
  6
CONTINUOUS
 10
191.7805806934
 20
108.5154221447
 11
191.7805806934
 21
92.5154221447
  0
LINE
  5
46A
100
AcDbEntity
  8
0
100
AcDbLine
 62
7
  6
CONTINUOUS
 10
199.1805806934
 20
109.2654221447
 11
199.1805806934
 21
91.7654221447
  0
LINE
  5
46B
100
AcDbEntity
  8
0
100
AcDbLine
 62
7
  6
CONTINUOUS
 10
199.3805806934
 20
109.4654221447
 11
199.3805806934
 21
91.5654221447
  0
LINE
  5
46C
100
AcDbEntity
  8
0
100
AcDbLine
 62
7
  6
CONTINUOUS
 10
191.5805806933
 20
92.7154221448
 11
191.7805806933
 21
92.5154221448
  0
LINE
  5
46D
100
AcDbEntity
  8
0
100
AcDbLine
 62
7
  6
CONTINUOUS
 10
199.1805806933
 20
91.7654221448
 11
199.3805806933
 21
91.5654221448
  0
LINE
  5
46E
100
AcDbEntity
  8
0
100
AcDbLine
 62
7
  6
CONTINUOUS
 10
212.0805806934
 20
80.6154221447
 11
212.6805806934
 21
80.0154221447
  0
LINE
  5
46F
100
AcDbEntity
  8
0
100
AcDbLine
 62
7
  6
CONTINUOUS
 10
209.8805806934
 20
109.4654221447
 11
209.8805806934
 21
91.5654221447
  0
LINE
  5
470
100
AcDbEntity
  8
0
100
AcDbLine
 62
7
  6
CONTINUOUS
 10
210.0805806934
 20
109.2654221447
 11
210.0805806934
 21
91.7654221447
  0
LINE
  5
471
100
AcDbEntity
  8
0
100
AcDbLine
 62
7
  6
CONTINUOUS
 10
212.0805806934
 20
120.4154221447
 11
212.0805806934
 21
80.6154221447
  0
LINE
  5
472
100
AcDbEntity
  8
02___PRT_ALL_AXES
100
AcDbLine
 62
7
  6
CONTINUOUS
 10
212.0805806934
 20
65.5154221447
 11
212.0805806934
 21
80.6154221447
  0
LINE
  5
473
100
AcDbEntity
  8
02___PRT_ALL_AXES
100
AcDbLine
 62
7
  6
CONTINUOUS
 10
212.0805806934
 20
120.4154221447
 11
212.0805806934
 21
135.5154221447
  0
LINE
  5
474
100
AcDbEntity
  8
0
100
AcDbLine
 62
7
  6
CONTINUOUS
 10
212.6805806934
 20
120.4154221447
 11
212.6805806934
 21
80.6154221447
  0
LINE
  5
475
100
AcDbEntity
  8
0
100
AcDbLine
 62
7
  6
CONTINUOUS
 10
210.0805806936
 20
109.2654221445
 11
209.8805806936
 21
109.4654221445
  0
LINE
  5
476
100
AcDbEntity
  8
02___PRT_ALL_AXES
100
AcDbLine
 62
7
  6
CENTER
 10
227.0805806934
 20
128.5154221447
 11
227.0805806934
 21
121.0154221447
  0
LINE
  5
477
100
AcDbEntity
  8
02___PRT_ALL_AXES
100
AcDbLine
 62
7
  6
CENTER
 10
227.0805806934
 20
113.3654221447
 11
227.0805806934
 21
109.3653221447
  0
LINE
  5
478
100
AcDbEntity
  8
02___PRT_ALL_AXES
100
AcDbLine
 62
7
  6
CENTER
 10
227.0805806934
 20
87.6654221447
 11
227.0805806934
 21
83.6653221447
  0
LINE
  5
479
100
AcDbEntity
  8
02___PRT_ALL_AXES
100
AcDbLine
 62
7
  6
CENTER
 10
227.0805806934
 20
72.5154221447
 11
227.0805806934
 21
65.0154221447
  0
LINE
  5
47A
100
AcDbEntity
  8
02___PRT_ALL_AXES
100
AcDbLine
 62
7
  6
CENTER
 10
227.0805806934
 20
72.5154221447
 11
227.0805806934
 21
80.0154221447
  0
LINE
  5
47B
100
AcDbEntity
  8
02___PRT_ALL_AXES
100
AcDbLine
 62
7
  6
CENTER
 10
227.0805806934
 20
87.6654221447
 11
227.0805806934
 21
91.6655221447
  0
LINE
  5
47C
100
AcDbEntity
  8
02___PRT_ALL_AXES
100
AcDbLine
 62
7
  6
CENTER
 10
227.0805806934
 20
113.3654221447
 11
227.0805806934
 21
117.3655221447
  0
LINE
  5
47D
100
AcDbEntity
  8
02___PRT_ALL_AXES
100
AcDbLine
 62
7
  6
CENTER
 10
227.0805806934
 20
128.5154221447
 11
227.0805806934
 21
136.0154221447
  0
LINE
  5
47E
100
AcDbEntity
  8
0
100
AcDbLine
 62
7
  6
CONTINUOUS
 10
191.5805806933
 20
108.3154221446
 11
191.7805806933
 21
108.5154221446
  0
LINE
  5
47F
100
AcDbEntity
  8
02___PRT_ALL_AXES
100
AcDbLine
 62
7
  6
CONTINUOUS
 10
242.0805806934
 20
65.5154221447
 11
212.0805806934
 21
65.5154221447
  0
LINE
  5
480
100
AcDbEntity
  8
0
100
AcDbLine
 62
7
  6
CONTINUOUS
 10
241.4805806934
 20
80.6154221447
 11
241.7805806934
 21
80.3154221447
  0
LINE
  5
481
100
AcDbEntity
  8
0
100
AcDbLine
 62
7
  6
CONTINUOUS
 10
199.1805806933
 20
109.2654221446
 11
199.3805806933
 21
109.4654221446
  0
LINE
  5
482
100
AcDbEntity
  8
0
100
AcDbLine
 62
7
  6
CONTINUOUS
 10
212.0805806934
 20
120.4154221447
 11
212.6805806934
 21
121.0154221447
  0
LINE
  5
483
100
AcDbEntity
  8
02___PRT_ALL_AXES
100
AcDbLine
 62
7
  6
CENTER
 10
227.0805806934
 20
72.5154221447
 11
219.5805806934
 21
72.5154221447
  0
LINE
  5
484
100
AcDbEntity
  8
02___PRT_ALL_AXES
100
AcDbLine
 62
7
  6
CENTER
 10
227.0805806934
 20
72.5154221447
 11
234.5805806934
 21
72.5154221447
  0
LINE
  5
485
100
AcDbEntity
  8
02___PRT_ALL_AXES
100
AcDbLine
 62
7
  6
CONTINUOUS
 10
184.0805806934
 20
95.5154221447
 11
187.5805806934
 21
94.8654221447
  0
LINE
  5
486
100
AcDbEntity
  8
0
100
AcDbLine
 62
7
  6
CONTINUOUS
 10
212.6805806934
 20
120.4154221447
 11
212.3805806934
 21
120.7154221447
  0
LINE
  5
487
100
AcDbEntity
  8
0
100
AcDbLine
 62
7
  6
CONTINUOUS
 10
241.4805806934
 20
80.6154221447
 11
241.4805806934
 21
120.4154221447
  0
LINE
  5
488
100
AcDbEntity
  8
02___PRT_ALL_AXES
100
AcDbLine
 62
7
  6
CONTINUOUS
 10
242.0805806934
 20
135.5154221447
 11
242.0805806934
 21
120.4154221447
  0
LINE
  5
489
100
AcDbEntity
  8
02___PRT_ALL_AXES
100
AcDbLine
 62
7
  6
CONTINUOUS
 10
242.0805806934
 20
80.6154221447
 11
242.0805806934
 21
65.5154221447
  0
LINE
  5
48A
100
AcDbEntity
  8
0
100
AcDbLine
 62
7
  6
CONTINUOUS
 10
242.0805806934
 20
80.6154221447
 11
242.0805806934
 21
120.4154221447
  0
LINE
  5
48B
100
AcDbEntity
  8
0
100
AcDbLine
 62
7
  6
CONTINUOUS
 10
244.0805806934
 20
108.0154221447
 11
244.0805806934
 21
93.0154221447
  0
LINE
  5
48C
100
AcDbEntity
  8
0
100
AcDbLine
 62
7
  6
CONTINUOUS
 10
212.6805806934
 20
80.0154221447
 11
241.4805806934
 21
80.0154221447
  0
LINE
  5
48D
100
AcDbEntity
  8
0
100
AcDbLine
 62
7
  6
CONTINUOUS
 10
212.6805806934
 20
80.6154221447
 11
241.4805806934
 21
80.6154221447
  0
LINE
  5
48E
100
AcDbEntity
  8
02___PRT_ALL_AXES
100
AcDbLine
 62
7
  6
CENTER
 10
227.0805806934
 20
87.6654221447
 11
223.0804806934
 21
87.6654221447
  0
LINE
  5
48F
100
AcDbEntity
  8
02___PRT_ALL_AXES
100
AcDbLine
 62
7
  6
CENTER
 10
227.0805806934
 20
87.6654221447
 11
231.0806806934
 21
87.6654221447
  0
LINE
  5
490
100
AcDbEntity
  8
0
100
AcDbLine
 62
7
  6
CONTINUOUS
 10
199.3805806934
 20
91.5654221447
 11
209.8805806934
 21
91.5654221447
  0
LINE
  5
491
100
AcDbEntity
  8
02___PRT_ALL_AXES
100
AcDbLine
 62
7
  6
CONTINUOUS
 10
199.3805806934
 20
91.5654221447
 11
209.8805806934
 21
91.5654221447
  0
LINE
  5
492
100
AcDbEntity
  8
0
100
AcDbLine
 62
7
  6
CONTINUOUS
 10
191.7805806934
 20
92.5154221447
 11
199.1805806934
 21
92.5154221447
  0
LINE
  5
493
100
AcDbEntity
  8
02___PRT_ALL_AXES
100
AcDbLine
 62
7
  6
CONTINUOUS
 10
191.7805806934
 20
92.5154221447
 11
199.1805806934
 21
92.5154221447
  0
LINE
  5
494
100
AcDbEntity
  8
0
100
AcDbLine
 62
7
  6
CONTINUOUS
 10
210.0805806934
 20
93.0154221447
 11
212.0805806934
 21
93.0154221447
  0
LINE
  5
495
100
AcDbEntity
  8
0
100
AcDbLine
 62
7
  6
CONTINUOUS
 10
242.0805806934
 20
93.0154221447
 11
244.0805806934
 21
93.0154221447
  0
LINE
  5
496
100
AcDbEntity
  8
0
100
AcDbLine
 62
7
  6
CONTINUOUS
 10
241.4805806934
 20
121.0154221447
 11
242.0805806934
 21
120.4154221447
  0
LINE
  5
497
100
AcDbEntity
  8
02___PRT_ALL_AXES
100
AcDbLine
 62
7
  6
CONTINUOUS
 10
258.2837965413
 20
152.2154221447
 11
258.2837965413
 21
142.8154221447
  0
LINE
  5
498
100
AcDbEntity
  8
0
100
AcDbLine
 62
7
  6
CONTINUOUS
 10
210.0805806935
 20
91.7654221448
 11
209.8805806935
 21
91.5654221448
  0
LINE
  5
499
100
AcDbEntity
  8
0
100
AcDbLine
 62
7
  6
CONTINUOUS
 10
241.4805806934
 20
120.4154221447
 11
241.7805806934
 21
120.7154221447
  0
LINE
  5
49A
100
AcDbEntity
  8
02___PRT_ALL_AXES
100
AcDbLine
 62
7
  6
CONTINUOUS
 10
187.5805806934
 20
95.2654221447
 11
191.5805806934
 21
95.2654221447
  0
LINE
  5
49B
100
AcDbEntity
  8
02___PRT_ALL_AXES
100
AcDbLine
 62
7
  6
CENTER
 10
249.0805806934
 20
100.5154221447
 11
177.2784002277
 21
100.5154221447
  0
LINE
  5
49C
100
AcDbEntity
  8
02___PRT_ALL_AXES
100
AcDbLine
 62
7
  6
CONTINUOUS
 10
265.2837965413
 20
152.2154221447
 11
265.2837965413
 21
142.8154221447
  0
LINE
  5
49D
100
AcDbEntity
  8
0
100
AcDbLine
 62
7
  6
CONTINUOUS
 10
212.3805806934
 20
80.3154221447
 11
212.6805806934
 21
80.6154221447
  0
LINE
  5
49E
100
AcDbEntity
  8
02___PRT_ALL_AXES
100
AcDbLine
 62
7
  6
CONTINUOUS
 10
187.5805806934
 20
105.7654221447
 11
191.5805806934
 21
105.7654221447
  0
LINE
  5
49F
100
AcDbEntity
  8
0
100
AcDbLine
 62
7
  6
CONTINUOUS
 10
210.0805806934
 20
108.0154221447
 11
212.0805806934
 21
108.0154221447
  0
LINE
  5
4A0
100
AcDbEntity
  8
0
100
AcDbLine
 62
7
  6
CONTINUOUS
 10
242.0805806934
 20
108.0154221447
 11
244.0805806934
 21
108.0154221447
  0
LINE
  5
4A1
100
AcDbEntity
  8
0
100
AcDbLine
 62
7
  6
CONTINUOUS
 10
191.7805806934
 20
108.5154221447
 11
199.1805806934
 21
108.5154221447
  0
LINE
  5
4A2
100
AcDbEntity
  8
02___PRT_ALL_AXES
100
AcDbLine
 62
7
  6
CONTINUOUS
 10
191.7805806934
 20
108.5154221447
 11
199.1805806934
 21
108.5154221447
  0
LINE
  5
4A3
100
AcDbEntity
  8
0
100
AcDbLine
 62
7
  6
CONTINUOUS
 10
199.3805806934
 20
109.4654221447
 11
209.8805806934
 21
109.4654221447
  0
LINE
  5
4A4
100
AcDbEntity
  8
02___PRT_ALL_AXES
100
AcDbLine
 62
7
  6
CONTINUOUS
 10
199.3805806934
 20
109.4654221447
 11
209.8805806934
 21
109.4654221447
  0
LINE
  5
4A5
100
AcDbEntity
  8
0
100
AcDbLine
 62
7
  6
CONTINUOUS
 10
265.293784129
 20
116.8022187091
 11
275.9003858468
 21
106.1956169913
  0
LINE
  5
4A6
100
AcDbEntity
  8
0
100
AcDbLine
 62
7
  6
CONTINUOUS
 10
265.293784129
 20
116.8022187091
 11
289.5514687279
 21
141.059903308
  0
LINE
  5
4A7
100
AcDbEntity
  8
0
100
AcDbLine
 62
7
  6
CONTINUOUS
 10
289.5514687279
 20
141.059903308
 11
308.4871049029
 21
152.8922020126
  0
LINE
  5
4A8
100
AcDbEntity
  8
02___PRT_ALL_AXES
100
AcDbLine
 62
7
  6
CONTINUOUS
 10
354.1465978714
 20
112.5154221447
 11
324.1465978714
 21
112.5154221447
  0
LINE
  5
4A9
100
AcDbEntity
  8
02___PRT_ALL_AXES
100
AcDbLine
 62
7
  6
CENTER
 10
227.0805806934
 20
113.3654221447
 11
223.0804806934
 21
113.3654221447
  0
LINE
  5
4AA
100
AcDbEntity
  8
02___PRT_ALL_AXES
100
AcDbLine
 62
7
  6
CENTER
 10
227.0805806934
 20
113.3654221447
 11
231.0806806934
 21
113.3654221447
  0
LINE
  5
4AB
100
AcDbEntity
  8
0
100
AcDbLine
 62
7
  6
CONTINUOUS
 10
324.1465978714
 20
167.4154221447
 11
324.7465978714
 21
168.0154221447
  0
LINE
  5
4AC
100
AcDbEntity
  8
02___PRT_ALL_AXES
100
AcDbLine
 62
7
  6
CONTINUOUS
 10
184.0805806934
 20
105.5154221447
 11
187.5805806934
 21
106.1654221447
  0
LINE
  5
4AD
100
AcDbEntity
  8
02___PRT_ALL_AXES
100
AcDbLine
 62
7
  6
CONTINUOUS
 10
382.1465978714
 20
142.5154221447
 11
378.6465978714
 21
141.8654221447
  0
LINE
  5
4AE
100
AcDbEntity
  8
02___PRT_ALL_AXES
100
AcDbLine
 62
7
  6
CENTER
 10
339.1465978714
 20
119.5154221447
 11
331.6465978714
 21
119.5154221447
  0
LINE
  5
4AF
100
AcDbEntity
  8
02___PRT_ALL_AXES
100
AcDbLine
 62
7
  6
CENTER
 10
339.1465978714
 20
119.5154221447
 11
346.6465978714
 21
119.5154221447
  0
LINE
  5
4B0
100
AcDbEntity
  8
0
100
AcDbLine
 62
7
  6
CONTINUOUS
 10
241.4805806934
 20
120.4154221447
 11
212.6805806934
 21
120.4154221447
  0
LINE
  5
4B1
100
AcDbEntity
  8
0
100
AcDbLine
 62
7
  6
CONTINUOUS
 10
241.4805806934
 20
121.0154221447
 11
212.6805806934
 21
121.0154221447
  0
LINE
  5
4B2
100
AcDbEntity
  8
0
100
AcDbLine
 62
7
  6
CONTINUOUS
 10
242.0805806934
 20
80.6154221447
 11
241.4805806934
 21
80.0154221447
  0
LINE
  5
4B3
100
AcDbEntity
  8
0
100
AcDbLine
 62
7
  6
CONTINUOUS
 10
275.9003858468
 20
106.1956169913
 11
300.9333944358
 21
131.2286255803
  0
LINE
  5
4B4
100
AcDbEntity
  8
0
100
AcDbLine
 62
7
  6
CONTINUOUS
 10
324.7465978714
 20
127.0154221447
 11
353.5465978714
 21
127.0154221447
  0
LINE
  5
4B5
100
AcDbEntity
  8
0
100
AcDbLine
 62
7
  6
CONTINUOUS
 10
324.7465978714
 20
127.6154221447
 11
353.5465978714
 21
127.6154221447
  0
LINE
  5
4B6
100
AcDbEntity
  8
02___PRT_ALL_AXES
100
AcDbLine
 62
7
  6
CENTER
 10
227.0805806934
 20
128.5154221447
 11
219.5805806934
 21
128.5154221447
  0
LINE
  5
4B7
100
AcDbEntity
  8
02___PRT_ALL_AXES
100
AcDbLine
 62
7
  6
CENTER
 10
227.0805806934
 20
128.5154221447
 11
234.5805806934
 21
128.5154221447
  0
LINE
  5
4B8
100
AcDbEntity
  8
02___PRT_ALL_AXES
100
AcDbLine
 62
7
  6
CENTER
 10
339.1465978714
 20
134.6654221447
 11
335.1464978714
 21
134.6654221447
  0
LINE
  5
4B9
100
AcDbEntity
  8
02___PRT_ALL_AXES
100
AcDbLine
 62
7
  6
CENTER
 10
339.1465978714
 20
134.6654221447
 11
343.1466978714
 21
134.6654221447
  0
LINE
  5
4BA
100
AcDbEntity
  8
02___PRT_ALL_AXES
100
AcDbLine
 62
7
  6
CONTINUOUS
 10
212.0805806934
 20
135.5154221447
 11
242.0805806934
 21
135.5154221447
  0
LINE
  5
4BB
100
AcDbEntity
  8
0
100
AcDbLine
 62
7
  6
CONTINUOUS
 10
366.8465978714
 20
138.5654221447
 11
356.3465978714
 21
138.5654221447
  0
LINE
  5
4BC
100
AcDbEntity
  8
02___PRT_ALL_AXES
100
AcDbLine
 62
7
  6
CONTINUOUS
 10
366.8465978714
 20
138.5654221447
 11
356.3465978714
 21
138.5654221447
  0
LINE
  5
4BD
100
AcDbEntity
  8
0
100
AcDbLine
 62
7
  6
CONTINUOUS
 10
374.4465978714
 20
139.5154221447
 11
367.0465978714
 21
139.5154221447
  0
LINE
  5
4BE
100
AcDbEntity
  8
02___PRT_ALL_AXES
100
AcDbLine
 62
7
  6
CONTINUOUS
 10
374.4465978714
 20
139.5154221447
 11
367.0465978714
 21
139.5154221447
  0
LINE
  5
4BF
100
AcDbEntity
  8
0
100
AcDbLine
 62
7
  6
CONTINUOUS
 10
322.1465978714
 20
140.0154221447
 11
324.1465978714
 21
140.0154221447
  0
LINE
  5
4C0
100
AcDbEntity
  8
0
100
AcDbLine
 62
7
  6
CONTINUOUS
 10
354.1465978714
 20
140.0154221447
 11
356.1465978714
 21
140.0154221447
  0
LINE
  5
4C1
100
AcDbEntity
  8
0
100
AcDbLine
 62
7
  6
CONTINUOUS
 10
353.5465978714
 20
167.4154221447
 11
353.8465978714
 21
167.7154221447
  0
LINE
  5
4C2
100
AcDbEntity
  8
02___PRT_ALL_AXES
100
AcDbLine
 62
7
  6
CONTINUOUS
 10
378.6465978714
 20
142.2654221447
 11
374.6465978714
 21
142.2654221447
  0
LINE
  5
4C3
100
AcDbEntity
  8
02___PRT_ALL_AXES
100
AcDbLine
 62
7
  6
CONTINUOUS
 10
265.2837965413
 20
142.8154221447
 11
258.2837965413
 21
142.8154221447
  0
LINE
  5
4C4
100
AcDbEntity
  8
02___PRT_ALL_AXES
100
AcDbLine
 62
7
  6
CONTINUOUS
 10
293.481120309
 20
143.5154221447
 11
265.2837965413
 21
143.5154221447
  0
LINE
  5
4C5
100
AcDbEntity
  8
0
100
AcDbLine
 62
7
  6
CONTINUOUS
 10
293.481120309
 20
143.5154221447
 11
265.2837965413
 21
143.5154221447
  0
LINE
  5
4C6
100
AcDbEntity
  8
02___PRT_ALL_AXES
100
AcDbLine
 62
7
  6
CENTER
 10
384.2376002277
 20
147.5154221447
 11
256.2216002277
 21
147.5154221447
  0
LINE
  5
4C7
100
AcDbEntity
  8
0
100
AcDbLine
 62
7
  6
CONTINUOUS
 10
290.5057903651
 20
141.656229651
 11
300.9333944358
 21
131.2286255803
  0
LINE
  5
4C8
100
AcDbEntity
  8
0
100
AcDbLine
 62
7
  6
CONTINUOUS
 10
324.4465978714
 20
127.3154221447
 11
324.7465978714
 21
127.6154221447
  0
LINE
  5
4C9
100
AcDbEntity
  8
0
100
AcDbLine
 62
7
  6
CONTINUOUS
 10
356.1465978713
 20
156.2654221446
 11
356.3465978713
 21
156.4654221446
  0
LINE
  5
4CA
100
AcDbEntity
  8
02___PRT_ALL_AXES
100
AcDbLine
 62
7
  6
CONTINUOUS
 10
306.2837965413
 20
151.5154221447
 11
265.2837965413
 21
151.5154221447
  0
LINE
  5
4CB
100
AcDbEntity
  8
0
100
AcDbLine
 62
7
  6
CONTINUOUS
 10
306.2837965413
 20
151.5154221447
 11
265.2837965413
 21
151.5154221447
  0
LINE
  5
4CC
100
AcDbEntity
  8
02___PRT_ALL_AXES
100
AcDbLine
 62
7
  6
CONTINUOUS
 10
265.2837965413
 20
152.2154221447
 11
258.2837965413
 21
152.2154221447
  0
LINE
  5
4CD
100
AcDbEntity
  8
02___PRT_ALL_AXES
100
AcDbLine
 62
7
  6
CONTINUOUS
 10
378.6465978714
 20
152.7654221447
 11
374.6465978714
 21
152.7654221447
  0
LINE
  5
4CE
100
AcDbEntity
  8
0
100
AcDbLine
 62
7
  6
CONTINUOUS
 10
322.1465978714
 20
155.0154221447
 11
324.1465978714
 21
155.0154221447
  0
LINE
  5
4CF
100
AcDbEntity
  8
0
100
AcDbLine
 62
7
  6
CONTINUOUS
 10
354.1465978714
 20
155.0154221447
 11
356.1465978714
 21
155.0154221447
  0
LINE
  5
4D0
100
AcDbEntity
  8
0
100
AcDbLine
 62
7
  6
CONTINUOUS
 10
374.4465978714
 20
155.5154221447
 11
367.0465978714
 21
155.5154221447
  0
LINE
  5
4D1
100
AcDbEntity
  8
02___PRT_ALL_AXES
100
AcDbLine
 62
7
  6
CONTINUOUS
 10
374.4465978714
 20
155.5154221447
 11
367.0465978714
 21
155.5154221447
  0
LINE
  5
4D2
100
AcDbEntity
  8
0
100
AcDbLine
 62
7
  6
CONTINUOUS
 10
324.1465978714
 20
127.6154221447
 11
324.7465978714
 21
127.0154221447
  0
LINE
  5
4D3
100
AcDbEntity
  8
0
100
AcDbLine
 62
7
  6
CONTINUOUS
 10
322.1465978714
 20
155.0154221447
 11
322.1465978714
 21
140.0154221447
  0
LINE
  5
4D4
100
AcDbEntity
  8
0
100
AcDbLine
 62
7
  6
CONTINUOUS
 10
366.8465978714
 20
156.4654221447
 11
356.3465978714
 21
156.4654221447
  0
LINE
  5
4D5
100
AcDbEntity
  8
02___PRT_ALL_AXES
100
AcDbLine
 62
7
  6
CONTINUOUS
 10
366.8465978714
 20
156.4654221447
 11
356.3465978714
 21
156.4654221447
  0
LINE
  5
4D6
100
AcDbEntity
  8
02___PRT_ALL_AXES
100
AcDbLine
 62
7
  6
CENTER
 10
339.1465978714
 20
160.3654221447
 11
335.1464978714
 21
160.3654221447
  0
LINE
  5
4D7
100
AcDbEntity
  8
02___PRT_ALL_AXES
100
AcDbLine
 62
7
  6
CENTER
 10
339.1465978714
 20
160.3654221447
 11
343.1466978714
 21
160.3654221447
  0
LINE
  5
4D8
100
AcDbEntity
  8
0
100
AcDbLine
 62
7
  6
CONTINUOUS
 10
324.1465978714
 20
167.4154221447
 11
324.1465978714
 21
127.6154221447
  0
LINE
  5
4D9
100
AcDbEntity
  8
02___PRT_ALL_AXES
100
AcDbLine
 62
7
  6
CONTINUOUS
 10
324.1465978714
 20
112.5154221447
 11
324.1465978714
 21
127.6154221447
  0
LINE
  5
4DA
100
AcDbEntity
  8
02___PRT_ALL_AXES
100
AcDbLine
 62
7
  6
CONTINUOUS
 10
324.1465978714
 20
167.4154221447
 11
324.1465978714
 21
182.5154221447
  0
LINE
  5
4DB
100
AcDbEntity
  8
0
100
AcDbLine
 62
7
  6
CONTINUOUS
 10
324.7465978714
 20
167.4154221447
 11
324.7465978714
 21
127.6154221447
  0
LINE
  5
4DC
100
AcDbEntity
  8
0
100
AcDbLine
 62
7
  6
CONTINUOUS
 10
353.5465978714
 20
167.4154221447
 11
324.7465978714
 21
167.4154221447
  0
LINE
  5
4DD
100
AcDbEntity
  8
0
100
AcDbLine
 62
7
  6
CONTINUOUS
 10
353.5465978714
 20
168.0154221447
 11
324.7465978714
 21
168.0154221447
  0
LINE
  5
4DE
100
AcDbEntity
  8
02___PRT_ALL_AXES
100
AcDbLine
 62
7
  6
CONTINUOUS
 10
382.1465978714
 20
152.5154221447
 11
378.6465978714
 21
153.1654221447
  0
LINE
  5
4DF
100
AcDbEntity
  8
0
100
AcDbLine
 62
7
  6
CONTINUOUS
 10
354.1465978714
 20
127.6154221447
 11
353.5465978714
 21
127.0154221447
  0
LINE
  5
4E0
100
AcDbEntity
  8
0
100
AcDbLine
 62
7
  6
CONTINUOUS
 10
367.0465978715
 20
138.7654221448
 11
366.8465978715
 21
138.5654221448
  0
LINE
  5
4E1
100
AcDbEntity
  8
0
100
AcDbLine
 62
7
  6
CONTINUOUS
 10
374.6465978715
 20
139.7154221448
 11
374.4465978715
 21
139.5154221448
  0
LINE
  5
4E2
100
AcDbEntity
  8
02___PRT_ALL_AXES
100
AcDbLine
 62
7
  6
CENTER
 10
339.1465978714
 20
175.5154221447
 11
331.6465978714
 21
175.5154221447
  0
LINE
  5
4E3
100
AcDbEntity
  8
02___PRT_ALL_AXES
100
AcDbLine
 62
7
  6
CENTER
 10
339.1465978714
 20
175.5154221447
 11
346.6465978714
 21
175.5154221447
  0
LINE
  5
4E4
100
AcDbEntity
  8
0
100
AcDbLine
 62
7
  6
CONTINUOUS
 10
353.5465978714
 20
127.6154221447
 11
353.8465978714
 21
127.3154221447
  0
LINE
  5
4E5
100
AcDbEntity
  8
02___PRT_ALL_AXES
100
AcDbLine
 62
7
  6
CENTER
 10
339.1465978714
 20
175.5154221447
 11
339.1465978714
 21
168.0154221447
  0
LINE
  5
4E6
100
AcDbEntity
  8
02___PRT_ALL_AXES
100
AcDbLine
 62
7
  6
CENTER
 10
339.1465978714
 20
160.3654221447
 11
339.1465978714
 21
156.3653221447
  0
LINE
  5
4E7
100
AcDbEntity
  8
02___PRT_ALL_AXES
100
AcDbLine
 62
7
  6
CENTER
 10
339.1465978714
 20
134.6654221447
 11
339.1465978714
 21
130.6653221447
  0
LINE
  5
4E8
100
AcDbEntity
  8
02___PRT_ALL_AXES
100
AcDbLine
 62
7
  6
CENTER
 10
339.1465978714
 20
119.5154221447
 11
339.1465978714
 21
112.0154221447
  0
LINE
  5
4E9
100
AcDbEntity
  8
02___PRT_ALL_AXES
100
AcDbLine
 62
7
  6
CENTER
 10
339.1465978714
 20
119.5154221447
 11
339.1465978714
 21
127.0154221447
  0
LINE
  5
4EA
100
AcDbEntity
  8
02___PRT_ALL_AXES
100
AcDbLine
 62
7
  6
CENTER
 10
339.1465978714
 20
134.6654221447
 11
339.1465978714
 21
138.6655221447
  0
LINE
  5
4EB
100
AcDbEntity
  8
02___PRT_ALL_AXES
100
AcDbLine
 62
7
  6
CENTER
 10
339.1465978714
 20
160.3654221447
 11
339.1465978714
 21
164.3655221447
  0
LINE
  5
4EC
100
AcDbEntity
  8
02___PRT_ALL_AXES
100
AcDbLine
 62
7
  6
CENTER
 10
339.1465978714
 20
175.5154221447
 11
339.1465978714
 21
183.0154221447
  0
LINE
  5
4ED
100
AcDbEntity
  8
02___PRT_ALL_AXES
100
AcDbLine
 62
7
  6
CONTINUOUS
 10
324.1465978714
 20
182.5154221447
 11
354.1465978714
 21
182.5154221447
  0
LINE
  5
4EE
100
AcDbEntity
  8
0
100
AcDbLine
 62
7
  6
CONTINUOUS
 10
324.7465978714
 20
167.4154221447
 11
324.4465978714
 21
167.7154221447
  0
LINE
  5
4EF
100
AcDbEntity
  8
0
100
AcDbLine
 62
7
  6
CONTINUOUS
 10
356.1465978712
 20
138.7654221449
 11
356.3465978712
 21
138.5654221449
  0
LINE
  5
4F0
100
AcDbEntity
  8
0
100
AcDbLine
 62
7
  6
CONTINUOUS
 10
353.5465978714
 20
127.6154221447
 11
353.5465978714
 21
167.4154221447
  0
LINE
  5
4F1
100
AcDbEntity
  8
02___PRT_ALL_AXES
100
AcDbLine
 62
7
  6
CONTINUOUS
 10
354.1465978714
 20
182.5154221447
 11
354.1465978714
 21
167.4154221447
  0
LINE
  5
4F2
100
AcDbEntity
  8
02___PRT_ALL_AXES
100
AcDbLine
 62
7
  6
CONTINUOUS
 10
354.1465978714
 20
127.6154221447
 11
354.1465978714
 21
112.5154221447
  0
LINE
  5
4F3
100
AcDbEntity
  8
0
100
AcDbLine
 62
7
  6
CONTINUOUS
 10
354.1465978714
 20
127.6154221447
 11
354.1465978714
 21
167.4154221447
  0
LINE
  5
4F4
100
AcDbEntity
  8
0
100
AcDbLine
 62
7
  6
CONTINUOUS
 10
356.1465978714
 20
138.7654221447
 11
356.1465978714
 21
156.2654221447
  0
LINE
  5
4F5
100
AcDbEntity
  8
0
100
AcDbLine
 62
7
  6
CONTINUOUS
 10
356.3465978714
 20
138.5654221447
 11
356.3465978714
 21
156.4654221447
  0
LINE
  5
4F6
100
AcDbEntity
  8
0
100
AcDbLine
 62
7
  6
CONTINUOUS
 10
366.8465978714
 20
138.5654221447
 11
366.8465978714
 21
156.4654221447
  0
LINE
  5
4F7
100
AcDbEntity
  8
0
100
AcDbLine
 62
7
  6
CONTINUOUS
 10
367.0465978714
 20
138.7654221447
 11
367.0465978714
 21
156.2654221447
  0
LINE
  5
4F8
100
AcDbEntity
  8
0
100
AcDbLine
 62
7
  6
CONTINUOUS
 10
353.5465978714
 20
168.0154221447
 11
354.1465978714
 21
167.4154221447
  0
LINE
  5
4F9
100
AcDbEntity
  8
0
100
AcDbLine
 62
7
  6
CONTINUOUS
 10
367.0465978715
 20
156.2654221446
 11
366.8465978715
 21
156.4654221446
  0
LINE
  5
4FA
100
AcDbEntity
  8
0
100
AcDbLine
 62
7
  6
CONTINUOUS
 10
374.4465978714
 20
139.5154221447
 11
374.4465978714
 21
155.5154221447
  0
LINE
  5
4FB
100
AcDbEntity
  8
0
100
AcDbLine
 62
7
  6
CONTINUOUS
 10
374.6465978714
 20
139.7154221447
 11
374.6465978714
 21
155.3154221447
  0
LINE
  5
4FC
100
AcDbEntity
  8
0
100
AcDbLine
 62
7
  6
CONTINUOUS
 10
374.6465978715
 20
155.3154221446
 11
374.4465978715
 21
155.5154221446
  0
LINE
  5
4FD
100
AcDbEntity
  8
02___PRT_ALL_AXES
100
AcDbLine
 62
7
  6
CONTINUOUS
 10
378.6465978714
 20
153.1654221447
 11
378.6465978714
 21
141.8654221447
  0
LINE
  5
4FE
100
AcDbEntity
  8
02___PRT_ALL_AXES
100
AcDbLine
 62
7
  6
CONTINUOUS
 10
382.1465978714
 20
152.5154221447
 11
382.1465978714
 21
142.5154221447
  0
LINE
  5
4FF
100
AcDbEntity
  8
02___PRT_ALL_AXES
100
AcDbLine
 62
7
  6
CONTINUOUS
 10
258.3000903856
 20
12.2135386534
 11
257.1950647996
 21
12.6580352497
  0
LINE
  5
500
100
AcDbEntity
  8
0
100
AcDbLine
 62
7
  6
CONTINUOUS
 10
263.8759234904
 20
16.6709486919
 11
264.0897633297
 21
16.5435745199
  0
LINE
  5
501
100
AcDbEntity
  8
0
100
AcDbLine
 62
7
  6
CONTINUOUS
 10
264.6054419365
 20
16.336142775
 11
264.8192817757
 21
16.2087686031
  0
LINE
  5
502
100
AcDbEntity
  8
0
100
AcDbLine
 62
7
  6
CONTINUOUS
 10
270.2707413334
 20
14.0159187283
 11
264.8192817757
 21
16.2087686031
  0
LINE
  5
503
100
AcDbEntity
  8
0
100
AcDbLine
 62
7
  6
CONTINUOUS
 10
259.2138733328
 20
18.4635444246
 11
264.0825980517
 21
16.5050996673
  0
LINE
  5
504
100
AcDbEntity
  8
0
100
AcDbLine
 62
7
  6
CONTINUOUS
 10
270.0640667721
 20
14.1817677529
 11
264.6126072144
 21
16.3746176277
  0
LINE
  5
505
100
AcDbEntity
  8
0
100
AcDbLine
 62
7
  6
CONTINUOUS
 10
259.3052916711
 20
18.5094855656
 11
263.8759234904
 21
16.6709486919
  0
LINE
  5
506
100
AcDbEntity
  8
0
100
AcDbLine
 62
7
  6
CONTINUOUS
 10
270.0640667721
 20
14.1817677529
 11
270.2779066114
 21
14.054393581
  0
LINE
  5
507
100
AcDbEntity
  8
02___PRT_ALL_AXES
100
AcDbLine
 62
7
  6
CONTINUOUS
 10
257.1950647996
 20
12.6580352497
 11
257.1115764487
 21
18.4805763734
  0
LINE
  5
508
100
AcDbEntity
  8
02___PRT_ALL_AXES
100
AcDbLine
 62
7
  6
CONTINUOUS
 10
256.9969786804
 20
26.4727119384
 11
256.7471038786
 21
43.8991707645
  0
LINE
  5
509
100
AcDbEntity
  8
0
100
AcDbLine
 62
7
  6
CONTINUOUS
 10
258.1697661519
 20
36.6266156165
 11
258.1587612089
 21
36.8559219254
  0
LINE
  5
50A
100
AcDbEntity
  8
02___PRT_ALL_AXES
100
AcDbLine
 62
7
  6
CONTINUOUS
 10
258.3000903856
 20
12.2135386534
 11
258.2142881492
 21
18.1974519089
  0
LINE
  5
50B
100
AcDbEntity
  8
02___PRT_ALL_AXES
100
AcDbLine
 62
7
  6
CONTINUOUS
 10
258.0826209491
 20
27.3800226445
 11
257.8521294646
 21
43.4546741683
  0
LINE
  5
50C
100
AcDbEntity
  8
0
100
AcDbLine
 62
7
  6
CONTINUOUS
 10
258.2854558453
 20
27.4819547814
 11
258.1515959309
 21
36.8174470728
  0
LINE
  5
50D
100
AcDbEntity
  8
0
100
AcDbLine
 62
7
  6
CONTINUOUS
 10
258.300779351
 20
27.4896554173
 11
258.1697661519
 21
36.6266156165
  0
LINE
  5
50E
100
AcDbEntity
  8
0
100
AcDbLine
 62
7
  6
CONTINUOUS
 10
264.5944369935
 20
16.5654490839
 11
264.6054419365
 21
16.336142775
  0
LINE
  5
50F
100
AcDbEntity
  8
0
100
AcDbLine
 62
7
  6
CONTINUOUS
 10
263.8312258838
 20
34.5741727314
 11
263.8202209408
 21
34.8034790403
  0
LINE
  5
510
100
AcDbEntity
  8
0
100
AcDbLine
 62
7
  6
CONTINUOUS
 10
264.3579094336
 20
34.1374346775
 11
264.3469044906
 21
34.3667409864
  0
LINE
  5
511
100
AcDbEntity
  8
0
100
AcDbLine
 62
7
  6
CONTINUOUS
 10
263.6212257096
 20
34.4337657417
 11
263.6971356661
 21
29.1397476134
  0
LINE
  5
512
100
AcDbEntity
  8
0
100
AcDbLine
 62
7
  6
CONTINUOUS
 10
263.8246183201
 20
20.2490103122
 11
263.8759234904
 21
16.6709486919
  0
LINE
  5
513
100
AcDbEntity
  8
0
100
AcDbLine
 62
7
  6
CONTINUOUS
 10
264.0450657231
 20
34.4467985595
 11
264.1244871098
 21
28.9078906099
  0
LINE
  5
514
100
AcDbEntity
  8
0
100
AcDbLine
 62
7
  6
CONTINUOUS
 10
264.2456116182
 20
20.460575222
 11
264.2997635039
 21
16.6839815096
  0
LINE
  5
515
100
AcDbEntity
  8
0
100
AcDbLine
 62
7
  6
CONTINUOUS
 10
264.5944369935
 20
16.5654490839
 11
264.5364894874
 21
20.6067522525
  0
LINE
  5
516
100
AcDbEntity
  8
0
100
AcDbLine
 62
7
  6
CONTINUOUS
 10
264.4191605994
 20
28.7893581842
 11
264.3397392127
 21
34.3282661338
  0
LINE
  5
517
100
AcDbEntity
  8
0
100
AcDbLine
 62
7
  6
CONTINUOUS
 10
264.6126072144
 20
16.3746176277
 11
264.551812993
 21
20.6144528883
  0
LINE
  5
518
100
AcDbEntity
  8
0
100
AcDbLine
 62
7
  6
CONTINUOUS
 10
264.4338193901
 20
28.8434165492
 11
264.3579094336
 21
34.1374346775
  0
LINE
  5
519
100
AcDbEntity
  8
0
100
AcDbLine
 62
7
  6
CONTINUOUS
 10
258.1587612089
 20
36.8559219254
 11
258.1515959309
 21
36.8174470728
  0
LINE
  5
51A
100
AcDbEntity
  8
02___PRT_ALL_AXES
100
AcDbLine
 62
7
  6
CONTINUOUS
 10
294.3311617321
 20
83.913909446
 11
304.4729065452
 21
89.0105162959
  0
LINE
  5
51B
100
AcDbEntity
  8
02___PRT_ALL_AXES
100
AcDbLine
 62
7
  6
CONTINUOUS
 10
295.4361873181
 20
83.4694128498
 11
305.5779321312
 21
88.5660196996
  0
LINE
  5
51C
100
AcDbEntity
  8
02___PRT_ALL_AXES
100
AcDbLine
 62
7
  6
CONTINUOUS
 10
255.5249800561
 20
18.3247465492
 11
256.8217635889
 21
18.6174111119
  0
LINE
  5
51D
100
AcDbEntity
  8
0
100
AcDbLine
 62
7
  6
CONTINUOUS
 10
269.8093689913
 20
31.9445848027
 11
264.3579094336
 21
34.1374346775
  0
LINE
  5
51E
100
AcDbEntity
  8
0
100
AcDbLine
 62
7
  6
CONTINUOUS
 10
258.1697661519
 20
36.6266156165
 11
263.6212257096
 21
34.4337657417
  0
LINE
  5
51F
100
AcDbEntity
  8
0
100
AcDbLine
 62
7
  6
CONTINUOUS
 10
264.0450657231
 20
34.4467985595
 11
263.8312258838
 21
34.5741727314
  0
LINE
  5
520
100
AcDbEntity
  8
0
100
AcDbLine
 62
7
  6
CONTINUOUS
 10
270.2332090048
 20
31.9576176205
 11
270.0193691655
 21
32.0849917924
  0
LINE
  5
521
100
AcDbEntity
  8
0
100
AcDbLine
 62
7
  6
CONTINUOUS
 10
270.0083642225
 20
32.3142981013
 11
264.5569046648
 21
34.5071479761
  0
LINE
  5
522
100
AcDbEntity
  8
0
100
AcDbLine
 62
7
  6
CONTINUOUS
 10
258.3687613831
 20
36.9963289151
 11
263.8202209408
 21
34.8034790403
  0
LINE
  5
523
100
AcDbEntity
  8
0
100
AcDbLine
 62
7
  6
CONTINUOUS
 10
270.0193691655
 20
32.0849917924
 11
270.0083642225
 21
32.3142981013
  0
LINE
  5
524
100
AcDbEntity
  8
02___PRT_ALL_AXES
100
AcDbLine
 62
7
  6
CONTINUOUS
 10
267.9938742777
 20
48.5512810181
 11
268.0895128981
 21
41.8813708551
  0
LINE
  5
525
100
AcDbEntity
  8
0
100
AcDbLine
 62
7
  6
CONTINUOUS
 10
269.8093689913
 20
31.9445848027
 11
270.0640667721
 21
14.1817677529
  0
LINE
  5
526
100
AcDbEntity
  8
0
100
AcDbLine
 62
7
  6
CONTINUOUS
 10
270.2332090048
 20
31.9576176205
 11
270.4879067856
 21
14.1948005706
  0
LINE
  5
527
100
AcDbEntity
  8
0
100
AcDbLine
 62
7
  6
CONTINUOUS
 10
264.3469044906
 20
34.3667409864
 11
264.3397392127
 21
34.3282661338
  0
LINE
  5
528
100
AcDbEntity
  8
0
100
AcDbLine
 62
7
  6
CONTINUOUS
 10
264.0825980517
 20
16.5050996673
 11
264.0897633297
 21
16.5435745199
  0
LINE
  5
529
100
AcDbEntity
  8
0
100
AcDbLine
 62
7
  6
CONTINUOUS
 10
295.9528192366
 20
77.0110675966
 11
295.7428190624
 21
76.8706606069
  0
LINE
  5
52A
100
AcDbEntity
  8
0
100
AcDbLine
 62
7
  6
CONTINUOUS
 10
295.9528192366
 20
77.0110675966
 11
305.6888942572
 21
81.9038101725
  0
LINE
  5
52B
100
AcDbEntity
  8
02___PRT_ALL_AXES
100
AcDbLine
 62
7
  6
CONTINUOUS
 10
257.8521294646
 20
43.4546741683
 11
256.7471038786
 21
43.8991707645
  0
LINE
  5
52C
100
AcDbEntity
  8
0
100
AcDbLine
 62
7
  6
CONTINUOUS
 10
273.7701358007
 20
39.5688474443
 11
273.7811407437
 21
39.3395411353
  0
LINE
  5
52D
100
AcDbEntity
  8
0
100
AcDbLine
 62
7
  6
CONTINUOUS
 10
273.7839434144
 20
39.1440807487
 11
273.7811407437
 21
39.3395411353
  0
LINE
  5
52E
100
AcDbEntity
  8
0
100
AcDbLine
 62
7
  6
CONTINUOUS
 10
264.6126072144
 20
16.3746176277
 11
264.6054419365
 21
16.336142775
  0
LINE
  5
52F
100
AcDbEntity
  8
0
100
AcDbLine
 62
7
  6
CONTINUOUS
 10
311.140353815
 20
79.7109602977
 11
301.4042787943
 21
74.8182177218
  0
LINE
  5
530
100
AcDbEntity
  8
0
100
AcDbLine
 62
7
  6
CONTINUOUS
 10
311.3651985972
 20
79.3542798168
 11
301.6291235766
 21
74.461537241
  0
LINE
  5
531
100
AcDbEntity
  8
0
100
AcDbLine
 62
7
  6
CONTINUOUS
 10
302.1409625184
 20
74.5218866576
 11
311.877037539
 21
79.4146292335
  0
LINE
  5
532
100
AcDbEntity
  8
0
100
AcDbLine
 62
7
  6
CONTINUOUS
 10
279.7444392432
 20
37.2070406772
 11
274.2929796854
 21
39.399890552
  0
LINE
  5
533
100
AcDbEntity
  8
0
100
AcDbLine
 62
7
  6
CONTINUOUS
 10
268.1048364037
 20
41.889071491
 11
273.5562959614
 21
39.6962216162
  0
LINE
  5
534
100
AcDbEntity
  8
0
100
AcDbLine
 62
7
  6
CONTINUOUS
 10
273.5562959614
 20
39.6962216162
 11
273.7701358007
 21
39.5688474443
  0
LINE
  5
535
100
AcDbEntity
  8
0
100
AcDbLine
 62
7
  6
CONTINUOUS
 10
279.7444392432
 20
37.2070406772
 11
279.9582790824
 21
37.0796665053
  0
LINE
  5
536
100
AcDbEntity
  8
0
100
AcDbLine
 62
7
  6
CONTINUOUS
 10
270.2707413334
 20
14.0159187283
 11
270.2779066114
 21
14.054393581
  0
LINE
  5
537
100
AcDbEntity
  8
0
100
AcDbLine
 62
7
  6
CONTINUOUS
 10
301.2052835631
 20
74.4485044232
 11
301.4152837373
 21
74.5889114129
  0
LINE
  5
538
100
AcDbEntity
  8
0
100
AcDbLine
 62
7
  6
CONTINUOUS
 10
302.1409625184
 20
74.5218866576
 11
301.9309623441
 21
74.3814796679
  0
LINE
  5
539
100
AcDbEntity
  8
02___PRT_ALL_AXES
100
AcDbLine
 62
7
  6
CONTINUOUS
 10
316.9091937781
 20
77.5383149401
 11
316.7457622578
 21
77.4561844762
  0
LINE
  5
53A
100
AcDbEntity
  8
0
100
AcDbLine
 62
7
  6
CONTINUOUS
 10
299.3410086127
 20
68.429850722
 11
300.219960504
 21
68.8715569878
  0
LINE
  5
53B
100
AcDbEntity
  8
0
100
AcDbLine
 62
7
  6
CONTINUOUS
 10
317.3284970967
 20
77.2217793587
 11
307.5924220761
 21
72.3290367828
  0
LINE
  5
53C
100
AcDbEntity
  8
0
100
AcDbLine
 62
7
  6
CONTINUOUS
 10
301.7085449633
 20
68.9226292914
 11
301.9994228325
 21
69.0688063219
  0
LINE
  5
53D
100
AcDbEntity
  8
0
100
AcDbLine
 62
7
  6
CONTINUOUS
 10
317.5533418789
 20
76.8650988779
 11
307.8172668583
 21
71.972356302
  0
LINE
  5
53E
100
AcDbEntity
  8
0
100
AcDbLine
 62
7
  6
CONTINUOUS
 10
279.9692840254
 20
36.8503601964
 11
279.9582790824
 21
37.0796665053
  0
LINE
  5
53F
100
AcDbEntity
  8
0
100
AcDbLine
 62
7
  6
CONTINUOUS
 10
280.2239818062
 20
19.0875431465
 11
279.9692840254
 21
36.8503601964
  0
LINE
  5
540
100
AcDbEntity
  8
0
100
AcDbLine
 62
7
  6
CONTINUOUS
 10
307.3934268448
 20
71.9593234842
 11
307.6034270191
 21
72.0997304739
  0
LINE
  5
541
100
AcDbEntity
  8
02___PRT_ALL_AXES
100
AcDbLine
 62
7
  6
CONTINUOUS
 10
280.7467117003
 20
57.5186801488
 11
278.3803045772
 21
56.3294718839
  0
LINE
  5
542
100
AcDbEntity
  8
02___PRT_ALL_AXES
100
AcDbLine
 62
7
  6
CONTINUOUS
 10
294.3339227023
 20
63.9550530046
 11
281.6120267376
 21
57.5618235049
  0
LINE
  5
543
100
AcDbEntity
  8
02___PRT_ALL_AXES
100
AcDbLine
 62
7
  6
CONTINUOUS
 10
256.7471038786
 20
43.8991707645
 11
266.8888486917
 21
48.9957776144
  0
LINE
  5
544
100
AcDbEntity
  8
02___PRT_ALL_AXES
100
AcDbLine
 62
7
  6
CONTINUOUS
 10
257.8521294646
 20
43.4546741683
 11
267.9938742777
 21
48.5512810181
  0
LINE
  5
545
100
AcDbEntity
  8
02___PRT_ALL_AXES
100
AcDbLine
 62
7
  6
CONTINUOUS
 10
267.9938742777
 20
48.5512810181
 11
266.8888486917
 21
48.9957776144
  0
LINE
  5
546
100
AcDbEntity
  8
0
100
AcDbLine
 62
7
  6
CONTINUOUS
 10
258.3687613831
 20
36.9963289151
 11
258.1587612089
 21
36.8559219254
  0
LINE
  5
547
100
AcDbEntity
  8
02___PRT_ALL_AXES
100
AcDbLine
 62
7
  6
CONTINUOUS
 10
292.6626452372
 20
58.6384891073
 11
283.418092978
 21
53.9927551397
  0
LINE
  5
548
100
AcDbEntity
  8
02___PRT_ALL_AXES
100
AcDbLine
 62
7
  6
CONTINUOUS
 10
282.857136259
 20
53.3191434861
 11
280.490729136
 21
52.1299352211
  0
LINE
  5
549
100
AcDbEntity
  8
0
100
AcDbLine
 62
7
  6
CONTINUOUS
 10
302.7087073766
 20
61.7284624304
 11
303.5876579196
 21
62.1701680186
  0
LINE
  5
54A
100
AcDbEntity
  8
02___PRT_ALL_AXES
100
AcDbLine
 62
7
  6
CONTINUOUS
 10
320.501405793
 20
70.390167429
 11
319.0895341683
 21
69.680649025
  0
LINE
  5
54B
100
AcDbEntity
  8
0
100
AcDbLine
 62
7
  6
CONTINUOUS
 10
280.2239818062
 20
19.0875431465
 11
280.2168165282
 21
19.0490682939
  0
LINE
  5
54C
100
AcDbEntity
  8
0
100
AcDbLine
 62
7
  6
CONTINUOUS
 10
280.5265408548
 20
42.0246466661
 11
288.2846075766
 21
56.4383611075
  0
LINE
  5
54D
100
AcDbEntity
  8
02___PRT_ALL_AXES
100
AcDbLine
 62
7
  6
CONTINUOUS
 10
253.3089376236
 20
22.734452361
 11
254.3176356401
 21
23.6003786791
  0
LINE
  5
54E
100
AcDbEntity
  8
0
100
AcDbLine
 62
7
  6
CONTINUOUS
 10
263.6212257096
 20
34.4337657417
 11
263.8312258838
 21
34.5741727314
  0
LINE
  5
54F
100
AcDbEntity
  8
0
100
AcDbLine
 62
7
  6
CONTINUOUS
 10
264.5569046648
 20
34.5071479761
 11
264.3469044906
 21
34.3667409864
  0
LINE
  5
550
100
AcDbEntity
  8
02___PRT_ALL_AXES
100
AcDbLine
 62
7
  6
CONTINUOUS
 10
318.145451362
 20
68.6746057685
 11
317.6741797453
 21
68.4377741193
  0
LINE
  5
551
100
AcDbEntity
  8
0
100
AcDbLine
 62
7
  6
CONTINUOUS
 10
258.3687613831
 20
36.9963289151
 11
268.1048364037
 21
41.889071491
  0
LINE
  5
552
100
AcDbEntity
  8
0
100
AcDbLine
 62
7
  6
CONTINUOUS
 10
295.7428190624
 20
76.8706606069
 11
295.7356537845
 21
76.8321857543
  0
LINE
  5
553
100
AcDbEntity
  8
0
100
AcDbLine
 62
7
  6
CONTINUOUS
 10
301.6738211832
 20
56.5583132014
 11
301.8838213574
 21
56.6987201911
  0
LINE
  5
554
100
AcDbEntity
  8
0
100
AcDbLine
 62
7
  6
CONTINUOUS
 10
301.8838213574
 20
56.6987201911
 11
302.1746992266
 21
56.8448972216
  0
LINE
  5
555
100
AcDbEntity
  8
0
100
AcDbLine
 62
7
  6
CONTINUOUS
 10
301.6666559052
 20
56.5198383488
 11
302.1756921763
 21
56.7756481521
  0
LINE
  5
556
100
AcDbEntity
  8
02___PRT_ALL_AXES
100
AcDbLine
 62
7
  6
CONTINUOUS
 10
303.1981029701
 20
55.9038136917
 11
295.8841482391
 21
52.2282773349
  0
LINE
  5
557
100
AcDbEntity
  8
0
100
AcDbLine
 62
7
  6
CONTINUOUS
 10
273.5562959614
 20
39.6962216162
 11
263.8202209408
 21
34.8034790403
  0
LINE
  5
558
100
AcDbEntity
  8
0
100
AcDbLine
 62
7
  6
CONTINUOUS
 10
273.7811407437
 20
39.3395411353
 11
264.0450657231
 21
34.4467985595
  0
LINE
  5
559
100
AcDbEntity
  8
0
100
AcDbLine
 62
7
  6
CONTINUOUS
 10
264.5569046648
 20
34.5071479761
 11
274.2929796854
 21
39.399890552
  0
LINE
  5
55A
100
AcDbEntity
  8
02___PRT_ALL_AXES
100
AcDbLine
 62
7
  6
CONTINUOUS
 10
294.6013506897
 20
65.0707259399
 11
294.3311617321
 21
83.913909446
  0
LINE
  5
55B
100
AcDbEntity
  8
0
100
AcDbLine
 62
7
  6
CONTINUOUS
 10
287.1306791818
 20
38.4700219378
 11
295.4330947358
 21
53.8950822347
  0
LINE
  5
55C
100
AcDbEntity
  8
02___PRT_ALL_AXES
100
AcDbLine
 62
7
  6
CONTINUOUS
 10
322.6506979671
 20
73.1852765398
 11
321.6419999505
 21
72.3193502216
  0
LINE
  5
55D
100
AcDbEntity
  8
0
100
AcDbLine
 62
7
  6
CONTINUOUS
 10
269.8093689913
 20
31.9445848027
 11
270.0193691655
 21
32.0849917924
  0
LINE
  5
55E
100
AcDbEntity
  8
0
100
AcDbLine
 62
7
  6
CONTINUOUS
 10
308.0719646391
 20
54.2095392521
 11
317.8080396597
 21
59.102281828
  0
LINE
  5
55F
100
AcDbEntity
  8
0
100
AcDbLine
 62
7
  6
CONTINUOUS
 10
307.8547991869
 20
54.0306574098
 11
317.5908742076
 21
58.9233999857
  0
LINE
  5
560
100
AcDbEntity
  8
02___PRT_ALL_AXES
100
AcDbLine
 62
7
  6
CONTINUOUS
 10
257.8141842286
 20
27.2451231323
 11
261.3637949132
 21
29.0289355297
  0
LINE
  5
561
100
AcDbEntity
  8
02___PRT_ALL_AXES
100
AcDbLine
 62
7
  6
CONTINUOUS
 10
295.8841482391
 20
52.2282773349
 11
294.7791226531
 21
52.6727739312
  0
LINE
  5
562
100
AcDbEntity
  8
0
100
AcDbLine
 62
7
  6
CONTINUOUS
 10
295.7538240054
 20
76.641354298
 11
295.7428190624
 21
76.8706606069
  0
LINE
  5
563
100
AcDbEntity
  8
02___PRT_ALL_AXES
100
AcDbLine
 62
7
  6
CONTINUOUS
 10
295.8841482391
 20
52.2282773349
 11
295.8501588653
 21
54.5987221292
  0
LINE
  5
564
100
AcDbEntity
  8
02___PRT_ALL_AXES
100
AcDbLine
 62
7
  6
CONTINUOUS
 10
295.6872628022
 20
65.9592175287
 11
295.4361873181
 21
83.4694128498
  0
LINE
  5
565
100
AcDbEntity
  8
0
100
AcDbLine
 62
7
  6
CONTINUOUS
 10
295.8891902721
 20
66.1244342681
 11
295.7356537845
 21
76.8321857543
  0
LINE
  5
566
100
AcDbEntity
  8
0
100
AcDbLine
 62
7
  6
CONTINUOUS
 10
295.9044452247
 20
66.1369158464
 11
295.7538240054
 21
76.641354298
  0
LINE
  5
567
100
AcDbEntity
  8
0
100
AcDbLine
 62
7
  6
CONTINUOUS
 10
301.9309623441
 20
74.3814796679
 11
301.9237970662
 21
74.3430048153
  0
LINE
  5
568
100
AcDbEntity
  8
0
100
AcDbLine
 62
7
  6
CONTINUOUS
 10
307.8619644649
 20
54.0691322625
 11
308.0719646391
 21
54.2095392521
  0
LINE
  5
569
100
AcDbEntity
  8
0
100
AcDbLine
 62
7
  6
CONTINUOUS
 10
317.8008743818
 20
59.0638069754
 11
317.5908742076
 21
58.9233999857
  0
LINE
  5
56A
100
AcDbEntity
  8
02___PRT_ALL_AXES
100
AcDbLine
 62
7
  6
CONTINUOUS
 10
255.4582297977
 20
25.5295614718
 11
257.9598601849
 21
26.7867244948
  0
LINE
  5
56B
100
AcDbEntity
  8
0
100
AcDbLine
 62
7
  6
CONTINUOUS
 10
279.7444392432
 20
37.2070406772
 11
270.0083642225
 21
32.3142981013
  0
LINE
  5
56C
100
AcDbEntity
  8
0
100
AcDbLine
 62
7
  6
CONTINUOUS
 10
264.1244871098
 20
28.9078906099
 11
264.415364979
 21
29.0540676404
  0
LINE
  5
56D
100
AcDbEntity
  8
0
100
AcDbLine
 62
7
  6
CONTINUOUS
 10
279.9692840254
 20
36.8503601964
 11
270.2332090048
 21
31.9576176205
  0
LINE
  5
56E
100
AcDbEntity
  8
02___PRT_ALL_AXES
100
AcDbLine
 62
7
  6
CONTINUOUS
 10
255.2511323533
 20
23.8866270039
 11
256.0080296057
 21
24.2669962394
  0
LINE
  5
56F
100
AcDbEntity
  8
0
100
AcDbLine
 62
7
  6
CONTINUOUS
 10
307.8547991869
 20
54.0306574098
 11
302.4033396292
 21
56.2235072846
  0
LINE
  5
570
100
AcDbEntity
  8
0
100
AcDbLine
 62
7
  6
CONTINUOUS
 10
298.1730988659
 20
57.9251218394
 11
301.6666559052
 21
56.5198383488
  0
LINE
  5
571
100
AcDbEntity
  8
0
100
AcDbLine
 62
7
  6
CONTINUOUS
 10
307.6481246256
 20
54.1965064344
 11
302.1966650679
 21
56.3893563092
  0
LINE
  5
572
100
AcDbEntity
  8
0
100
AcDbLine
 62
7
  6
CONTINUOUS
 10
298.2259915978
 20
57.9865599075
 11
301.4599813439
 21
56.6856873734
  0
LINE
  5
573
100
AcDbEntity
  8
0
100
AcDbLine
 62
7
  6
CONTINUOUS
 10
301.2052835631
 20
74.4485044232
 11
301.2811935196
 21
69.1544862949
  0
LINE
  5
574
100
AcDbEntity
  8
0
100
AcDbLine
 62
7
  6
CONTINUOUS
 10
301.3989713672
 20
60.9405695786
 11
301.4599813439
 21
56.6856873734
  0
LINE
  5
575
100
AcDbEntity
  8
0
100
AcDbLine
 62
7
  6
CONTINUOUS
 10
301.6291235766
 20
74.461537241
 11
301.7085449633
 21
68.9226292914
  0
LINE
  5
576
100
AcDbEntity
  8
0
100
AcDbLine
 62
7
  6
CONTINUOUS
 10
301.8192316092
 20
61.2032583837
 11
301.8838213574
 21
56.6987201911
  0
LINE
  5
577
100
AcDbEntity
  8
0
100
AcDbLine
 62
7
  6
CONTINUOUS
 10
302.178494847
 20
56.5801877654
 11
302.1097458264
 21
61.3747967753
  0
LINE
  5
578
100
AcDbEntity
  8
0
100
AcDbLine
 62
7
  6
CONTINUOUS
 10
302.003218453
 20
68.8040968657
 11
301.9237970662
 21
74.3430048153
  0
LINE
  5
579
100
AcDbEntity
  8
0
100
AcDbLine
 62
7
  6
CONTINUOUS
 10
302.1966650679
 20
56.3893563092
 11
302.1250501748
 21
61.3838334529
  0
LINE
  5
57A
100
AcDbEntity
  8
0
100
AcDbLine
 62
7
  6
CONTINUOUS
 10
302.0178772436
 20
68.8581552307
 11
301.9419672871
 21
74.152173359
  0
LINE
  5
57B
100
AcDbEntity
  8
0
100
AcDbLine
 62
7
  6
CONTINUOUS
 10
301.6666559052
 20
56.5198383488
 11
301.6738211832
 21
56.5583132014
  0
LINE
  5
57C
100
AcDbEntity
  8
0
100
AcDbLine
 62
7
  6
CONTINUOUS
 10
302.1966650679
 20
56.3893563092
 11
302.18949979
 21
56.3508814565
  0
LINE
  5
57D
100
AcDbEntity
  8
0
100
AcDbLine
 62
7
  6
CONTINUOUS
 10
301.4599813439
 20
56.6856873734
 11
301.6738211832
 21
56.5583132014
  0
LINE
  5
57E
100
AcDbEntity
  8
0
100
AcDbLine
 62
7
  6
CONTINUOUS
 10
302.18949979
 20
56.3508814565
 11
302.4033396292
 21
56.2235072846
  0
LINE
  5
57F
100
AcDbEntity
  8
0
100
AcDbLine
 62
7
  6
CONTINUOUS
 10
307.6481246256
 20
54.1965064344
 11
307.8619644649
 21
54.0691322625
  0
LINE
  5
580
100
AcDbEntity
  8
0
100
AcDbLine
 62
7
  6
CONTINUOUS
 10
302.178494847
 20
56.5801877654
 11
302.18949979
 21
56.3508814565
  0
LINE
  5
581
100
AcDbEntity
  8
0
100
AcDbLine
 62
7
  6
CONTINUOUS
 10
301.4152837373
 20
74.5889114129
 11
301.4042787943
 21
74.8182177218
  0
LINE
  5
582
100
AcDbEntity
  8
0
100
AcDbLine
 62
7
  6
CONTINUOUS
 10
301.9419672871
 20
74.152173359
 11
301.9309623441
 21
74.3814796679
  0
LINE
  5
583
100
AcDbEntity
  8
0
100
AcDbLine
 62
7
  6
CONTINUOUS
 10
264.0897633297
 20
16.5435745199
 11
264.2997635039
 21
16.6839815096
  0
LINE
  5
584
100
AcDbEntity
  8
02___PRT_ALL_AXES
100
AcDbLine
 62
7
  6
CONTINUOUS
 10
257.6163558993
 20
19.199592285
 11
258.3654187404
 21
19.5760244352
  0
LINE
  5
585
100
AcDbEntity
  8
02___PRT_ALL_AXES
100
AcDbLine
 62
7
  6
CONTINUOUS
 10
259.0504418125
 20
18.3814139607
 11
261.5520721998
 21
19.6385769837
  0
LINE
  5
586
100
AcDbEntity
  8
02___PRT_ALL_AXES
100
AcDbLine
 62
7
  6
CONTINUOUS
 10
261.8329714202
 20
19.2481331042
 11
265.3825821048
 21
21.0319455017
  0
LINE
  5
587
100
AcDbEntity
  8
0
100
AcDbLine
 62
7
  6
CONTINUOUS
 10
307.6034270191
 20
72.0997304739
 11
307.5924220761
 21
72.3290367828
  0
LINE
  5
588
100
AcDbEntity
  8
02___PRT_ALL_AXES
100
AcDbLine
 62
7
  6
CONTINUOUS
 10
305.5779321312
 20
88.5660196996
 11
305.6735707516
 21
81.8961095366
  0
LINE
  5
589
100
AcDbEntity
  8
0
100
AcDbLine
 62
7
  6
CONTINUOUS
 10
307.3934268448
 20
71.9593234842
 11
307.6481246256
 21
54.1965064344
  0
LINE
  5
58A
100
AcDbEntity
  8
0
100
AcDbLine
 62
7
  6
CONTINUOUS
 10
307.8172668583
 20
71.972356302
 11
308.0719646391
 21
54.2095392521
  0
LINE
  5
58B
100
AcDbEntity
  8
0
100
AcDbLine
 62
7
  6
CONTINUOUS
 10
307.8547991869
 20
54.0306574098
 11
307.8619644649
 21
54.0691322625
  0
LINE
  5
58C
100
AcDbEntity
  8
0
100
AcDbLine
 62
7
  6
CONTINUOUS
 10
270.2779066114
 20
14.054393581
 11
270.4879067856
 21
14.1948005706
  0
LINE
  5
58D
100
AcDbEntity
  8
0
100
AcDbLine
 62
7
  6
CONTINUOUS
 10
264.2997635039
 20
16.6839815096
 11
264.5906413731
 21
16.8301585401
  0
LINE
  5
58E
100
AcDbEntity
  8
0
100
AcDbLine
 62
7
  6
CONTINUOUS
 10
264.0825980517
 20
16.5050996673
 11
264.5916343228
 21
16.7609094706
  0
LINE
  5
58F
100
AcDbEntity
  8
02___PRT_ALL_AXES
100
AcDbLine
 62
7
  6
CONTINUOUS
 10
265.6140451166
 20
15.8890750102
 11
258.3000903856
 21
12.2135386534
  0
LINE
  5
590
100
AcDbEntity
  8
02___PRT_ALL_AXES
100
AcDbLine
 62
7
  6
CONTINUOUS
 10
320.4346555345
 20
77.5949823515
 11
319.1378720018
 21
77.3023177889
  0
LINE
  5
591
100
AcDbEntity
  8
0
100
AcDbLine
 62
7
  6
CONTINUOUS
 10
311.3541936542
 20
79.5835861258
 11
311.3651985972
 21
79.3542798168
  0
LINE
  5
592
100
AcDbEntity
  8
0
100
AcDbLine
 62
7
  6
CONTINUOUS
 10
311.3680012679
 20
79.1588194302
 11
311.3651985972
 21
79.3542798168
  0
LINE
  5
593
100
AcDbEntity
  8
0
100
AcDbLine
 62
7
  6
CONTINUOUS
 10
280.2168165282
 20
19.0490682939
 11
280.006816354
 21
18.9086613042
  0
LINE
  5
594
100
AcDbEntity
  8
0
100
AcDbLine
 62
7
  6
CONTINUOUS
 10
270.4879067856
 20
14.1948005706
 11
280.2239818062
 21
19.0875431465
  0
LINE
  5
595
100
AcDbEntity
  8
0
100
AcDbLine
 62
7
  6
CONTINUOUS
 10
270.2707413334
 20
14.0159187283
 11
280.006816354
 21
18.9086613042
  0
LINE
  5
596
100
AcDbEntity
  8
0
100
AcDbLine
 62
7
  6
CONTINUOUS
 10
317.8080396597
 20
59.102281828
 11
317.8008743818
 21
59.0638069754
  0
LINE
  5
597
100
AcDbEntity
  8
0
100
AcDbLine
 62
7
  6
CONTINUOUS
 10
307.3934268448
 20
71.9593234842
 11
301.9419672871
 21
74.152173359
  0
LINE
  5
598
100
AcDbEntity
  8
0
100
AcDbLine
 62
7
  6
CONTINUOUS
 10
295.7538240054
 20
76.641354298
 11
301.2052835631
 21
74.4485044232
  0
LINE
  5
599
100
AcDbEntity
  8
0
100
AcDbLine
 62
7
  6
CONTINUOUS
 10
307.5924220761
 20
72.3290367828
 11
302.1409625184
 21
74.5218866576
  0
LINE
  5
59A
100
AcDbEntity
  8
0
100
AcDbLine
 62
7
  6
CONTINUOUS
 10
295.9528192366
 20
77.0110675966
 11
301.4042787943
 21
74.8182177218
  0
LINE
  5
59B
100
AcDbEntity
  8
0
100
AcDbLine
 62
7
  6
CONTINUOUS
 10
301.6291235766
 20
74.461537241
 11
301.4152837373
 21
74.5889114129
  0
LINE
  5
59C
100
AcDbEntity
  8
0
100
AcDbLine
 62
7
  6
CONTINUOUS
 10
317.5533418789
 20
76.8650988779
 11
317.5423369359
 21
77.0944051868
  0
LINE
  5
59D
100
AcDbEntity
  8
0
100
AcDbLine
 62
7
  6
CONTINUOUS
 10
317.8080396597
 20
59.102281828
 11
317.5533418789
 21
76.8650988779
  0
LINE
  5
59E
100
AcDbEntity
  8
0
100
AcDbLine
 62
7
  6
CONTINUOUS
 10
307.8172668583
 20
71.972356302
 11
307.6034270191
 21
72.0997304739
  0
LINE
  5
59F
100
AcDbEntity
  8
02___PRT_ALL_AXES
100
AcDbLine
 62
7
  6
CONTINUOUS
 10
295.4361873181
 20
83.4694128498
 11
294.3311617321
 21
83.913909446
  0
LINE
  5
5A0
100
AcDbEntity
  8
0
100
AcDbLine
 62
7
  6
CONTINUOUS
 10
317.3284970967
 20
77.2217793587
 11
311.877037539
 21
79.4146292335
  0
LINE
  5
5A1
100
AcDbEntity
  8
0
100
AcDbLine
 62
7
  6
CONTINUOUS
 10
305.6888942572
 20
81.9038101725
 11
311.140353815
 21
79.7109602977
  0
LINE
  5
5A2
100
AcDbEntity
  8
0
100
AcDbLine
 62
7
  6
CONTINUOUS
 10
311.140353815
 20
79.7109602977
 11
311.3541936542
 21
79.5835861258
  0
LINE
  5
5A3
100
AcDbEntity
  8
0
100
AcDbLine
 62
7
  6
CONTINUOUS
 10
317.3284970967
 20
77.2217793587
 11
317.5423369359
 21
77.0944051868
  0
LINE
  5
5A4
100
AcDbEntity
  8
02___PRT_ALL_AXES
100
AcDbLine
 62
7
  6
CONTINUOUS
 10
305.5779321312
 20
88.5660196996
 11
304.4729065452
 21
89.0105162959
  0
CIRCLE
  5
5A5
100
AcDbEntity
  8
0
100
AcDbCircle
 62
7
  6
CONTINUOUS
 10
65.1027419475
 20
194.1478142767
 40
6.45
  0
CIRCLE
  5
5A6
100
AcDbEntity
  8
0
100
AcDbCircle
 62
7
  6
CONTINUOUS
 10
65.1027419475
 20
219.8478142767
 40
6.45
  0
CIRCLE
  5
5A7
100
AcDbEntity
  8
02___PRT_ALL_AXES
100
AcDbCircle
 62
7
  6
CONTINUOUS
 10
65.1027419475
 20
178.9978142767
 40
3.5
  0
CIRCLE
  5
5A8
100
AcDbEntity
  8
0
100
AcDbCircle
 62
7
  6
CONTINUOUS
 10
65.1027419475
 20
194.1478142767
 40
3.3
  0
CIRCLE
  5
5A9
100
AcDbEntity
  8
0
100
AcDbCircle
 62
7
  6
CONTINUOUS
 10
65.1027419475
 20
219.8478142767
 40
3.3
  0
ARC
  5
5AA
100
AcDbEntity
  8
0
100
AcDbCircle
 62
7
  6
CONTINUOUS
 10
82.1027419475
 20
244.4978142767
 40
45.0
100
AcDbArc
 50
270.0
 51
315.0
  0
ARC
  5
5AB
100
AcDbEntity
  8
0
100
AcDbCircle
 62
7
  6
CONTINUOUS
 10
82.1027419475
 20
244.4978142767
 40
30.0
100
AcDbArc
 50
270.0
 51
315.0
  0
CIRCLE
  5
5AC
100
AcDbEntity
  8
02___PRT_ALL_AXES
100
AcDbCircle
 62
7
  6
CONTINUOUS
 10
65.1027419475
 20
234.9978142767
 40
3.5
  0
ARC
  5
5AD
100
AcDbEntity
  8
0
100
AcDbCircle
 62
7
  6
CONTINUOUS
 10
160.1687591254
 20
216.4978142767
 40
45.0
100
AcDbArc
 50
90.0
 51
107.6706062181
  0
ARC
  5
5AE
100
AcDbEntity
  8
0
100
AcDbCircle
 62
7
  6
CONTINUOUS
 10
160.1687591254
 20
216.4978142767
 40
30.0
100
AcDbArc
 50
90.0
 51
135.0
  0
CIRCLE
  5
5AF
100
AcDbEntity
  8
02___PRT_ALL_AXES
100
AcDbCircle
 62
7
  6
CONTINUOUS
 10
177.1687591254
 20
225.9978142767
 40
3.5
  0
CIRCLE
  5
5B0
100
AcDbEntity
  8
0
100
AcDbCircle
 62
7
  6
CONTINUOUS
 10
177.1687591254
 20
241.1478142767
 40
6.45
  0
CIRCLE
  5
5B1
100
AcDbEntity
  8
0
100
AcDbCircle
 62
7
  6
CONTINUOUS
 10
177.1687591254
 20
266.8478142767
 40
6.45
  0
CIRCLE
  5
5B2
100
AcDbEntity
  8
02___PRT_ALL_AXES
100
AcDbCircle
 62
7
  6
CONTINUOUS
 10
177.1687591254
 20
281.9978142767
 40
3.5
  0
CIRCLE
  5
5B3
100
AcDbEntity
  8
0
100
AcDbCircle
 62
7
  6
CONTINUOUS
 10
177.1687591254
 20
241.1478142767
 40
3.3
  0
CIRCLE
  5
5B4
100
AcDbEntity
  8
0
100
AcDbCircle
 62
7
  6
CONTINUOUS
 10
177.1687591254
 20
266.8478142767
 40
3.3
  0
ARC
  5
5B5
100
AcDbEntity
  8
0
100
AcDbCircle
 62
7
  6
CONTINUOUS
 10
254.2752274522
 20
244.5508941807
 40
23.3258890281
100
AcDbArc
 50
46.5579949673
 51
48.5552516599
  0
ARC
  5
5B6
100
AcDbEntity
  8
0
100
AcDbCircle
 62
7
  6
CONTINUOUS
 10
270.7148427747
 20
212.7325616059
 40
10.5520492386
100
AcDbArc
 50
87.815043108
 51
92.184956892
  0
CIRCLE
  5
5B7
100
AcDbEntity
  8
0
100
AcDbCircle
 62
7
  6
CONTINUOUS
 10
270.7145751953
 20
206.9978142767
 40
8.95
  0
CIRCLE
  5
5B8
100
AcDbEntity
  8
0
100
AcDbCircle
 62
7
  6
CONTINUOUS
 10
270.7145751953
 20
206.9978142767
 40
8.75
  0
CIRCLE
  5
5B9
100
AcDbEntity
  8
0
100
AcDbCircle
 62
7
  6
CONTINUOUS
 10
270.7145751953
 20
206.9978142767
 40
8.0
  0
CIRCLE
  5
5BA
100
AcDbEntity
  8
0
100
AcDbCircle
 62
7
  6
CONTINUOUS
 10
270.7145751953
 20
206.9978142767
 40
7.8
  0
CIRCLE
  5
5BB
100
AcDbEntity
  8
02___PRT_ALL_AXES
100
AcDbCircle
 62
7
  6
CONTINUOUS
 10
270.7145751953
 20
206.9978142767
 40
5.65
  0
CIRCLE
  5
5BC
100
AcDbEntity
  8
02___PRT_ALL_AXES
100
AcDbCircle
 62
7
  6
CONTINUOUS
 10
270.7145751953
 20
206.9978142767
 40
5.0
  0
CIRCLE
  5
5BD
100
AcDbEntity
  8
02___PRT_ALL_AXES
100
AcDbCircle
 62
7
  6
CONTINUOUS
 10
270.7145751953
 20
206.9978142767
 40
4.15
  0
ARC
  5
5BE
100
AcDbEntity
  8
0
100
AcDbCircle
 62
7
  6
CONTINUOUS
 10
270.7145751953
 20
253.9978142767
 40
8.95
100
AcDbArc
 50
87.4297518956
 51
92.5702479643
  0
ARC
  5
5BF
100
AcDbEntity
  8
0
100
AcDbCircle
 62
7
  6
CONTINUOUS
 10
270.7145751953
 20
253.9978142767
 40
8.75
100
AcDbArc
 50
87.3595427621
 51
92.6404574027
  0
ARC
  5
5C0
100
AcDbEntity
  8
0
100
AcDbCircle
 62
7
  6
CONTINUOUS
 10
270.7145751953
 20
253.9978142768
 40
8.1
100
AcDbArc
 50
97.0916460843
 51
201.7895826827
  0
ARC
  5
5C1
100
AcDbEntity
  8
0
100
AcDbCircle
 62
7
  6
CONTINUOUS
 10
270.7145751953
 20
253.9978142766
 40
8.1
100
AcDbArc
 50
338.2104174681
 51
82.9083539158
  0
ARC
  5
5C2
100
AcDbEntity
  8
0
100
AcDbCircle
 62
7
  6
CONTINUOUS
 10
270.7145751953
 20
253.9978142767
 40
7.7
100
AcDbArc
 50
87.00057178
 51
92.9994281945
  0
ARC
  5
5C3
100
AcDbEntity
  8
0
100
AcDbCircle
 62
7
  6
CONTINUOUS
 10
270.7145751953
 20
253.9978142767
 40
7.5
100
AcDbArc
 50
0.0
 51
180.0
  0
CIRCLE
  5
5C4
100
AcDbEntity
  8
02___PRT_ALL_AXES
100
AcDbCircle
 62
7
  6
CONTINUOUS
 10
270.7145751953
 20
253.9978142767
 40
4.7
  0
CIRCLE
  5
5C5
100
AcDbEntity
  8
0
100
AcDbCircle
 62
7
  6
CONTINUOUS
 10
270.7145751953
 20
253.9978142767
 40
3.25
  0
CIRCLE
  5
5C6
100
AcDbEntity
  8
0
100
AcDbCircle
 62
7
  6
CONTINUOUS
 10
270.7145751953
 20
253.9978142767
 40
2.375
  0
ARC
  5
5C7
100
AcDbEntity
  8
0
100
AcDbCircle
 62
7
  6
CONTINUOUS
 10
286.8538943736
 20
244.8789682394
 40
22.8813797201
100
AcDbArc
 50
131.4253462815
 51
133.4614070912
  0
CIRCLE
  5
5C8
100
AcDbEntity
  8
0
100
AcDbCircle
 62
7
  6
CONTINUOUS
 10
227.0805806934
 20
87.6654221447
 40
6.45
  0
CIRCLE
  5
5C9
100
AcDbEntity
  8
0
100
AcDbCircle
 62
7
  6
CONTINUOUS
 10
227.0805806934
 20
113.3654221447
 40
6.45
  0
CIRCLE
  5
5CA
100
AcDbEntity
  8
02___PRT_ALL_AXES
100
AcDbCircle
 62
7
  6
CONTINUOUS
 10
227.0805806934
 20
72.5154221447
 40
3.5
  0
CIRCLE
  5
5CB
100
AcDbEntity
  8
0
100
AcDbCircle
 62
7
  6
CONTINUOUS
 10
227.0805806934
 20
87.6654221447
 40
3.3
  0
CIRCLE
  5
5CC
100
AcDbEntity
  8
0
100
AcDbCircle
 62
7
  6
CONTINUOUS
 10
227.0805806934
 20
113.3654221447
 40
3.3
  0
ARC
  5
5CD
100
AcDbEntity
  8
0
100
AcDbCircle
 62
7
  6
CONTINUOUS
 10
244.0805806934
 20
138.0154221447
 40
45.0
100
AcDbArc
 50
270.0
 51
315.0
  0
ARC
  5
5CE
100
AcDbEntity
  8
0
100
AcDbCircle
 62
7
  6
CONTINUOUS
 10
244.0805806934
 20
138.0154221447
 40
30.0
100
AcDbArc
 50
270.0
 51
315.0
  0
CIRCLE
  5
5CF
100
AcDbEntity
  8
02___PRT_ALL_AXES
100
AcDbCircle
 62
7
  6
CONTINUOUS
 10
227.0805806934
 20
128.5154221447
 40
3.5
  0
ARC
  5
5D0
100
AcDbEntity
  8
0
100
AcDbCircle
 62
7
  6
CONTINUOUS
 10
322.1465978714
 20
110.0154221447
 40
45.0
100
AcDbArc
 50
90.0
 51
107.6706062181
  0
ARC
  5
5D1
100
AcDbEntity
  8
0
100
AcDbCircle
 62
7
  6
CONTINUOUS
 10
322.1465978714
 20
110.0154221447
 40
30.0
100
AcDbArc
 50
90.0
 51
135.0
  0
CIRCLE
  5
5D2
100
AcDbEntity
  8
02___PRT_ALL_AXES
100
AcDbCircle
 62
7
  6
CONTINUOUS
 10
339.1465978714
 20
119.5154221447
 40
3.5
  0
CIRCLE
  5
5D3
100
AcDbEntity
  8
0
100
AcDbCircle
 62
7
  6
CONTINUOUS
 10
339.1465978714
 20
134.6654221447
 40
6.45
  0
CIRCLE
  5
5D4
100
AcDbEntity
  8
0
100
AcDbCircle
 62
7
  6
CONTINUOUS
 10
339.1465978714
 20
160.3654221447
 40
6.45
  0
CIRCLE
  5
5D5
100
AcDbEntity
  8
02___PRT_ALL_AXES
100
AcDbCircle
 62
7
  6
CONTINUOUS
 10
339.1465978714
 20
175.5154221447
 40
3.5
  0
CIRCLE
  5
5D6
100
AcDbEntity
  8
0
100
AcDbCircle
 62
7
  6
CONTINUOUS
 10
339.1465978714
 20
134.6654221447
 40
3.3
  0
CIRCLE
  5
5D7
100
AcDbEntity
  8
0
100
AcDbCircle
 62
7
  6
CONTINUOUS
 10
339.1465978714
 20
160.3654221447
 40
3.3
  0
ARC
  5
5D8
100
AcDbEntity
  8
0
100
AcDbCircle
 62
7
  6
CONTINUOUS
 10
294.0316958587
 20
55.2826743307
 40
15.6519130941
100
AcDbArc
 50
60.6282897608
 51
62.4081438219
  0
ARC
  5
5D9
100
AcDbEntity
  8
0
100
AcDbCircle
 62
7
  6
CONTINUOUS
 10
256.4476380052
 20
15.2679356492
 40
15.6519130941
100
AcDbArc
 50
60.6282897608
 51
62.4081438219
  0
ARC
  5
5DA
100
AcDbEntity
  8
0
100
AcDbCircle
 62
7
  6
CONTINUOUS
 10
313.9922967793
 20
71.2424090403
 40
5.4421840046
100
AcDbArc
 50
5.8262330846
 51
6.382451349
  0
ARC
  5
5DB
100
AcDbEntity
  8
0
100
AcDbCircle
 62
7
  6
CONTINUOUS
 10
261.2294275364
 20
23.5997487749
 40
5.4421839903
100
AcDbArc
 50
5.8262330868
 51
6.3824513436
  0
ARC
  5
5DC
100
AcDbEntity
  8
0
100
AcDbCircle
 62
7
  6
CONTINUOUS
 10
260.9462134748
 20
24.1639975548
 40
5.4419500769
100
AcDbArc
 50
46.9720007028
 51
47.5388787365
  0
ARC
  5
5DD
100
AcDbEntity
  8
0
100
AcDbCircle
 62
7
  6
CONTINUOUS
 10
316.7858071865
 20
72.6850643641
 40
4.8678218691
100
AcDbArc
 50
5.8263657088
 51
6.4486542927
  0
ARC
  5
5DE
100
AcDbEntity
  8
0
100
AcDbCircle
 62
7
  6
CONTINUOUS
 10
316.5338698073
 20
73.1875241677
 40
4.8673628457
100
AcDbArc
 50
46.9050670801
 51
47.5387567101
  0
ARC
  5
5DF
100
AcDbEntity
  8
02___PRT_ALL_AXES
100
AcDbCircle
 62
7
  6
CONTINUOUS
 10
257.8293513878
 20
22.7188833792
 40
4.4931444505
100
AcDbArc
 50
50.1875608919
 51
52.3228856311
  0
ARC
  5
5E0
100
AcDbEntity
  8
0
100
AcDbCircle
 62
7
  6
CONTINUOUS
 10
300.2776516305
 20
64.3374777895
 40
4.3894818918
100
AcDbArc
 50
3.717515917
 51
4.6513757128
  0
ARC
  5
5E1
100
AcDbEntity
  8
0
100
AcDbCircle
 62
7
  6
CONTINUOUS
 10
262.6935937784
 20
24.3227391081
 40
4.3894818904
100
AcDbArc
 50
3.7175159168
 51
4.6513757129
  0
ARC
  5
5E2
100
AcDbEntity
  8
0
100
AcDbCircle
 62
7
  6
CONTINUOUS
 10
258.0558110927
 20
23.2288270323
 40
3.7477780984
100
AcDbArc
 50
174.0434420909
 51
174.2732836142
  0
ARC
  5
5E3
100
AcDbEntity
  8
0
100
AcDbCircle
 62
7
  6
CONTINUOUS
 10
300.2668600372
 20
65.6848763028
 40
3.6243289602
100
AcDbArc
 50
60.8443538707
 51
61.1100598811
  0
ARC
  5
5E4
100
AcDbEntity
  8
0
100
AcDbCircle
 62
7
  6
CONTINUOUS
 10
262.6828021836
 20
25.6701376213
 40
3.6243289602
100
AcDbArc
 50
60.8443538707
 51
61.1100598811
  0
ARC
  5
5E5
100
AcDbEntity
  8
0
100
AcDbCircle
 62
7
  6
CONTINUOUS
 10
308.7834056565
 20
61.9625363026
 40
3.5297020676
100
AcDbArc
 50
0.7599428692
 51
5.3529451342
  0
ARC
  5
5E6
100
AcDbEntity
  8
0
100
AcDbCircle
 62
7
  6
CONTINUOUS
 10
308.618940004
 20
73.4324960559
 40
3.5297020676
100
AcDbArc
 50
0.7599428692
 51
5.3529451342
  0
ARC
  5
5E7
100
AcDbEntity
  8
0
100
AcDbCircle
 62
7
  6
CONTINUOUS
 10
271.1993478029
 20
21.9477976211
 40
3.5297020676
100
AcDbArc
 50
0.7599428692
 51
5.3529451342
  0
ARC
  5
5E8
100
AcDbEntity
  8
0
100
AcDbCircle
 62
7
  6
CONTINUOUS
 10
271.0348821505
 20
33.4177573744
 40
3.5297020676
100
AcDbArc
 50
0.7599428692
 51
5.3529451342
  0
ARC
  5
5E9
100
AcDbEntity
  8
0
100
AcDbCircle
 62
7
  6
CONTINUOUS
 10
258.4662566605
 20
21.2699510099
 40
3.1096316266
100
AcDbArc
 50
246.5369174015
 51
248.0827079902
  0
ARC
  5
5EA
100
AcDbEntity
  8
0
100
AcDbCircle
 62
7
  6
CONTINUOUS
 10
258.329423434
 20
21.1564218137
 40
2.927660103
100
AcDbArc
 50
248.0830792189
 51
249.7342033566
  0
ARC
  5
5EB
100
AcDbEntity
  8
0
100
AcDbCircle
 62
7
  6
CONTINUOUS
 10
302.6928928764
 20
63.784054593
 40
2.1742268074
100
AcDbArc
 50
265.773563427
 51
267.9513760573
  0
ARC
  5
5EC
100
AcDbEntity
  8
0
100
AcDbCircle
 62
7
  6
CONTINUOUS
 10
300.9774920281
 20
67.1914780673
 40
2.17071183
100
AcDbArc
 50
142.5883570781
 51
149.0477223366
  0
ARC
  5
5ED
100
AcDbEntity
  8
0
100
AcDbCircle
 62
7
  6
CONTINUOUS
 10
302.6901545622
 20
63.7053117288
 40
2.095436385
100
AcDbArc
 50
267.9492349388
 51
270.8176292606
  0
ARC
  5
5EE
100
AcDbEntity
  8
02___PRT_ALL_AXES
100
AcDbCircle
 62
7
  6
CONTINUOUS
 10
320.8175606579
 20
73.2798080274
 40
1.2657704454
100
AcDbArc
 50
309.6105972646
 51
310.6481357954
  0
ARC
  5
5EF
100
AcDbEntity
  8
02___PRT_ALL_AXES
100
AcDbCircle
 62
7
  6
CONTINUOUS
 10
319.4164321683
 20
76.0676367101
 40
1.2657129338
100
AcDbArc
 50
102.7188553642
 51
103.4233973311
  0
SPLINE
  5
5F0
100
AcDbEntity
  8
0
100
AcDbSpline
 62
7
  6
CONTINUOUS
 70
0
 71
3
 72
14
 73
10
 74
0
 42
0.0000001
 43
0.0000001
 44
0.0000000001
 40
0.0
 40
0.0
 40
0.0
 40
0.0
 40
0.2863502847
 40
0.42122815
 40
0.5491480101
 40
0.6699316507
 40
0.7842077327
 40
0.8934746589
 40
1.0
 40
1.0
 40
1.0
 40
1.0
 10
272.6466810899
 20
248.138621783
 30
0.0
 10
273.4131690516
 20
247.9941205847
 30
0.0
 10
274.5249207881
 20
247.6494201424
 30
0.0
 10
275.8359701773
 20
246.9209583634
 30
0.0
 10
276.6666963913
 20
246.2797244368
 30
0.0
 10
277.3406410067
 20
245.5492238077
 30
0.0
 10
277.8388403725
 20
244.7470527073
 30
0.0
 10
278.1452217979
 20
243.8944303078
 30
0.0
 10
278.2145214384
 20
243.3044831177
 30
0.0
 10
278.2145110248
 20
243.0143185723
 30
0.0
  0
SPLINE
  5
5F1
100
AcDbEntity
  8
0
100
AcDbSpline
 62
7
  6
CONTINUOUS
 70
0
 71
3
 72
11
 73
7
 74
0
 42
0.0000001
 43
0.0000001
 44
0.0000000001
 40
0.0
 40
0.0
 40
0.0
 40
0.0
 40
0.2874125
 40
0.5386527234
 40
0.7733362845
 40
1.0
 40
1.0
 40
1.0
 40
1.0
 10
268.7824693008
 20
248.138621783
 30
0.0
 10
268.4081472181
 20
248.3737194023
 30
0.0
 10
267.7788537822
 20
248.9372718826
 30
0.0
 10
267.1244173385
 20
249.9401638516
 30
0.0
 10
266.7071082337
 20
250.9590177391
 30
0.0
 10
266.5389869629
 20
251.6509214324
 30
0.0
 10
266.4785257048
 20
251.9942364091
 30
0.0
  0
SPLINE
  5
5F2
100
AcDbEntity
  8
0
100
AcDbSpline
 62
7
  6
CONTINUOUS
 70
0
 71
3
 72
12
 73
8
 74
0
 42
0.0000001
 43
0.0000001
 44
0.0000000001
 40
0.0
 40
0.0
 40
0.0
 40
0.0
 40
0.2019212355
 40
0.4239222208
 40
0.683254587
 40
0.8350825063
 40
1.0
 40
1.0
 40
1.0
 40
1.0
 10
267.2520833838
 20
257.1639341912
 30
0.0
 10
267.3957601659
 20
257.4151610606
 30
0.0
 10
267.7389516158
 20
257.9204824519
 30
0.0
 10
268.435907139
 20
258.6180291546
 30
0.0
 10
269.2288409964
 20
259.0878709128
 30
0.0
 10
270.022774501
 20
259.3281822876
 30
0.0
 10
270.478202248
 20
259.3745941446
 30
0.0
 10
270.7145751953
 20
259.3745941446
 30
0.0
  0
SPLINE
  5
5F3
100
AcDbEntity
  8
0
100
AcDbSpline
 62
7
  6
CONTINUOUS
 70
0
 71
3
 72
14
 73
10
 74
0
 42
0.0000001
 43
0.0000001
 44
0.0000000001
 40
0.0
 40
0.0
 40
0.0
 40
0.0
 40
0.1065253411
 40
0.2157922673
 40
0.3300683493
 40
0.4508519899
 40
0.57877185
 40
0.7136497153
 40
1.0
 40
1.0
 40
1.0
 40
1.0
 10
263.2146393658
 20
243.0143185723
 30
0.0
 10
263.2146289522
 20
243.3044831177
 30
0.0
 10
263.2839285927
 20
243.8944303078
 30
0.0
 10
263.5903100181
 20
244.7470527073
 30
0.0
 10
264.0885093839
 20
245.5492238077
 30
0.0
 10
264.7624539993
 20
246.2797244368
 30
0.0
 10
265.5931802133
 20
246.9209583634
 30
0.0
 10
266.9042296025
 20
247.6494201424
 30
0.0
 10
268.015981339
 20
247.9941205847
 30
0.0
 10
268.7824693008
 20
248.138621783
 30
0.0
  0
SPLINE
  5
5F4
100
AcDbEntity
  8
0
100
AcDbSpline
 62
7
  6
CONTINUOUS
 70
0
 71
3
 72
12
 73
8
 74
0
 42
0.0000001
 43
0.0000001
 44
0.0000000001
 40
0.0
 40
0.0
 40
0.0
 40
0.0
 40
0.1649774982
 40
0.3168608842
 40
0.5761863224
 40
0.7981268488
 40
1.0
 40
1.0
 40
1.0
 40
1.0
 10
270.7145751953
 20
259.3745941446
 30
0.0
 10
270.9512622553
 20
259.3745941446
 30
0.0
 10
271.4073020739
 20
259.3280605152
 30
0.0
 10
272.2020508363
 20
259.0871263122
 30
0.0
 10
272.9955308234
 20
258.6164463285
 30
0.0
 10
273.6924405603
 20
257.9177321566
 30
0.0
 10
274.0355198264
 20
257.4118218411
 30
0.0
 10
274.1791305851
 20
257.1603151356
 30
0.0
  0
SPLINE
  5
5F5
100
AcDbEntity
  8
0
100
AcDbSpline
 62
7
  6
CONTINUOUS
 70
0
 71
3
 72
11
 73
7
 74
0
 42
0.0000001
 43
0.0000001
 44
0.0000000001
 40
0.0
 40
0.0
 40
0.0
 40
0.0
 40
0.2266346986
 40
0.4613265246
 40
0.7125987518
 40
1.0
 40
1.0
 40
1.0
 40
1.0
 10
274.9482699938
 20
251.9808751057
 30
0.0
 10
274.8874543303
 20
251.6387021942
 30
0.0
 10
274.7187170602
 20
250.9491226221
 30
0.0
 10
274.3011877
 20
249.9338454394
 30
0.0
 10
273.6476705791
 20
248.9344975455
 30
0.0
 10
273.0198950532
 20
248.3730234342
 30
0.0
 10
272.6466810899
 20
248.138621783
 30
0.0
  0
SPLINE
  5
5F6
100
AcDbEntity
  8
0
100
AcDbSpline
 62
7
  6
CONTINUOUS
 70
0
 71
3
 72
11
 73
7
 74
0
 42
0.0000001
 43
0.0000001
 44
0.0000000001
 40
0.0
 40
0.0
 40
0.0
 40
0.0
 40
0.2807511644
 40
0.5387660485
 40
0.7758013753
 40
1.0
 40
1.0
 40
1.0
 40
1.0
 10
129.1764573314
 20
24.9767789407
 30
0.0
 10
129.4055651199
 20
24.4670380249
 30
0.0
 10
129.9444107643
 20
23.5281120681
 30
0.0
 10
131.0208203628
 20
22.3966856872
 30
0.0
 10
132.2807946967
 20
21.6700232141
 30
0.0
 10
133.2059664569
 20
21.4998452986
 30
0.0
 10
133.6522548298
 20
21.4998613152
 30
0.0
  0
SPLINE
  5
5F7
100
AcDbEntity
  8
0
100
AcDbSpline
 62
7
  6
CONTINUOUS
 70
0
 71
3
 72
19
 73
15
 74
0
 42
0.0000001
 43
0.0000001
 44
0.0000000001
 40
0.0
 40
0.0
 40
0.0
 40
0.0
 40
0.1220122461
 40
0.2437363009
 40
0.3654334179
 40
0.4873515219
 40
0.6098703471
 40
0.6716200378
 40
0.7339154287
 40
0.7970976962
 40
0.8617867727
 40
0.9290732888
 40
0.9641939407
 40
1.0
 40
1.0
 40
1.0
 40
1.0
 10
133.1764129903
 20
33.0060224785
 30
0.0
 10
133.7815254168
 20
33.124103402
 30
0.0
 10
135.0036798029
 20
33.2944466225
 30
0.0
 10
136.8497672204
 20
33.3873169514
 30
0.0
 10
138.6971007104
 20
33.329739198
 30
0.0
 10
140.536836706
 20
33.1137738766
 30
0.0
 10
142.051171489
 20
32.776912199
 30
0.0
 10
143.2333228727
 20
32.3797672818
 30
0.0
 10
144.1015104
 20
32.0001276988
 30
0.0
 10
144.9344952897
 20
31.5151073144
 30
0.0
 10
145.7013193764
 20
30.8872653669
 30
0.0
 10
146.2170224203
 20
30.1992032654
 30
0.0
 10
146.4635727754
 20
29.5405442011
 30
0.0
 10
146.5092661569
 20
29.1807245741
 30
0.0
 10
146.5092661569
 20
28.9997971447
 30
0.0
  0
SPLINE
  5
5F8
100
AcDbEntity
  8
0
100
AcDbSpline
 62
7
  6
CONTINUOUS
 70
0
 71
3
 72
11
 73
7
 74
0
 42
0.0000001
 43
0.0000001
 44
0.0000000001
 40
0.0
 40
0.0
 40
0.0
 40
0.0
 40
0.2807689834
 40
0.5387544343
 40
0.7757903513
 40
1.0
 40
1.0
 40
1.0
 40
1.0
 10
104.1451032642
 20
24.9732808034
 30
0.0
 10
104.374337311
 20
24.4639526455
 30
0.0
 10
104.9130771945
 20
23.5257940927
 30
0.0
 10
105.9893373257
 20
22.3956489859
 30
0.0
 10
107.2486215397
 20
21.6697909007
 30
0.0
 10
108.1732234977
 20
21.4998652475
 30
0.0
 10
108.619246242
 20
21.4998652475
 30
0.0
  0
SPLINE
  5
5F9
100
AcDbEntity
  8
0
100
AcDbSpline
 62
7
  6
CONTINUOUS
 70
0
 71
3
 72
11
 73
7
 74
0
 42
0.0000001
 43
0.0000001
 44
0.0000000001
 40
0.0
 40
0.0
 40
0.0
 40
0.0
 40
0.2241986247
 40
0.4612339515
 40
0.7192488356
 40
1.0
 40
1.0
 40
1.0
 40
1.0
 10
133.6522548298
 20
36.4997329742
 30
0.0
 10
133.2059664569
 20
36.4997489909
 30
0.0
 10
132.2807946967
 20
36.3295710753
 30
0.0
 10
131.0208203628
 20
35.6029086023
 30
0.0
 10
129.9444107643
 20
34.4714822213
 30
0.0
 10
129.4055651199
 20
33.5325562645
 30
0.0
 10
129.1764573314
 20
33.0228153488
 30
0.0
  0
SPLINE
  5
5FA
100
AcDbEntity
  8
0
100
AcDbSpline
 62
7
  6
CONTINUOUS
 70
0
 71
3
 72
19
 73
15
 74
0
 42
0.0000001
 43
0.0000001
 44
0.0000000001
 40
0.0
 40
0.0
 40
0.0
 40
0.0
 40
0.0358098366
 40
0.0709427868
 40
0.1382594965
 40
0.2029630483
 40
0.2661446501
 40
0.3284365833
 40
0.3901817928
 40
0.5126907102
 40
0.6345989273
 40
0.7562854979
 40
0.8779983153
 40
1.0
 40
1.0
 40
1.0
 40
1.0
 10
146.5092661569
 20
28.9997971447
 30
0.0
 10
146.5092661569
 20
28.8191851643
 30
0.0
 10
146.4636323367
 20
28.4599720318
 30
0.0
 10
146.2180171101
 20
27.8021234495
 30
0.0
 10
145.7035584605
 20
27.1147207366
 30
0.0
 10
144.9384430764
 20
26.4873520997
 30
0.0
 10
144.1073602872
 20
26.0025049967
 30
0.0
 10
143.2411234864
 20
25.6228826017
 30
0.0
 10
142.0615563803
 20
25.2255695384
 30
0.0
 10
140.5504022503
 20
24.8881746598
 30
0.0
 10
138.7143855784
 20
24.6712435788
 30
0.0
 10
136.8706844153
 20
24.6121600089
 30
0.0
 10
135.0280915492
 20
24.7030338745
 30
0.0
 10
133.808097916
 20
24.8713644464
 30
0.0
 10
133.2039596166
 20
24.9882033582
 30
0.0
  0
SPLINE
  5
5FB
100
AcDbEntity
  8
0
100
AcDbSpline
 62
7
  6
CONTINUOUS
 70
0
 71
3
 72
11
 73
7
 74
0
 42
0.0000001
 43
0.0000001
 44
0.0000000001
 40
0.0
 40
0.0
 40
0.0
 40
0.0
 40
0.2242096487
 40
0.4612455657
 40
0.7192310166
 40
1.0
 40
1.0
 40
1.0
 40
1.0
 10
108.619246242
 20
36.4997290419
 30
0.0
 10
108.1732234977
 20
36.4997290419
 30
0.0
 10
107.2486215397
 20
36.3298033887
 30
0.0
 10
105.9893373257
 20
35.6039453035
 30
0.0
 10
104.9130771945
 20
34.4738001967
 30
0.0
 10
104.374337311
 20
33.5356416439
 30
0.0
 10
104.1451032642
 20
33.0263134861
 30
0.0
  0
SPLINE
  5
5FC
100
AcDbEntity
  8
0
100
AcDbSpline
 62
7
  6
CONTINUOUS
 70
0
 71
3
 72
9
 73
5
 74
0
 42
0.0000001
 43
0.0000001
 44
0.0000000001
 40
0.0
 40
0.0
 40
0.0
 40
0.0
 40
0.2646051346
 40
1.0
 40
1.0
 40
1.0
 40
1.0
 10
319.8197842885
 20
76.7783440036
 30
0.0
 10
319.7291074848
 20
76.8613193821
 30
0.0
 10
319.3749141904
 20
77.1615764062
 30
0.0
 10
318.9710227731
 20
77.407176182
 30
0.0
 10
318.6541042517
 20
77.5346566719
 30
0.0
  0
SPLINE
  5
5FD
100
AcDbEntity
  8
02___PRT_ALL_AXES
100
AcDbSpline
 62
7
  6
CONTINUOUS
 70
0
 71
3
 72
10
 73
6
 74
0
 42
0.0000001
 43
0.0000001
 44
0.0000000001
 40
0.0
 40
0.0
 40
0.0
 40
0.0
 40
0.5225334848
 40
0.7658280689
 40
1.0
 40
1.0
 40
1.0
 40
1.0
 10
321.2763504123
 20
77.5038799556
 30
0.0
 10
321.1377142897
 20
77.5596463427
 30
0.0
 10
320.9227759925
 20
77.618198369
 30
0.0
 10
320.6360183359
 20
77.6278322401
 30
0.0
 10
320.4998502869
 20
77.6096930726
 30
0.0
 10
320.4345263639
 20
77.5949477589
 30
0.0
  0
SPLINE
  5
5FE
100
AcDbEntity
  8
0
100
AcDbSpline
 62
7
  6
CONTINUOUS
 70
0
 71
3
 72
11
 73
7
 74
0
 42
0.0000001
 43
0.0000001
 44
0.0000000001
 40
0.0
 40
0.0
 40
0.0
 40
0.0
 40
0.2450620022
 40
0.4999961328
 40
0.7549319126
 40
1.0
 40
1.0
 40
1.0
 40
1.0
 10
321.6230338854
 20
73.2326293236
 30
0.0
 10
321.5898451716
 20
73.5580456728
 30
0.0
 10
321.4534659662
 20
74.216136804
 30
0.0
 10
321.0770562588
 20
75.155918162
 30
0.0
 10
320.5476177044
 20
76.0188062185
 30
0.0
 10
320.1009782557
 20
76.5210145717
 30
0.0
 10
319.8596618657
 20
76.7418516264
 30
0.0
  0
SPLINE
  5
5FF
100
AcDbEntity
  8
0
100
AcDbSpline
 62
7
  6
CONTINUOUS
 70
0
 71
3
 72
11
 73
7
 74
0
 42
0.0000001
 43
0.0000001
 44
0.0000000001
 40
0.0
 40
0.0
 40
0.0
 40
0.0
 40
0.2721244152
 40
0.5264597574
 40
0.767022918
 40
1.0
 40
1.0
 40
1.0
 40
1.0
 10
318.6541042517
 20
77.5346566719
 30
0.0
 10
318.5029667282
 20
77.5954517486
 30
0.0
 10
318.200360481
 20
77.6901060755
 30
0.0
 10
317.7410399979
 20
77.742339762
 30
0.0
 10
317.3039901409
 20
77.6971576515
 30
0.0
 10
317.0338128175
 20
77.6009431525
 30
0.0
 10
316.9091952407
 20
77.5383118193
 30
0.0
  0
SPLINE
  5
600
100
AcDbEntity
  8
0
100
AcDbSpline
 62
7
  6
CONTINUOUS
 70
0
 71
3
 72
11
 73
7
 74
0
 42
0.0000001
 43
0.0000001
 44
0.0000000001
 40
0.0
 40
0.0
 40
0.0
 40
0.0
 40
0.2442068678
 40
0.4982223
 40
0.7531602468
 40
1.0
 40
1.0
 40
1.0
 40
1.0
 10
319.4009221632
 20
71.8482441122
 30
0.0
 10
319.3655095399
 20
72.1954659406
 30
0.0
 10
319.2235341572
 20
72.8978892009
 30
0.0
 10
318.8341194171
 20
73.9063172029
 30
0.0
 10
318.285624944
 20
74.8421672392
 30
0.0
 10
317.8225617452
 20
75.3955140873
 30
0.0
 10
317.5715475418
 20
75.6434047722
 30
0.0
  0
SPLINE
  5
601
100
AcDbEntity
  8
02___PRT_ALL_AXES
100
AcDbSpline
 62
7
  6
CONTINUOUS
 70
0
 71
3
 72
17
 73
13
 74
0
 42
0.0000001
 43
0.0000001
 44
0.0000000001
 40
0.0
 40
0.0
 40
0.0
 40
0.0
 40
0.1192274121
 40
0.251022263
 40
0.3905878059
 40
0.5314296415
 40
0.6667977277
 40
0.7910839552
 40
0.8481595479
 40
0.9017080969
 40
0.9520824774
 40
1.0
 40
1.0
 40
1.0
 40
1.0
 10
321.2763504123
 20
77.5038799556
 30
0.0
 10
321.4668391877
 20
77.4272558363
 30
0.0
 10
321.8428913912
 20
77.2016462177
 30
0.0
 10
322.3262682463
 20
76.7272892453
 30
0.0
 10
322.7266271495
 20
76.1356683672
 30
0.0
 10
323.011625546
 20
75.4741121059
 30
0.0
 10
323.1587103198
 20
74.795736401
 30
0.0
 10
323.1555343708
 20
74.2440535948
 30
0.0
 10
323.0686124272
 20
73.8475819313
 30
0.0
 10
322.9672730463
 20
73.5880865422
 30
0.0
 10
322.829822419
 20
73.3639229957
 30
0.0
 10
322.7133488326
 20
73.2390701717
 30
0.0
 10
322.6507376939
 20
73.1853185163
 30
0.0
  0
SPLINE
  5
602
100
AcDbEntity
  8
0
100
AcDbSpline
 62
7
  6
CONTINUOUS
 70
0
 71
3
 72
14
 73
10
 74
0
 42
0.0000001
 43
0.0000001
 44
0.0000000001
 40
0.0
 40
0.0
 40
0.0
 40
0.0
 40
0.1070589408
 40
0.2164822176
 40
0.3303354704
 40
0.4501770233
 40
0.5769725386
 40
0.7111064531
 40
1.0
 40
1.0
 40
1.0
 40
1.0
 10
318.1454497329
 20
68.674609263
 30
0.0
 10
318.2593100296
 20
68.7318341141
 30
0.0
 10
318.4784777738
 20
68.8711444808
 30
0.0
 10
318.7642832643
 20
69.1444854285
 30
0.0
 10
319.0040893396
 20
69.4777180978
 30
0.0
 10
319.1940581667
 20
69.8644328972
 30
0.0
 10
319.3315910168
 20
70.2979249269
 30
0.0
 10
319.445222132
 20
70.9438691769
 30
0.0
 10
319.4412718338
 20
71.4527622823
 30
0.0
 10
319.4063682875
 20
71.7948549149
 30
0.0
  0
SPLINE
  5
603
100
AcDbEntity
  8
0
100
AcDbSpline
 62
7
  6
CONTINUOUS
 70
0
 71
3
 72
12
 73
8
 74
0
 42
0.0000001
 43
0.0000001
 44
0.0000000001
 40
0.0
 40
0.0
 40
0.0
 40
0.0
 40
0.1124971706
 40
0.2264748338
 40
0.4635765652
 40
0.7201488245
 40
1.0
 40
1.0
 40
1.0
 40
1.0
 10
320.5014043304
 20
70.3901705497
 30
0.0
 10
320.5794036096
 20
70.4293720731
 30
0.0
 10
320.7306115223
 20
70.5205460098
 30
0.0
 10
321.0079857025
 20
70.7514083686
 30
0.0
 10
321.2989505946
 20
71.1309147492
 30
0.0
 10
321.5337446655
 20
71.6888295474
 30
0.0
 10
321.6112456684
 20
72.1009655941
 30
0.0
 10
321.632908884
 20
72.3170431811
 30
0.0
  0
SPLINE
  5
604
100
AcDbEntity
  8
0
100
AcDbSpline
 62
7
  6
CONTINUOUS
 70
0
 71
3
 72
9
 73
5
 74
0
 42
0.0000001
 43
0.0000001
 44
0.0000000001
 40
0.0
 40
0.0
 40
0.0
 40
0.0
 40
0.242085755
 40
1.0
 40
1.0
 40
1.0
 40
1.0
 10
321.632908884
 20
72.3170431811
 30
0.0
 10
321.6398560964
 20
72.3863374603
 30
0.0
 10
321.660591666
 20
72.6733514026
 30
0.0
 10
321.6506131685
 20
72.9623111334
 30
0.0
 10
321.6284823774
 20
73.179216916
 30
0.0
  0
SPLINE
  5
605
100
AcDbEntity
  8
0
100
AcDbSpline
 62
7
  6
CONTINUOUS
 70
0
 71
3
 72
11
 73
7
 74
0
 42
0.0000001
 43
0.0000001
 44
0.0000000001
 40
0.0
 40
0.0
 40
0.0
 40
0.0
 40
0.2453207715
 40
0.4999905416
 40
0.7546648265
 40
1.0
 40
1.0
 40
1.0
 40
1.0
 10
321.6228298791
 20
73.231782958
 30
0.0
 10
321.5860896459
 20
73.5568710235
 30
0.0
 10
321.4451617652
 20
74.2130800891
 30
0.0
 10
321.0672716501
 20
75.1506441335
 30
0.0
 10
320.5405778326
 20
76.0134597004
 30
0.0
 10
320.0982112442
 20
76.5182554169
 30
0.0
 10
319.8592968709
 20
76.7417830097
 30
0.0
  0
SPLINE
  5
606
100
AcDbEntity
  8
0
100
AcDbSpline
 62
7
  6
CONTINUOUS
 70
0
 71
3
 72
11
 73
7
 74
0
 42
0.0000001
 43
0.0000001
 44
0.0000000001
 40
0.0
 40
0.0
 40
0.0
 40
0.0
 40
0.2444637252
 40
0.4982711315
 40
0.7529739656
 40
1.0
 40
1.0
 40
1.0
 40
1.0
 10
319.4007502007
 20
71.847386998
 30
0.0
 10
319.3619834713
 20
72.1939873234
 30
0.0
 10
319.2157438522
 20
72.8940183417
 30
0.0
 10
318.8251679426
 20
73.8993859871
 30
0.0
 10
318.2797649455
 20
74.8341023988
 30
0.0
 10
317.8212161419
 20
75.3890966348
 30
0.0
 10
317.572795832
 20
75.639066927
 30
0.0
  0
SPLINE
  5
607
100
AcDbEntity
  8
02___PRT_ALL_AXES
100
AcDbSpline
 62
7
  6
CONTINUOUS
 70
0
 71
3
 72
10
 73
6
 74
0
 42
0.0000001
 43
0.0000001
 44
0.0000000001
 40
0.0
 40
0.0
 40
0.0
 40
0.0
 40
0.522528318
 40
0.7658235624
 40
1.0
 40
1.0
 40
1.0
 40
1.0
 10
320.0889872136
 20
77.1993720815
 30
0.0
 10
319.9323362996
 20
77.2623849193
 30
0.0
 10
319.6894677108
 20
77.3285502412
 30
0.0
 10
319.3654458947
 20
77.3394328408
 30
0.0
 10
319.2115783481
 20
77.3189525872
 30
0.0
 10
319.1377636585
 20
77.3022917601
 30
0.0
  0
SPLINE
  5
608
100
AcDbEntity
  8
02___PRT_ALL_AXES
100
AcDbSpline
 62
7
  6
CONTINUOUS
 70
0
 71
3
 72
17
 73
13
 74
0
 42
0.0000001
 43
0.0000001
 44
0.0000000001
 40
0.0
 40
0.0
 40
0.0
 40
0.0
 40
0.1192257395
 40
0.2510209329
 40
0.3905857225
 40
0.5314271365
 40
0.6667956783
 40
0.7910820047
 40
0.8481578662
 40
0.9017070129
 40
0.9520820473
 40
1.0
 40
1.0
 40
1.0
 40
1.0
 10
320.0889872136
 20
77.1993720815
 30
0.0
 10
320.3042340974
 20
77.1127890119
 30
0.0
 10
320.7291667401
 20
76.8578563522
 30
0.0
 10
321.2753778286
 20
76.3218454983
 30
0.0
 10
321.7277768191
 20
75.6533229137
 30
0.0
 10
322.0498362376
 20
74.9057815095
 30
0.0
 10
322.2160526656
 20
74.1392269326
 30
0.0
 10
322.2124666835
 20
73.5158311636
 30
0.0
 10
322.1142572174
 20
73.0678194458
 30
0.0
 10
321.9997579288
 20
72.7745847146
 30
0.0
 10
321.8444515373
 20
72.5212728609
 30
0.0
 10
321.7128474085
 20
72.3801782938
 30
0.0
 10
321.6420985542
 20
72.3194372249
 30
0.0
  0
SPLINE
  5
609
100
AcDbEntity
  8
02___PRT_ALL_AXES
100
AcDbSpline
 62
7
  6
CONTINUOUS
 70
0
 71
3
 72
9
 73
5
 74
0
 42
0.0000001
 43
0.0000001
 44
0.0000000001
 40
0.0
 40
0.0
 40
0.0
 40
0.0
 40
0.5199586042
 40
1.0
 40
1.0
 40
1.0
 40
1.0
 10
320.0915469903
 20
77.0208513071
 30
0.0
 10
319.9721992386
 20
77.0688589461
 30
0.0
 10
319.7329459267
 20
77.1396451608
 30
0.0
 10
319.4826810128
 20
77.1520511372
 30
0.0
 10
319.3644157254
 20
77.141160851
 30
0.0
  0
SPLINE
  5
60A
100
AcDbEntity
  8
02___PRT_ALL_AXES
100
AcDbSpline
 62
7
  6
CONTINUOUS
 70
0
 71
3
 72
17
 73
13
 74
0
 42
0.0000001
 43
0.0000001
 44
0.0000000001
 40
0.0
 40
0.0
 40
0.0
 40
0.0
 40
0.1177951445
 40
0.2476809819
 40
0.3854017762
 40
0.5251097912
 40
0.6605885934
 40
0.7864235106
 40
0.84468757
 40
0.8995513662
 40
0.9511679121
 40
1.0
 40
1.0
 40
1.0
 40
1.0
 10
320.0915469903
 20
77.0208513071
 30
0.0
 10
320.2832442216
 20
76.9437410864
 30
0.0
 10
320.6622418076
 20
76.7196227559
 30
0.0
 10
321.1542652314
 20
76.2496316412
 30
0.0
 10
321.5684414435
 20
75.6622538471
 30
0.0
 10
321.8738370393
 20
75.0010863431
 30
0.0
 10
322.0480288289
 20
74.3153746692
 30
0.0
 10
322.0731955755
 20
73.74996049
 30
0.0
 10
322.0120708905
 20
73.3341373823
 30
0.0
 10
321.930059493
 20
73.0558805474
 30
0.0
 10
321.8121312462
 20
72.8089483728
 30
0.0
 10
321.7082129469
 20
72.6650973901
 30
0.0
 10
321.6512721754
 20
72.601106871
 30
0.0
  0
SPLINE
  5
60B
100
AcDbEntity
  8
0
100
AcDbSpline
 62
7
  6
CONTINUOUS
 70
0
 71
3
 72
12
 73
8
 74
0
 42
0.0000001
 43
0.0000001
 44
0.0000000001
 40
0.0
 40
0.0
 40
0.0
 40
0.0
 40
0.2796476739
 40
0.5361502389
 40
0.7733382301
 40
0.8874019364
 40
1.0
 40
1.0
 40
1.0
 40
1.0
 10
254.3282677589
 20
23.6177503783
 30
0.0
 10
254.3506416065
 20
23.8321835833
 30
0.0
 10
254.429189953
 20
24.2411263941
 30
0.0
 10
254.6642617883
 20
24.7944769524
 30
0.0
 10
254.9542641729
 20
25.1708421809
 30
0.0
 10
255.2302836029
 20
25.3999874881
 30
0.0
 10
255.3806677138
 20
25.4905758219
 30
0.0
 10
255.4582312609
 20
25.5295583513
 30
0.0
  0
SPLINE
  5
60C
100
AcDbEntity
  8
02___PRT_ALL_AXES
100
AcDbSpline
 62
7
  6
CONTINUOUS
 70
0
 71
3
 72
17
 73
13
 74
0
 42
0.0000001
 43
0.0000001
 44
0.0000000001
 40
0.0
 40
0.0
 40
0.0
 40
0.0
 40
0.1192274121
 40
0.251022263
 40
0.3905878059
 40
0.5314296415
 40
0.6667977277
 40
0.7910839552
 40
0.8481595479
 40
0.9017080969
 40
0.9520824774
 40
1.0
 40
1.0
 40
1.0
 40
1.0
 10
254.6832851784
 20
18.4158489452
 30
0.0
 10
254.492796403
 20
18.4924730644
 30
0.0
 10
254.1167441994
 20
18.7180826831
 30
0.0
 10
253.6333673444
 20
19.1924396555
 30
0.0
 10
253.2330084412
 20
19.7840605336
 30
0.0
 10
252.9480100447
 20
20.4456167948
 30
0.0
 10
252.8009252709
 20
21.1239924998
 30
0.0
 10
252.8041012199
 20
21.675675306
 30
0.0
 10
252.8910231635
 20
22.0721469695
 30
0.0
 10
252.9923625443
 20
22.3316423585
 30
0.0
 10
253.1298131717
 20
22.5558059051
 30
0.0
 10
253.2462867581
 20
22.6806587291
 30
0.0
 10
253.3088978968
 20
22.7344103845
 30
0.0
  0
SPLINE
  5
60D
100
AcDbEntity
  8
0
100
AcDbSpline
 62
7
  6
CONTINUOUS
 70
0
 71
3
 72
11
 73
7
 74
0
 42
0.0000001
 43
0.0000001
 44
0.0000000001
 40
0.0
 40
0.0
 40
0.0
 40
0.0
 40
0.2631588859
 40
0.5154172495
 40
0.7597851007
 40
1.0
 40
1.0
 40
1.0
 40
1.0
 10
256.8626847222
 20
26.2465942338
 30
0.0
 10
256.9169459974
 20
26.35701888
 30
0.0
 10
257.0381427546
 20
26.5664502026
 30
0.0
 10
257.2617216543
 20
26.8443764221
 30
0.0
 10
257.5200087927
 20
27.0747457995
 30
0.0
 10
257.713837743
 20
27.194685851
 30
0.0
 10
257.8141858579
 20
27.2451196378
 30
0.0
  0
SPLINE
  5
60E
100
AcDbEntity
  8
0
100
AcDbSpline
 62
7
  6
CONTINUOUS
 70
0
 71
3
 72
9
 73
5
 74
0
 42
0.0000001
 43
0.0000001
 44
0.0000000001
 40
0.0
 40
0.0
 40
0.0
 40
0.0
 40
0.2447724275
 40
1.0
 40
1.0
 40
1.0
 40
1.0
 10
257.2281316506
 20
18.4174336457
 30
0.0
 10
257.195173148
 20
18.4317359111
 30
0.0
 10
257.0615233201
 20
18.4924549871
 30
0.0
 10
256.9319369616
 20
18.5620311915
 30
0.0
 10
256.8366947754
 20
18.6187527322
 30
0.0
  0
SPLINE
  5
60F
100
AcDbEntity
  8
0
100
AcDbSpline
 62
7
  6
CONTINUOUS
 70
0
 71
3
 72
11
 73
7
 74
0
 42
0.0000001
 43
0.0000001
 44
0.0000000001
 40
0.0
 40
0.0
 40
0.0
 40
0.0
 40
0.2450680898
 40
0.5000038699
 40
0.7549379993
 40
1.0
 40
1.0
 40
1.0
 40
1.0
 10
264.6599114242
 20
28.142211208
 30
0.0
 10
264.9306188839
 20
27.8944773327
 30
0.0
 10
265.4316566727
 20
27.3311025946
 30
0.0
 10
266.025578063
 20
26.3631192476
 30
0.0
 10
266.447832497
 20
25.3088774103
 30
0.0
 10
266.6008219776
 20
24.5706342095
 30
0.0
 10
266.638052906
 20
24.2055838454
 30
0.0
  0
SPLINE
  5
610
100
AcDbEntity
  8
02___PRT_ALL_AXES
100
AcDbSpline
 62
7
  6
CONTINUOUS
 70
0
 71
3
 72
10
 73
6
 74
0
 42
0.0000001
 43
0.0000001
 44
0.0000000001
 40
0.0
 40
0.0
 40
0.0
 40
0.0
 40
0.5225334848
 40
0.7658280689
 40
1.0
 40
1.0
 40
1.0
 40
1.0
 10
254.6832851784
 20
18.4158489452
 30
0.0
 10
254.821921301
 20
18.360082558
 30
0.0
 10
255.0368595982
 20
18.3015305318
 30
0.0
 10
255.3236172548
 20
18.2918966607
 30
0.0
 10
255.4597853037
 20
18.3100358282
 30
0.0
 10
255.5251092268
 20
18.3247811419
 30
0.0
  0
SPLINE
  5
611
100
AcDbEntity
  8
0
100
AcDbSpline
 62
7
  6
CONTINUOUS
 70
0
 71
3
 72
9
 73
5
 74
0
 42
0.0000001
 43
0.0000001
 44
0.0000000001
 40
0.0
 40
0.0
 40
0.0
 40
0.0
 40
0.2357779962
 40
1.0
 40
1.0
 40
1.0
 40
1.0
 10
263.3159135056
 20
29.0248428422
 30
0.0
 10
263.4296141191
 20
28.9791067652
 30
0.0
 10
263.9013932121
 20
28.7592549988
 30
0.0
 10
264.3269627109
 20
28.4468834312
 30
0.0
 10
264.6200182666
 20
28.1787178428
 30
0.0
  0
SPLINE
  5
612
100
AcDbEntity
  8
0
100
AcDbSpline
 62
7
  6
CONTINUOUS
 70
0
 71
3
 72
14
 73
10
 74
0
 42
0.0000001
 43
0.0000001
 44
0.0000000001
 40
0.0
 40
0.0
 40
0.0
 40
0.0
 40
0.2888935468
 40
0.4230274614
 40
0.5498229767
 40
0.6696645296
 40
0.7835177824
 40
0.8929410592
 40
1.0
 40
1.0
 40
1.0
 40
1.0
 10
266.6434990304
 20
24.1521946482
 30
0.0
 10
266.6784025766
 20
23.8101020157
 30
0.0
 10
266.6823528748
 20
23.3012089103
 30
0.0
 10
266.5687217597
 20
22.6552646605
 30
0.0
 10
266.4311889097
 20
22.2217726308
 30
0.0
 10
266.2412200827
 20
21.8350578314
 30
0.0
 10
266.0014140075
 20
21.5018251621
 30
0.0
 10
265.7156085171
 20
21.2284842143
 30
0.0
 10
265.496440773
 20
21.0891738476
 30
0.0
 10
265.3825804763
 20
21.0319489965
 30
0.0
  0
SPLINE
  5
613
100
AcDbEntity
  8
0
100
AcDbSpline
 62
7
  6
CONTINUOUS
 70
0
 71
3
 72
11
 73
7
 74
0
 42
0.0000001
 43
0.0000001
 44
0.0000000001
 40
0.0
 40
0.0
 40
0.0
 40
0.0
 40
0.2401508647
 40
0.4844876698
 40
0.7367622911
 40
1.0
 40
1.0
 40
1.0
 40
1.0
 10
261.8329697909
 20
19.2481365987
 30
0.0
 10
261.732240161
 20
19.1975110669
 30
0.0
 10
261.5194617465
 20
19.1133133288
 30
0.0
 10
261.1790550561
 20
19.0435808537
 30
0.0
 10
260.8211076063
 20
19.030505895
 30
0.0
 10
260.5797584016
 20
19.0588317021
 30
0.0
 10
260.458288407
 20
19.0815370491
 30
0.0
  0
SPLINE
  5
614
100
AcDbEntity
  8
02___PRT_ALL_AXES
100
AcDbSpline
 62
7
  6
CONTINUOUS
 70
0
 71
3
 72
11
 73
7
 74
0
 42
0.0000001
 43
0.0000001
 44
0.0000000001
 40
0.0
 40
0.0
 40
0.0
 40
0.0
 40
0.232980295
 40
0.473532772
 40
0.7278883829
 40
1.0
 40
1.0
 40
1.0
 40
1.0
 10
253.7194839977
 20
22.5013682815
 30
0.0
 10
253.7841355672
 20
22.533862486
 30
0.0
 10
253.9242937113
 20
22.5837920314
 30
0.0
 10
254.1510369906
 20
22.6072545945
 30
0.0
 10
254.3893297611
 20
22.5801510981
 30
0.0
 10
254.5463244164
 20
22.531050424
 30
0.0
 10
254.6247302866
 20
22.4995116589
 30
0.0
  0
SPLINE
  5
615
100
AcDbEntity
  8
02___PRT_ALL_AXES
100
AcDbSpline
 62
7
  6
CONTINUOUS
 70
0
 71
3
 72
11
 73
7
 74
0
 42
0.0000001
 43
0.0000001
 44
0.0000000001
 40
0.0
 40
0.0
 40
0.0
 40
0.0
 40
0.235934471
 40
0.474265862
 40
0.7263600777
 40
1.0
 40
1.0
 40
1.0
 40
1.0
 10
254.3175370365
 20
23.6002916759
 30
0.0
 10
254.4109421613
 20
23.6804841705
 30
0.0
 10
254.624214992
 20
23.8148219823
 30
0.0
 10
254.9969220604
 20
23.9098609749
 30
0.0
 10
255.3999989583
 20
23.8945798722
 30
0.0
 10
255.6658686749
 20
23.8168531545
 30
0.0
 10
255.7983346855
 20
23.7635686953
 30
0.0
  0
SPLINE
  5
616
100
AcDbEntity
  8
0
100
AcDbSpline
 62
7
  6
CONTINUOUS
 70
0
 71
3
 72
11
 73
7
 74
0
 42
0.0000001
 43
0.0000001
 44
0.0000000001
 40
0.0
 40
0.0
 40
0.0
 40
0.0
 40
0.232977082
 40
0.4735402427
 40
0.7278755848
 40
1.0
 40
1.0
 40
1.0
 40
1.0
 10
259.0504403494
 20
18.3814170812
 30
0.0
 10
258.9258227726
 20
18.3187857481
 30
0.0
 10
258.6556454492
 20
18.2225712491
 30
0.0
 10
258.2185955924
 20
18.1773891388
 30
0.0
 10
257.7592751094
 20
18.2296228254
 30
0.0
 10
257.4566688625
 20
18.3242771522
 30
0.0
 10
257.305531339
 20
18.3850722289
 30
0.0
  0
SPLINE
  5
617
100
AcDbEntity
  8
0
100
AcDbSpline
 62
7
  6
CONTINUOUS
 70
0
 71
3
 72
11
 73
7
 74
0
 42
0.0000001
 43
0.0000001
 44
0.0000000001
 40
0.0
 40
0.0
 40
0.0
 40
0.0
 40
0.2329770789
 40
0.4735402381
 40
0.7278755818
 40
1.0
 40
1.0
 40
1.0
 40
1.0
 10
261.3637965418
 20
29.0289320349
 30
0.0
 10
261.5032124542
 20
29.099000839
 30
0.0
 10
261.8054733326
 20
29.2066408107
 30
0.0
 10
262.2944228598
 20
29.2571883001
 30
0.0
 10
262.8082876549
 20
29.1987518642
 30
0.0
 10
263.1468283985
 20
29.0928573354
 30
0.0
 10
263.3159135056
 20
29.0248428422
 30
0.0
  0
SPLINE
  5
618
100
AcDbEntity
  8
02___PRT_ALL_AXES
100
AcDbSpline
 62
7
  6
CONTINUOUS
 70
0
 71
3
 72
17
 73
13
 74
0
 42
0.0000001
 43
0.0000001
 44
0.0000000001
 40
0.0
 40
0.0
 40
0.0
 40
0.0
 40
0.0472561537
 40
0.0959959459
 40
0.1474399878
 40
0.2023910524
 40
0.3235070098
 40
0.4581586868
 40
0.6006148179
 40
0.743223717
 40
0.8782982064
 40
1.0
 40
1.0
 40
1.0
 40
1.0
 10
255.5830919418
 20
18.7933489681
 30
0.0
 10
255.6465053462
 20
18.8252208646
 30
0.0
 10
255.7678998357
 20
18.9059707197
 30
0.0
 10
255.9199064225
 20
19.0694193116
 30
0.0
 10
256.0397123136
 20
19.2711115699
 30
0.0
 10
256.1568372641
 20
19.5938617995
 30
0.0
 10
256.2033799412
 20
20.0655065463
 30
0.0
 10
256.1128086981
 20
20.661430272
 30
0.0
 10
255.8881854341
 20
21.2551484683
 30
0.0
 10
255.5495902584
 20
21.7928762328
 30
0.0
 10
255.1281378477
 20
22.2259905615
 30
0.0
 10
254.7943050777
 20
22.4313001908
 30
0.0
 10
254.6247302866
 20
22.4995116589
 30
0.0
  0
SPLINE
  5
619
100
AcDbEntity
  8
02___PRT_ALL_AXES
100
AcDbSpline
 62
7
  6
CONTINUOUS
 70
0
 71
3
 72
21
 73
17
 74
0
 42
0.0000001
 43
0.0000001
 44
0.0000000001
 40
0.0
 40
0.0
 40
0.0
 40
0.0
 40
0.047928904
 40
0.0959151498
 40
0.1456479073
 40
0.1984721124
 40
0.226352295
 40
0.2552658298
 40
0.3161918922
 40
0.3811165925
 40
0.4494785472
 40
0.5927661704
 40
0.7378752986
 40
0.808391662
 40
0.8761188364
 40
1.0
 40
1.0
 40
1.0
 40
1.0
 10
256.8218719322
 20
18.6174371407
 30
0.0
 10
256.9221752839
 20
18.6400767644
 30
0.0
 10
257.118318087
 20
18.7104820463
 30
0.0
 10
257.3782693211
 20
18.8897170231
 30
0.0
 10
257.5930512599
 20
19.1349471787
 30
0.0
 10
257.7273191502
 20
19.3829003481
 30
0.0
 10
257.808859525
 20
19.6037492308
 30
0.0
 10
257.8747882493
 20
19.8478733972
 30
0.0
 10
257.9201000986
 20
20.1783056935
 30
0.0
 10
257.9163544569
 20
20.5962191748
 30
0.0
 10
257.8343101216
 20
21.185266222
 30
0.0
 10
257.5938344533
 20
21.9191218598
 30
0.0
 10
257.2019649994
 20
22.5892380605
 30
0.0
 10
256.810340167
 20
23.0561146881
 30
0.0
 10
256.3995785978
 20
23.4409197893
 30
0.0
 10
256.0449083683
 20
23.6643844192
 30
0.0
 10
255.7983346855
 20
23.7635686953
 30
0.0
  0
SPLINE
  5
61A
100
AcDbEntity
  8
0
100
AcDbSpline
 62
7
  6
CONTINUOUS
 70
0
 71
3
 72
19
 73
15
 74
0
 42
0.0000001
 43
0.0000001
 44
0.0000000001
 40
0.0
 40
0.0
 40
0.0
 40
0.0
 40
0.1216454565
 40
0.187900688
 40
0.256887271
 40
0.3994329097
 40
0.5418247989
 40
0.6106284116
 40
0.6766427391
 40
0.7977023883
 40
0.8526278032
 40
0.9040478615
 40
0.9527650927
 40
1.0
 40
1.0
 40
1.0
 40
1.0
 10
257.2031402713
 20
25.5259032037
 30
0.0
 10
257.5300347771
 20
25.3944098717
 30
0.0
 10
258.0018776103
 20
25.1042966513
 30
0.0
 10
258.555173739
 20
24.605843854
 30
0.0
 10
259.0886365799
 20
24.001128518
 30
0.0
 10
259.6386693747
 20
23.1270287112
 30
0.0
 10
260.0041653313
 20
22.1616114008
 30
0.0
 10
260.1640041368
 20
21.3729477112
 30
0.0
 10
260.2266193296
 20
20.6336590998
 30
0.0
 10
260.1565543076
 20
19.9244094802
 30
0.0
 10
259.9307593485
 20
19.3023603133
 30
0.0
 10
259.699777031
 20
18.9135490864
 30
0.0
 10
259.4067290146
 20
18.5984826307
 30
0.0
 10
259.1726867565
 20
18.4428566923
 30
0.0
 10
259.0504403494
 20
18.3814170812
 30
0.0
  0
SPLINE
  5
61B
100
AcDbEntity
  8
0
100
AcDbSpline
 62
7
  6
CONTINUOUS
 70
0
 71
3
 72
20
 73
16
 74
0
 42
0.0000001
 43
0.0000001
 44
0.0000000001
 40
0.0
 40
0.0
 40
0.0
 40
0.0
 40
0.1216073238
 40
0.1878417853
 40
0.2568067412
 40
0.3993076928
 40
0.5416549426
 40
0.6104369855
 40
0.6764306178
 40
0.7390007934
 40
0.7977658076
 40
0.8526740035
 40
0.9040779419
 40
0.9527799006
 40
1.0
 40
1.0
 40
1.0
 40
1.0
 10
259.766302821
 20
27.2410304448
 30
0.0
 10
260.1320160559
 20
27.093922277
 30
0.0
 10
260.6598902583
 20
26.7693576201
 30
0.0
 10
261.2788902305
 20
26.2117149331
 30
0.0
 10
261.8757021089
 20
25.5351835581
 30
0.0
 10
262.4910486798
 20
24.5573329005
 30
0.0
 10
262.8999562462
 20
23.4771058156
 30
0.0
 10
263.0787583878
 20
22.595113489
 30
0.0
 10
263.1328517426
 20
21.9561053053
 30
0.0
 10
263.1069878368
 20
21.3476153101
 30
0.0
 10
263.0013697514
 20
20.7839186809
 30
0.0
 10
262.8177992435
 20
20.2784078274
 30
0.0
 10
262.5594219641
 20
19.8434676712
 30
0.0
 10
262.2315659067
 20
19.490976418
 30
0.0
 10
261.9697329579
 20
19.3168721639
 30
0.0
 10
261.8329697909
 20
19.2481365987
 30
0.0
  0
SPLINE
  5
61C
100
AcDbEntity
  8
0
100
AcDbSpline
 62
7
  6
CONTINUOUS
 70
0
 71
3
 72
22
 73
18
 74
0
 42
0.0000001
 43
0.0000001
 44
0.0000000001
 40
0.0
 40
0.0
 40
0.0
 40
0.0
 40
0.1266429027
 40
0.1962501438
 40
0.2686665715
 40
0.3426343174
 40
0.4167725891
 40
0.4896877203
 40
0.5600812282
 40
0.6268628492
 40
0.6892747095
 40
0.7470305934
 40
0.8004602219
 40
0.8506129805
 40
0.8992134843
 40
0.9483562783
 40
1.0
 40
1.0
 40
1.0
 40
1.0
 10
259.6999710772
 20
27.1177926786
 30
0.0
 10
260.119781324
 20
26.948923988
 30
0.0
 10
260.7202214194
 20
26.5562450058
 30
0.0
 10
261.4015801805
 20
25.8789390228
 30
0.0
 10
261.8763937373
 20
25.2674486622
 30
0.0
 10
262.2817795084
 20
24.5897640895
 30
0.0
 10
262.6052750897
 20
23.8672786747
 30
0.0
 10
262.8362671489
 20
23.1234341062
 30
0.0
 10
262.9672779738
 20
22.3820998493
 30
0.0
 10
262.9938740997
 20
21.6669373712
 30
0.0
 10
262.9146648066
 20
21.000552957
 30
0.0
 10
262.7309927726
 20
20.4039755734
 30
0.0
 10
262.4465689291
 20
19.8967237349
 30
0.0
 10
262.0680614083
 20
19.4975974249
 30
0.0
 10
261.6074707118
 20
19.2243287063
 30
0.0
 10
261.08428173
 20
19.0892869565
 30
0.0
 10
260.7199151848
 20
19.093372095
 30
0.0
 10
260.5367590399
 20
19.1158104596
 30
0.0
  0
SPLINE
  5
61D
100
AcDbEntity
  8
0
100
AcDbSpline
 62
7
  6
CONTINUOUS
 70
0
 71
3
 72
14
 73
10
 74
0
 42
0.0000001
 43
0.0000001
 44
0.0000000001
 40
0.0
 40
0.0
 40
0.0
 40
0.0
 40
0.1268436658
 40
0.2483864028
 40
0.3668696625
 40
0.4849236659
 40
0.6052388395
 40
0.7302014645
 40
1.0
 40
1.0
 40
1.0
 40
1.0
 10
256.9263070713
 20
26.269485923
 30
0.0
 10
256.9923370593
 20
26.3872851597
 30
0.0
 10
257.1406426944
 20
26.608114233
 30
0.0
 10
257.4154132895
 20
26.8889115808
 30
0.0
 10
257.7323607531
 20
27.105404335
 30
0.0
 10
258.0852790053
 20
27.2529206741
 30
0.0
 10
258.4671877337
 20
27.3286517718
 30
0.0
 10
259.0180581101
 20
27.3331034008
 30
0.0
 10
259.433483891
 20
27.2249871634
 30
0.0
 10
259.6999710772
 20
27.1177926786
 30
0.0
  0
SPLINE
  5
61E
100
AcDbEntity
  8
02___PRT_ALL_AXES
100
AcDbSpline
 62
7
  6
CONTINUOUS
 70
0
 71
3
 72
17
 73
13
 74
0
 42
0.0000001
 43
0.0000001
 44
0.0000000001
 40
0.0
 40
0.0
 40
0.0
 40
0.0
 40
0.1217017936
 40
0.256776283
 40
0.3993851821
 40
0.5418413132
 40
0.6764929902
 40
0.7976089476
 40
0.8525600122
 40
0.9040040541
 40
0.9527438463
 40
1.0
 40
1.0
 40
1.0
 40
1.0
 10
254.6778456529
 20
18.7952055907
 30
0.0
 10
254.5082708618
 20
18.8634170588
 30
0.0
 10
254.1744380918
 20
19.0687266881
 30
0.0
 10
253.7529856811
 20
19.5018410168
 30
0.0
 10
253.4143905054
 20
20.0395687813
 30
0.0
 10
253.1897672414
 20
20.6332869775
 30
0.0
 10
253.0991959983
 20
21.2292107033
 30
0.0
 10
253.1457386754
 20
21.7008554501
 30
0.0
 10
253.2628636259
 20
22.0236056797
 30
0.0
 10
253.382669517
 20
22.225297938
 30
0.0
 10
253.5346761038
 20
22.3887465299
 30
0.0
 10
253.6560705933
 20
22.469496385
 30
0.0
 10
253.7194839977
 20
22.5013682815
 30
0.0
  0
SPLINE
  5
61F
100
AcDbEntity
  8
0
100
AcDbSpline
 62
7
  6
CONTINUOUS
 70
0
 71
3
 72
11
 73
7
 74
0
 42
0.0000001
 43
0.0000001
 44
0.0000000001
 40
0.0
 40
0.0
 40
0.0
 40
0.0
 40
0.245307175
 40
0.5000089028
 40
0.7547064005
 40
1.0
 40
1.0
 40
1.0
 40
1.0
 10
264.6595590009
 20
28.1421737252
 30
0.0
 10
264.9278611568
 20
27.8917370772
 30
0.0
 10
265.4246184474
 20
27.3257614315
 30
0.0
 10
266.0157922151
 20
26.3578431608
 30
0.0
 10
266.4395341469
 20
25.3058163781
 30
0.0
 10
266.5970868176
 20
24.5694533294
 30
0.0
 10
266.6378809436
 20
24.2047267305
 30
0.0
  0
SPLINE
  5
620
100
AcDbEntity
  8
02___PRT_ALL_AXES
100
AcDbSpline
 62
7
  6
CONTINUOUS
 70
0
 71
3
 72
18
 73
14
 74
0
 42
0.0000001
 43
0.0000001
 44
0.0000000001
 40
0.0
 40
0.0
 40
0.0
 40
0.0
 40
0.0470361598
 40
0.0951809609
 40
0.1453943343
 40
0.1983854885
 40
0.3138370642
 40
0.3766007019
 40
0.4422939964
 40
0.5803297886
 40
0.7231485666
 40
0.8649220684
 40
1.0
 40
1.0
 40
1.0
 40
1.0
 10
261.5519510114
 20
19.6385199362
 30
0.0
 10
261.6572434236
 20
19.6914283363
 30
0.0
 10
261.859725287
 20
19.8211150508
 30
0.0
 10
262.1220333362
 20
20.0770584733
 30
0.0
 10
262.3399929043
 20
20.389912006
 30
0.0
 10
262.5729557275
 20
20.8880867281
 30
0.0
 10
262.6923630038
 20
21.463663642
 30
0.0
 10
262.7105464076
 20
22.0750640686
 30
0.0
 10
262.6574742532
 20
22.7418804734
 30
0.0
 10
262.4568524956
 20
23.5923609638
 30
0.0
 10
262.0328875546
 20
24.5683211348
 30
0.0
 10
261.4511095884
 20
25.4502207847
 30
0.0
 10
260.9661666706
 20
25.9536135865
 30
0.0
 10
260.7062061068
 20
26.1702677361
 30
0.0
  0
SPLINE
  5
621
100
AcDbEntity
  8
02___PRT_ALL_AXES
100
AcDbSpline
 62
7
  6
CONTINUOUS
 70
0
 71
3
 72
9
 73
5
 74
0
 42
0.0000001
 43
0.0000001
 44
0.0000000001
 40
0.0
 40
0.0
 40
0.0
 40
0.0
 40
0.261343221
 40
1.0
 40
1.0
 40
1.0
 40
1.0
 10
260.5756104907
 20
26.2750622264
 30
0.0
 10
260.5059670335
 20
26.3288189141
 30
0.0
 10
260.233435771
 20
26.5263699462
 30
0.0
 10
259.9354640117
 20
26.690269814
 30
0.0
 10
259.7047706585
 20
26.7830662266
 30
0.0
  0
SPLINE
  5
622
100
AcDbEntity
  8
02___PRT_ALL_AXES
100
AcDbSpline
 62
7
  6
CONTINUOUS
 70
0
 71
3
 72
11
 73
7
 74
0
 42
0.0000001
 43
0.0000001
 44
0.0000000001
 40
0.0
 40
0.0
 40
0.0
 40
0.0
 40
0.2359330761
 40
0.4742653425
 40
0.7263605553
 40
1.0
 40
1.0
 40
1.0
 40
1.0
 10
253.3088978968
 20
22.7344103845
 30
0.0
 10
253.3915551203
 20
22.8053716015
 30
0.0
 10
253.5802898529
 20
22.9242402221
 30
0.0
 10
253.9101067926
 20
23.0083327646
 30
0.0
 10
254.2667970109
 20
22.9948037629
 30
0.0
 10
254.5020694135
 20
22.9260205973
 30
0.0
 10
254.6192907611
 20
22.8788683044
 30
0.0
  0
SPLINE
  5
623
100
AcDbEntity
  8
0
100
AcDbSpline
 62
7
  6
CONTINUOUS
 70
0
 71
3
 72
9
 73
5
 74
0
 42
0.0000001
 43
0.0000001
 44
0.0000000001
 40
0.0
 40
0.0
 40
0.0
 40
0.0
 40
0.2446905162
 40
1.0
 40
1.0
 40
1.0
 40
1.0
 10
257.2366398185
 20
18.440355237
 30
0.0
 10
257.2048370218
 20
18.4531479135
 30
0.0
 10
257.075774471
 20
18.5076726855
 30
0.0
 10
256.9504171772
 20
18.570873321
 30
0.0
 10
256.8581619473
 20
18.6226941753
 30
0.0
  0
SPLINE
  5
624
100
AcDbEntity
  8
02___PRT_ALL_AXES
100
AcDbSpline
 62
7
  6
CONTINUOUS
 70
0
 71
3
 72
11
 73
7
 74
0
 42
0.0000001
 43
0.0000001
 44
0.0000000001
 40
0.0
 40
0.0
 40
0.0
 40
0.0
 40
0.2329788131
 40
0.4735364392
 40
0.7278816907
 40
1.0
 40
1.0
 40
1.0
 40
1.0
 10
256.0079293113
 20
24.2669447624
 30
0.0
 10
256.0897173161
 20
24.3080521273
 30
0.0
 10
256.2670273565
 20
24.3712208111
 30
0.0
 10
256.5538713612
 20
24.4008939343
 30
0.0
 10
256.8553288688
 20
24.3666139906
 30
0.0
 10
257.0539358899
 20
24.3044951716
 30
0.0
 10
257.153127104
 20
24.2645955009
 30
0.0
  0
SPLINE
  5
625
100
AcDbEntity
  8
0
100
AcDbSpline
 62
7
  6
CONTINUOUS
 70
0
 71
3
 72
11
 73
7
 74
0
 42
0.0000001
 43
0.0000001
 44
0.0000000001
 40
0.0
 40
0.0
 40
0.0
 40
0.0
 40
0.2329770821
 40
0.4735402427
 40
0.7278755848
 40
1.0
 40
1.0
 40
1.0
 40
1.0
 10
255.4582312609
 20
25.5295583513
 30
0.0
 10
255.5828488376
 20
25.5921896845
 30
0.0
 10
255.853026161
 20
25.6884041834
 30
0.0
 10
256.2900760178
 20
25.7335862936
 30
0.0
 10
256.7493965009
 20
25.6813526076
 30
0.0
 10
257.0520027475
 20
25.5866982796
 30
0.0
 10
257.2031402713
 20
25.5259032037
 30
0.0
  0
SPLINE
  5
626
100
AcDbEntity
  8
02___PRT_ALL_AXES
100
AcDbSpline
 62
7
  6
CONTINUOUS
 70
0
 71
3
 72
11
 73
7
 74
0
 42
0.0000001
 43
0.0000001
 44
0.0000000001
 40
0.0
 40
0.0
 40
0.0
 40
0.0
 40
0.2329767685
 40
0.4735406774
 40
0.7278764457
 40
1.0
 40
1.0
 40
1.0
 40
1.0
 10
257.9599813734
 20
26.7867815423
 30
0.0
 10
258.0845944516
 20
26.8493983868
 30
0.0
 10
258.3547580542
 20
26.9455870489
 30
0.0
 10
258.7917773217
 20
26.9907460998
 30
0.0
 10
259.2510621284
 20
26.9385055673
 30
0.0
 10
259.5536448154
 20
26.8438566045
 30
0.0
 10
259.7047706585
 20
26.7830662266
 30
0.0
  0
SPLINE
  5
627
100
AcDbEntity
  8
0
100
AcDbSpline
 62
7
  6
CONTINUOUS
 70
0
 71
3
 72
11
 73
7
 74
0
 42
0.0000001
 43
0.0000001
 44
0.0000000001
 40
0.0
 40
0.0
 40
0.0
 40
0.0
 40
0.232977079
 40
0.4735402382
 40
0.7278755819
 40
1.0
 40
1.0
 40
1.0
 40
1.0
 10
257.8141858579
 20
27.2451196378
 30
0.0
 10
257.9536017704
 20
27.3151884418
 30
0.0
 10
258.2558626488
 20
27.4228284135
 30
0.0
 10
258.7448121759
 20
27.4733759025
 30
0.0
 10
259.2586769709
 20
27.4149394671
 30
0.0
 10
259.5972177137
 20
27.309044937
 30
0.0
 10
259.766302821
 20
27.2410304448
 30
0.0
  0
SPLINE
  5
628
100
AcDbEntity
  8
0
100
AcDbSpline
 62
7
  6
CONTINUOUS
 70
0
 71
3
 72
25
 73
21
 74
0
 42
0.0000001
 43
0.0000001
 44
0.0000000001
 40
0.0
 40
0.0
 40
0.0
 40
0.0
 40
0.0618435762
 40
0.1284736002
 40
0.1990936249
 40
0.2724720003
 40
0.3471187312
 40
0.4214308976
 40
0.493834803
 40
0.5629296811
 40
0.5959112029
 40
0.6277006832
 40
0.6582443794
 40
0.6875317699
 40
0.7424490691
 40
0.7934964897
 40
0.8425068636
 40
0.8918521137
 40
0.9438087862
 40
1.0
 40
1.0
 40
1.0
 40
1.0
 10
257.1368085275
 20
25.4026654375
 30
0.0
 10
257.3308046888
 20
25.3246304729
 30
0.0
 10
257.7174206403
 20
25.1200890684
 30
0.0
 10
258.2525366837
 20
24.7074437305
 30
0.0
 10
258.7476418664
 20
24.1921653272
 30
0.0
 10
259.1846088392
 20
23.5932611266
 30
0.0
 10
259.5476620974
 20
22.932695917
 30
0.0
 10
259.8234744351
 20
22.2346936564
 30
0.0
 10
260.0018660324
 20
21.5249819569
 30
0.0
 10
260.0647649346
 20
20.9359692539
 30
0.0
 10
260.0587808454
 20
20.4829350723
 30
0.0
 10
260.0272554365
 20
20.1617936461
 30
0.0
 10
259.9688784256
 20
19.8570373606
 30
0.0
 10
259.8583952999
 20
19.4846334088
 30
0.0
 10
259.6588950588
 20
19.068187569
 30
0.0
 10
259.3160433086
 20
18.663288878
 30
0.0
 10
258.8860793349
 20
18.3837544736
 30
0.0
 10
258.3893409299
 20
18.2449862656
 30
0.0
 10
257.8508132405
 20
18.250836007
 30
0.0
 10
257.4935883244
 20
18.3442017396
 30
0.0
 10
257.3153530974
 20
18.4099959488
 30
0.0
  0
SPLINE
  5
629
100
AcDbEntity
  8
02___PRT_ALL_AXES
100
AcDbSpline
 62
7
  6
CONTINUOUS
 70
0
 71
3
 72
18
 73
14
 74
0
 42
0.0000001
 43
0.0000001
 44
0.0000000001
 40
0.0
 40
0.0
 40
0.0
 40
0.0
 40
0.0472456423
 40
0.095974536
 40
0.1474071382
 40
0.2023459688
 40
0.3234346355
 40
0.4580554671
 40
0.6004792095
 40
0.743056089
 40
0.8120582048
 40
0.8783267774
 40
1.0
 40
1.0
 40
1.0
 40
1.0
 10
258.3655190347
 20
19.5760759121
 30
0.0
 10
258.4457409234
 20
19.6163961334
 30
0.0
 10
258.5993129093
 20
19.7185495027
 30
0.0
 10
258.7916086372
 20
19.9253246816
 30
0.0
 10
258.9431683892
 20
20.1804793223
 30
0.0
 10
259.0913342462
 20
20.5887807624
 30
0.0
 10
259.1502095352
 20
21.1854321593
 30
0.0
 10
259.0356301116
 20
21.9393421693
 30
0.0
 10
258.7514833813
 20
22.6903021764
 30
0.0
 10
258.3904488002
 20
23.2640093946
 30
0.0
 10
258.0403782522
 20
23.6608230457
 30
0.0
 10
257.6772869519
 20
23.9879282195
 30
0.0
 10
257.3676474022
 20
24.1783047004
 30
0.0
 10
257.153127104
 20
24.2645955009
 30
0.0
  0
SPLINE
  5
62A
100
AcDbEntity
  8
02___PRT_ALL_AXES
100
AcDbSpline
 62
7
  6
CONTINUOUS
 70
0
 71
3
 72
11
 73
7
 74
0
 42
0.0000001
 43
0.0000001
 44
0.0000000001
 40
0.0
 40
0.0
 40
0.0
 40
0.0
 40
0.2721116171
 40
0.526467228
 40
0.767019705
 40
1.0
 40
1.0
 40
1.0
 40
1.0
 10
254.6778456529
 20
18.7952055907
 30
0.0
 10
254.7562515231
 20
18.7636668256
 30
0.0
 10
254.9132461784
 20
18.7145661514
 30
0.0
 10
255.1515389489
 20
18.6874626551
 30
0.0
 10
255.3782822282
 20
18.7109252182
 30
0.0
 10
255.5184403723
 20
18.7608547636
 30
0.0
 10
255.5830919418
 20
18.7933489681
 30
0.0
  0
SPLINE
  5
62B
100
AcDbEntity
  8
0
100
AcDbSpline
 62
7
  6
CONTINUOUS
 70
0
 71
3
 72
15
 73
11
 74
0
 42
0.0000001
 43
0.0000001
 44
0.0000000001
 40
0.0
 40
0.0
 40
0.0
 40
0.0
 40
0.1414665368
 40
0.2725094693
 40
0.3945797699
 40
0.5106738742
 40
0.6250266873
 40
0.7422741144
 40
0.8663892602
 40
1.0
 40
1.0
 40
1.0
 40
1.0
 10
254.343857026
 20
23.6284579846
 30
0.0
 10
254.3674747465
 20
23.8117216232
 30
0.0
 10
254.4407601932
 20
24.1621906397
 30
0.0
 10
254.6403240669
 20
24.6411224187
 30
0.0
 10
254.9213319579
 20
25.0386139188
 30
0.0
 10
255.2767235617
 20
25.3397560313
 30
0.0
 10
255.6945138762
 20
25.5318048033
 30
0.0
 10
256.1582264307
 20
25.6074877416
 30
0.0
 10
256.6504425701
 20
25.5665314903
 30
0.0
 10
256.9748983599
 20
25.467793811
 30
0.0
 10
257.1368085275
 20
25.4026654375
 30
0.0
  0
SPLINE
  5
62C
100
AcDbEntity
  8
02___PRT_ALL_AXES
100
AcDbSpline
 62
7
  6
CONTINUOUS
 70
0
 71
3
 72
20
 73
16
 74
0
 42
0.0000001
 43
0.0000001
 44
0.0000000001
 40
0.0
 40
0.0
 40
0.0
 40
0.0
 40
0.0479317779
 40
0.0959207033
 40
0.1456565021
 40
0.1984839799
 40
0.2552235305
 40
0.3161532663
 40
0.3810817839
 40
0.4494476651
 40
0.5927433219
 40
0.7378604296
 40
0.8083810436
 40
0.8761111715
 40
1.0
 40
1.0
 40
1.0
 40
1.0
 10
255.5251092268
 20
18.3247811419
 30
0.0
 10
255.61387252
 20
18.3448173329
 30
0.0
 10
255.7874479254
 20
18.4071306776
 30
0.0
 10
256.0174816815
 20
18.5657457559
 30
0.0
 10
256.2075624516
 20
18.7827965379
 30
0.0
 10
256.3526017348
 20
19.0506495965
 30
0.0
 10
256.4496759513
 20
19.361250019
 30
0.0
 10
256.4969502246
 20
19.7060610464
 30
0.0
 10
256.4936401194
 20
20.0759447361
 30
0.0
 10
256.4210280787
 20
20.5972021576
 30
0.0
 10
256.2082176425
 20
21.2466339135
 30
0.0
 10
255.8614327423
 20
21.839649243
 30
0.0
 10
255.5148630465
 20
22.2528072134
 30
0.0
 10
255.1513628809
 20
22.5933425127
 30
0.0
 10
254.8374968526
 20
22.7910948934
 30
0.0
 10
254.6192907611
 20
22.8788683044
 30
0.0
  0
SPLINE
  5
62D
100
AcDbEntity
  8
0
100
AcDbSpline
 62
7
  6
CONTINUOUS
 70
0
 71
3
 72
15
 73
11
 74
0
 42
0.0000001
 43
0.0000001
 44
0.0000000001
 40
0.0
 40
0.0
 40
0.0
 40
0.0
 40
0.1001312708
 40
0.2130716772
 40
0.3390032682
 40
0.4745752946
 40
0.61437041
 40
0.7521733677
 40
0.8821291246
 40
1.0
 40
1.0
 40
1.0
 40
1.0
 10
280.3807410763
 20
52.9446940388
 30
0.0
 10
280.4528736755
 20
53.0259200631
 30
0.0
 10
280.5702547162
 20
53.2319450228
 30
0.0
 10
280.6440462992
 20
53.5966308929
 30
0.0
 10
280.6258053189
 20
54.005853063
 30
0.0
 10
280.5178446495
 20
54.4303709521
 30
0.0
 10
280.3287881668
 20
54.8394804345
 30
0.0
 10
280.0724131585
 20
55.2029474315
 30
0.0
 10
279.7679063451
 20
55.4937785657
 30
0.0
 10
279.5333571248
 20
55.6324625204
 30
0.0
 10
279.414718671
 20
55.6801848442
 30
0.0
  0
SPLINE
  5
62E
100
AcDbEntity
  8
02___PRT_ALL_AXES
100
AcDbSpline
 62
7
  6
CONTINUOUS
 70
0
 71
3
 72
11
 73
7
 74
0
 42
0.0000001
 43
0.0000001
 44
0.0000000001
 40
0.0
 40
0.0
 40
0.0
 40
0.0
 40
0.2720844952
 40
0.5264766232
 40
0.7670164531
 40
1.0
 40
1.0
 40
1.0
 40
1.0
 10
281.7718466035
 20
57.5165309163
 30
0.0
 10
281.6830819761
 20
57.552236492
 30
0.0
 10
281.5053245087
 20
57.6078216815
 30
0.0
 10
281.2355273141
 20
57.6385544289
 30
0.0
 10
280.9787953005
 20
57.6120019652
 30
0.0
 10
280.8200834533
 20
57.5555388354
 30
0.0
 10
280.7468763675
 20
57.5187585929
 30
0.0
  0
SPLINE
  5
62F
100
AcDbEntity
  8
0
100
AcDbSpline
 62
7
  6
CONTINUOUS
 70
0
 71
3
 72
9
 73
5
 74
0
 42
0.0000001
 43
0.0000001
 44
0.0000000001
 40
0.0
 40
0.0
 40
0.0
 40
0.0
 40
0.5197553401
 40
1.0
 40
1.0
 40
1.0
 40
1.0
 10
279.414718671
 20
55.6801848442
 30
0.0
 10
279.3414836773
 20
55.709643624
 30
0.0
 10
279.1946713815
 20
55.7531996536
 30
0.0
 10
279.0411124811
 20
55.7613366527
 30
0.0
 10
278.9684500138
 20
55.7550124352
 30
0.0
  0
SPLINE
  5
630
100
AcDbEntity
  8
02___PRT_ALL_AXES
100
AcDbSpline
 62
7
  6
CONTINUOUS
 70
0
 71
3
 72
17
 73
13
 74
0
 42
0.0000001
 43
0.0000001
 44
0.0000000001
 40
0.0
 40
0.0
 40
0.0
 40
0.0
 40
0.1217074341
 40
0.2567824941
 40
0.399394915
 40
0.5418521341
 40
0.6765027446
 40
0.7976142577
 40
0.8525629287
 40
0.9040051779
 40
0.9527438616
 40
1.0
 40
1.0
 40
1.0
 40
1.0
 10
281.7718466035
 20
57.5165309163
 30
0.0
 10
281.9639143911
 20
57.4392716393
 30
0.0
 10
282.3420159509
 20
57.2067261781
 30
0.0
 10
282.8193496951
 20
56.7161624652
 30
0.0
 10
283.2028225712
 20
56.1071134889
 30
0.0
 10
283.4571875957
 20
55.4346519409
 30
0.0
 10
283.5597307119
 20
54.759714035
 30
0.0
 10
283.5069494649
 20
54.225551099
 30
0.0
 10
283.3742460743
 20
53.8600396965
 30
0.0
 10
283.2385192305
 20
53.6316373838
 30
0.0
 10
283.0663235609
 20
53.4465503052
 30
0.0
 10
282.9287985348
 20
53.3551518817
 30
0.0
 10
282.8569715918
 20
53.3190650419
 30
0.0
  0
SPLINE
  5
631
100
AcDbEntity
  8
02___PRT_ALL_AXES
100
AcDbSpline
 62
7
  6
CONTINUOUS
 70
0
 71
3
 72
11
 73
7
 74
0
 42
0.0000001
 43
0.0000001
 44
0.0000000001
 40
0.0
 40
0.0
 40
0.0
 40
0.0
 40
0.2329835469
 40
0.4735233768
 40
0.7279155048
 40
1.0
 40
1.0
 40
1.0
 40
1.0
 10
280.4905644688
 20
52.129856777
 30
0.0
 10
280.417357383
 20
52.0930765346
 30
0.0
 10
280.2586455358
 20
52.0366134047
 30
0.0
 10
280.0019135222
 20
52.010060941
 30
0.0
 10
279.7321163276
 20
52.0407936884
 30
0.0
 10
279.5543588602
 20
52.0963788779
 30
0.0
 10
279.4655942327
 20
52.1320844536
 30
0.0
  0
SPLINE
  5
632
100
AcDbEntity
  8
02___PRT_ALL_AXES
100
AcDbSpline
 62
7
  6
CONTINUOUS
 70
0
 71
3
 72
17
 73
13
 74
0
 42
0.0000001
 43
0.0000001
 44
0.0000000001
 40
0.0
 40
0.0
 40
0.0
 40
0.0
 40
0.0472561384
 40
0.0959948221
 40
0.1474370713
 40
0.2023857423
 40
0.3234972554
 40
0.4581478659
 40
0.600605085
 40
0.7432175059
 40
0.8782925659
 40
1.0
 40
1.0
 40
1.0
 40
1.0
 10
278.3804692444
 20
56.329550328
 30
0.0
 10
278.3086423015
 20
56.2934634882
 30
0.0
 10
278.1711172753
 20
56.2020650647
 30
0.0
 10
277.9989216058
 20
56.0169779861
 30
0.0
 10
277.8631947619
 20
55.7885756734
 30
0.0
 10
277.7304913714
 20
55.4230642709
 30
0.0
 10
277.6777101244
 20
54.8889013349
 30
0.0
 10
277.7802532406
 20
54.213963429
 30
0.0
 10
278.0346182651
 20
53.541501881
 30
0.0
 10
278.4180911412
 20
52.9324529047
 30
0.0
 10
278.8954248854
 20
52.4418891918
 30
0.0
 10
279.2735264452
 20
52.2093437306
 30
0.0
 10
279.4655942327
 20
52.1320844536
 30
0.0
  0
SPLINE
  5
633
100
AcDbEntity
  8
0
100
AcDbSpline
 62
7
  6
CONTINUOUS
 70
0
 71
3
 72
11
 73
7
 74
0
 42
0.0000001
 43
0.0000001
 44
0.0000000001
 40
0.0
 40
0.0
 40
0.0
 40
0.0
 40
0.2733098719
 40
0.5232732942
 40
0.7605475615
 40
1.0
 40
1.0
 40
1.0
 40
1.0
 10
279.4563150422
 20
52.7792222607
 30
0.0
 10
279.5409485155
 20
52.7451784419
 30
0.0
 10
279.7111786027
 20
52.6973543265
 30
0.0
 10
279.9689835802
 20
52.69923131
 30
0.0
 10
280.2021981144
 20
52.7814234955
 30
0.0
 10
280.3276710876
 20
52.8849337608
 30
0.0
 10
280.3807410763
 20
52.9446940388
 30
0.0
  0
SPLINE
  5
634
100
AcDbEntity
  8
0
100
AcDbSpline
 62
7
  6
CONTINUOUS
 70
0
 71
3
 72
13
 73
9
 74
0
 42
0.0000001
 43
0.0000001
 44
0.0000000001
 40
0.0
 40
0.0
 40
0.0
 40
0.0
 40
0.2229819788
 40
0.3518908489
 40
0.4875597344
 40
0.6251472018
 40
0.7595192668
 40
1.0
 40
1.0
 40
1.0
 40
1.0
 10
279.6691440139
 20
55.5457246975
 30
0.0
 10
279.5942561903
 20
55.3993294837
 30
0.0
 10
279.5554309147
 20
55.1280373439
 30
0.0
 10
279.6072490257
 20
54.7723006458
 30
0.0
 10
279.701019289
 20
54.4890148427
 30
0.0
 10
279.8425457785
 20
54.2219881886
 30
0.0
 10
280.072650189
 20
53.9218678318
 30
0.0
 10
280.3003599822
 20
53.7455793522
 30
0.0
 10
280.464890012
 20
53.6793971396
 30
0.0
  0
SPLINE
  5
635
100
AcDbEntity
  8
0
100
AcDbSpline
 62
7
  6
CONTINUOUS
 70
0
 71
3
 72
9
 73
5
 74
0
 42
0.0000001
 43
0.0000001
 44
0.0000000001
 40
0.0
 40
0.0
 40
0.0
 40
0.0
 40
0.2428327994
 40
1.0
 40
1.0
 40
1.0
 40
1.0
 10
280.628583912
 20
53.6322402534
 30
0.0
 10
280.6149797607
 20
53.6345791013
 30
0.0
 10
280.5592415277
 20
53.6458347766
 30
0.0
 10
280.5048214057
 20
53.6633347346
 30
0.0
 10
280.464890012
 20
53.6793971396
 30
0.0
  0
SPLINE
  5
636
100
AcDbEntity
  8
02___PRT_ALL_AXES
100
AcDbSpline
 62
7
  6
CONTINUOUS
 70
0
 71
3
 72
11
 73
7
 74
0
 42
0.0000001
 43
0.0000001
 44
0.0000000001
 40
0.0
 40
0.0
 40
0.0
 40
0.0
 40
0.2720844952
 40
0.5264766232
 40
0.7670164531
 40
1.0
 40
1.0
 40
1.0
 40
1.0
 10
279.4054394805
 20
56.3273226513
 30
0.0
 10
279.316674853
 20
56.3630282271
 30
0.0
 10
279.1389173856
 20
56.4186134166
 30
0.0
 10
278.869120191
 20
56.4493461639
 30
0.0
 10
278.6123881775
 20
56.4227937002
 30
0.0
 10
278.4536763302
 20
56.3663305704
 30
0.0
 10
278.3804692444
 20
56.329550328
 30
0.0
  0
SPLINE
  5
637
100
AcDbEntity
  8
0
100
AcDbSpline
 62
7
  6
CONTINUOUS
 70
0
 71
3
 72
18
 73
14
 74
0
 42
0.0000001
 43
0.0000001
 44
0.0000000001
 40
0.0
 40
0.0
 40
0.0
 40
0.0
 40
0.049016847
 40
0.097140449
 40
0.1462444828
 40
0.1979939084
 40
0.2535343492
 40
0.3133970504
 40
0.445186484
 40
0.5887485451
 40
0.7352050224
 40
0.8748545055
 40
1.0
 40
1.0
 40
1.0
 40
1.0
 10
278.9684500138
 20
55.7550124352
 30
0.0
 10
278.9065784423
 20
55.7496274092
 30
0.0
 10
278.7845678976
 20
55.7240762838
 30
0.0
 10
278.6176244928
 20
55.6388623409
 30
0.0
 10
278.4762819497
 20
55.5106196014
 30
0.0
 10
278.365081118
 20
55.3445355077
 30
0.0
 10
278.2865937496
 20
55.1463366898
 30
0.0
 10
278.2258747778
 20
54.8376435915
 30
0.0
 10
278.245657387
 20
54.4071528963
 30
0.0
 10
278.3998536775
 20
53.890981191
 30
0.0
 10
278.6682162598
 20
53.4119651612
 30
0.0
 10
279.0210755195
 20
53.022572596
 30
0.0
 10
279.309208128
 20
52.8383960242
 30
0.0
 10
279.4563150422
 20
52.7792222607
 30
0.0
  0
SPLINE
  5
638
100
AcDbEntity
  8
02___PRT_ALL_AXES
100
AcDbSpline
 62
7
  6
CONTINUOUS
 70
0
 71
3
 72
17
 73
13
 74
0
 42
0.0000001
 43
0.0000001
 44
0.0000000001
 40
0.0
 40
0.0
 40
0.0
 40
0.0
 40
0.1217074341
 40
0.2567824941
 40
0.399394915
 40
0.5418521341
 40
0.6765027446
 40
0.7976142577
 40
0.8525629287
 40
0.9040051779
 40
0.9527438616
 40
1.0
 40
1.0
 40
1.0
 40
1.0
 10
279.4054394805
 20
56.3273226513
 30
0.0
 10
279.597507268
 20
56.2500633743
 30
0.0
 10
279.9756088278
 20
56.0175179131
 30
0.0
 10
280.452942572
 20
55.5269542002
 30
0.0
 10
280.8364154481
 20
54.9179052239
 30
0.0
 10
281.0907804726
 20
54.2454436759
 30
0.0
 10
281.1933235888
 20
53.5705057701
 30
0.0
 10
281.1405423418
 20
53.036342834
 30
0.0
 10
281.0078389513
 20
52.6708314315
 30
0.0
 10
280.8721121075
 20
52.4424291188
 30
0.0
 10
280.6999164379
 20
52.2573420402
 30
0.0
 10
280.5623914117
 20
52.1659436167
 30
0.0
 10
280.4905644688
 20
52.129856777
 30
0.0
  0
SPLINE
  5
639
100
AcDbEntity
  8
0
100
AcDbSpline
 62
7
  6
CONTINUOUS
 70
0
 71
3
 72
10
 73
6
 74
0
 42
0.0000001
 43
0.0000001
 44
0.0000000001
 40
0.0
 40
0.0
 40
0.0
 40
0.0
 40
0.522053887
 40
0.7642642097
 40
1.0
 40
1.0
 40
1.0
 40
1.0
 10
301.7085449633
 20
68.9226292914
 30
0.0
 10
301.4572812043
 20
69.007518761
 30
0.0
 10
301.0637449134
 20
69.0779725517
 30
0.0
 10
300.557162853
 20
69.0099830157
 30
0.0
 10
300.326970285
 20
68.9253275701
 30
0.0
 10
300.219963461
 20
68.8715511036
 30
0.0
  0
SPLINE
  5
63A
100
AcDbEntity
  8
0
100
AcDbSpline
 62
7
  6
CONTINUOUS
 70
0
 71
3
 72
11
 73
7
 74
0
 42
0.0000001
 43
0.0000001
 44
0.0000000001
 40
0.0
 40
0.0
 40
0.0
 40
0.0
 40
0.247085097
 40
0.4876541693
 40
0.7348839283
 40
1.0
 40
1.0
 40
1.0
 40
1.0
 10
299.2533147652
 20
68.5102663805
 30
0.0
 10
299.3663196193
 20
68.657587799
 30
0.0
 10
299.631348822
 20
68.91992183
 30
0.0
 10
300.1335983966
 20
69.1708875555
 30
0.0
 10
300.7015482118
 20
69.2554176061
 30
0.0
 10
301.0880152801
 20
69.203177853
 30
0.0
 10
301.2811935196
 20
69.1544862949
 30
0.0
  0
SPLINE
  5
63B
100
AcDbEntity
  8
02___PRT_ALL_AXES
100
AcDbSpline
 62
7
  6
CONTINUOUS
 70
0
 71
3
 72
11
 73
7
 74
0
 42
0.0000001
 43
0.0000001
 44
0.0000000001
 40
0.0
 40
0.0
 40
0.0
 40
0.0
 40
0.2937952949
 40
0.5554178405
 40
0.787085638
 40
1.0
 40
1.0
 40
1.0
 40
1.0
 10
299.727126752
 20
57.2994692736
 30
0.0
 10
299.729221184
 20
57.1805393711
 30
0.0
 10
299.7526102375
 20
56.955155659
 30
0.0
 10
299.8557703675
 20
56.6501890463
 30
0.0
 10
300.0229136505
 20
56.4121779518
 30
0.0
 10
300.177161932
 20
56.3092941006
 30
0.0
 10
300.2571368736
 20
56.2771252684
 30
0.0
  0
SPLINE
  5
63C
100
AcDbEntity
  8
02___PRT_ALL_AXES
100
AcDbSpline
 62
7
  6
CONTINUOUS
 70
0
 71
3
 72
11
 73
7
 74
0
 42
0.0000001
 43
0.0000001
 44
0.0000000001
 40
0.0
 40
0.0
 40
0.0
 40
0.0
 40
0.2939562456
 40
0.5556743015
 40
0.7872788089
 40
1.0
 40
1.0
 40
1.0
 40
1.0
 10
299.3686522552
 20
82.2989985907
 30
0.0
 10
299.3703678281
 20
82.1793532368
 30
0.0
 10
299.3931885926
 20
81.9525688693
 30
0.0
 10
299.4960405338
 20
81.6455680448
 30
0.0
 10
299.6635030535
 20
81.4059051652
 30
0.0
 10
299.8184332922
 20
81.3023472785
 30
0.0
 10
299.8987681367
 20
81.2700336802
 30
0.0
  0
SPLINE
  5
63D
100
AcDbEntity
  8
02___PRT_ALL_AXES
100
AcDbSpline
 62
7
  6
CONTINUOUS
 70
0
 71
3
 72
9
 73
5
 74
0
 42
0.0000001
 43
0.0000001
 44
0.0000000001
 40
0.0
 40
0.0
 40
0.0
 40
0.0
 40
0.2657101872
 40
1.0
 40
1.0
 40
1.0
 40
1.0
 10
300.6300337923
 20
83.932703452
 30
0.0
 10
300.629359759
 20
83.979711048
 30
0.0
 10
300.6206957842
 20
84.1563581475
 30
0.0
 10
300.5866364017
 20
84.3326999292
 30
0.0
 10
300.5427137462
 20
84.454968868
 30
0.0
  0
SPLINE
  5
63E
100
AcDbEntity
  8
02___PRT_ALL_AXES
100
AcDbSpline
 62
7
  6
CONTINUOUS
 70
0
 71
3
 72
9
 73
5
 74
0
 42
0.0000001
 43
0.0000001
 44
0.0000000001
 40
0.0
 40
0.0
 40
0.0
 40
0.0
 40
0.2345276276
 40
1.0
 40
1.0
 40
1.0
 40
1.0
 10
299.8224392341
 20
56.7805713496
 30
0.0
 10
299.859161187
 20
56.7988132106
 30
0.0
 10
300.0118804246
 20
56.8843457132
 30
0.0
 10
300.1482097616
 20
56.997395058
 30
0.0
 10
300.2425568384
 20
57.0923115074
 30
0.0
  0
SPLINE
  5
63F
100
AcDbEntity
  8
02___PRT_ALL_AXES
100
AcDbSpline
 62
7
  6
CONTINUOUS
 70
0
 71
3
 72
15
 73
11
 74
0
 42
0.0000001
 43
0.0000001
 44
0.0000000001
 40
0.0
 40
0.0
 40
0.0
 40
0.0
 40
0.0900084001
 40
0.1898222373
 40
0.3044900084
 40
0.4338764582
 40
0.5742452728
 40
0.7197935902
 40
0.8638425725
 40
1.0
 40
1.0
 40
1.0
 40
1.0
 10
301.2049434968
 20
84.5171717662
 30
0.0
 10
301.1144237524
 20
84.5535821019
 30
0.0
 10
300.9032178346
 20
84.5850317105
 30
0.0
 10
300.578017154
 20
84.4980530744
 30
0.0
 10
300.25891408
 20
84.2974678583
 30
0.0
 10
299.9635793822
 20
83.9993963434
 30
0.0
 10
299.710278608
 20
83.6244863839
 30
0.0
 10
299.5161506234
 20
83.1984364809
 30
0.0
 10
299.3946037369
 20
82.7512001667
 30
0.0
 10
299.3665361616
 20
82.44657657
 30
0.0
 10
299.3686522552
 20
82.2989985907
 30
0.0
  0
SPLINE
  5
640
100
AcDbEntity
  8
02___PRT_ALL_AXES
100
AcDbSpline
 62
7
  6
CONTINUOUS
 70
0
 71
3
 72
11
 73
7
 74
0
 42
0.0000001
 43
0.0000001
 44
0.0000000001
 40
0.0
 40
0.0
 40
0.0
 40
0.0
 40
0.2225541355
 40
0.4782678775
 40
0.7458853291
 40
1.0
 40
1.0
 40
1.0
 40
1.0
 10
299.4640704973
 20
81.7734797615
 30
0.0
 10
299.6340341016
 20
81.8579102503
 30
0.0
 10
299.9586381687
 20
82.120791405
 30
0.0
 10
300.3253962535
 20
82.6473376754
 30
0.0
 10
300.5706703452
 20
83.2692896017
 30
0.0
 10
300.633140578
 20
83.7160338541
 30
0.0
 10
300.6300337923
 20
83.932703452
 30
0.0
  0
SPLINE
  5
641
100
AcDbEntity
  8
02___PRT_ALL_AXES
100
AcDbSpline
 62
7
  6
CONTINUOUS
 70
0
 71
3
 72
11
 73
7
 74
0
 42
0.0000001
 43
0.0000001
 44
0.0000000001
 40
0.0
 40
0.0
 40
0.0
 40
0.0
 40
0.2939562456
 40
0.5556743015
 40
0.7872788089
 40
1.0
 40
1.0
 40
1.0
 40
1.0
 10
301.7350593783
 20
83.4882068557
 30
0.0
 10
301.7333438055
 20
83.6078522096
 30
0.0
 10
301.7105230409
 20
83.8346365772
 30
0.0
 10
301.6076710998
 20
84.1416374016
 30
0.0
 10
301.4402085801
 20
84.3813002812
 30
0.0
 10
301.2852783413
 20
84.4848581679
 30
0.0
 10
301.2049434968
 20
84.5171717662
 30
0.0
  0
SPLINE
  5
642
100
AcDbEntity
  8
02___PRT_ALL_AXES
100
AcDbSpline
 62
7
  6
CONTINUOUS
 70
0
 71
3
 72
11
 73
7
 74
0
 42
0.0000001
 43
0.0000001
 44
0.0000000001
 40
0.0
 40
0.0
 40
0.0
 40
0.0
 40
0.2129114929
 40
0.4445795082
 40
0.7062109808
 40
1.0
 40
1.0
 40
1.0
 40
1.0
 10
300.2571368736
 20
56.2771252684
 30
0.0
 10
300.3371230264
 20
56.2449519266
 30
0.0
 10
300.519676086
 20
56.2123601202
 30
0.0
 10
300.8051211967
 20
56.2683626164
 30
0.0
 10
301.0907543582
 20
56.4169984472
 30
0.0
 10
301.2637155606
 20
56.5634419215
 30
0.0
 10
301.3475824245
 20
56.6478149112
 30
0.0
  0
SPLINE
  5
643
100
AcDbEntity
  8
02___PRT_ALL_AXES
100
AcDbSpline
 62
7
  6
CONTINUOUS
 70
0
 71
3
 72
15
 73
11
 74
0
 42
0.0000001
 43
0.0000001
 44
0.0000000001
 40
0.0
 40
0.0
 40
0.0
 40
0.0
 40
0.0900084001
 40
0.1898222373
 40
0.3044900084
 40
0.4338764582
 40
0.5742452728
 40
0.7197935902
 40
0.8638425725
 40
1.0
 40
1.0
 40
1.0
 40
1.0
 10
299.8987681367
 20
81.2700336802
 30
0.0
 10
299.9892878812
 20
81.2336233446
 30
0.0
 10
300.200493799
 20
81.202173736
 30
0.0
 10
300.5256944795
 20
81.289152372
 30
0.0
 10
300.8447975536
 20
81.4897375881
 30
0.0
 10
301.1401322513
 20
81.787809103
 30
0.0
 10
301.3934330255
 20
82.1627190625
 30
0.0
 10
301.5875610101
 20
82.5887689655
 30
0.0
 10
301.7091078967
 20
83.0360052798
 30
0.0
 10
301.7371754719
 20
83.3406288765
 30
0.0
 10
301.7350593783
 20
83.4882068557
 30
0.0
  0
SPLINE
  5
644
100
AcDbEntity
  8
0
100
AcDbSpline
 62
7
  6
CONTINUOUS
 70
0
 71
3
 72
12
 73
8
 74
0
 42
0.0000001
 43
0.0000001
 44
0.0000000001
 40
0.0
 40
0.0
 40
0.0
 40
0.0
 40
0.2936743168
 40
0.5551174625
 40
0.786490589
 40
0.8945216622
 40
1.0
 40
1.0
 40
1.0
 40
1.0
 10
310.7144109504
 20
58.7065687156
 30
0.0
 10
310.7175727012
 20
58.4860658127
 30
0.0
 10
310.759790647
 20
58.0680742569
 30
0.0
 10
310.9487127138
 20
57.5025126691
 30
0.0
 10
311.2133009489
 20
57.1257409956
 30
0.0
 10
311.4747917856
 20
56.9149092768
 30
0.0
 10
311.6179024855
 20
56.8398799898
 30
0.0
 10
311.6913864124
 20
56.8103224126
 30
0.0
  0
SPLINE
  5
645
100
AcDbEntity
  8
0
100
AcDbSpline
 62
7
  6
CONTINUOUS
 70
0
 71
3
 72
12
 73
8
 74
0
 42
0.0000001
 43
0.0000001
 44
0.0000000001
 40
0.0
 40
0.0
 40
0.0
 40
0.0
 40
0.2936743168
 40
0.5551174625
 40
0.786490589
 40
0.8945216622
 40
1.0
 40
1.0
 40
1.0
 40
1.0
 10
310.549945298
 20
70.1765284689
 30
0.0
 10
310.5531070487
 20
69.956025566
 30
0.0
 10
310.5953249946
 20
69.5380340102
 30
0.0
 10
310.7842470614
 20
68.9724724224
 30
0.0
 10
311.0488352965
 20
68.5957007489
 30
0.0
 10
311.3103261331
 20
68.3848690301
 30
0.0
 10
311.4534368331
 20
68.3098397431
 30
0.0
 10
311.52692076
 20
68.2802821659
 30
0.0
  0
SPLINE
  5
646
100
AcDbEntity
  8
0
100
AcDbSpline
 62
7
  6
CONTINUOUS
 70
0
 71
3
 72
12
 73
8
 74
0
 42
0.0000001
 43
0.0000001
 44
0.0000000001
 40
0.0
 40
0.0
 40
0.0
 40
0.0
 40
0.1081953321
 40
0.2185743537
 40
0.452402008
 40
0.7122588415
 40
1.0
 40
1.0
 40
1.0
 40
1.0
 10
303.5876549626
 20
62.1701739028
 30
0.0
 10
303.6787108857
 20
62.2159342161
 30
0.0
 10
303.8542061263
 20
62.3263815499
 30
0.0
 10
304.16774114
 20
62.6180813424
 30
0.0
 10
304.471094911
 20
63.1126992091
 30
0.0
 10
304.6610990154
 20
63.8315686603
 30
0.0
 10
304.6754623295
 20
64.3516305277
 30
0.0
 10
304.6578973652
 20
64.622080288
 30
0.0
  0
SPLINE
  5
647
100
AcDbEntity
  8
0
100
AcDbSpline
 62
7
  6
CONTINUOUS
 70
0
 71
3
 72
9
 73
5
 74
0
 42
0.0000001
 43
0.0000001
 44
0.0000000001
 40
0.0
 40
0.0
 40
0.0
 40
0.0
 40
0.260899947
 40
1.0
 40
1.0
 40
1.0
 40
1.0
 10
302.8253300326
 20
68.2678314476
 30
0.0
 10
302.7601586695
 20
68.3231763715
 30
0.0
 10
302.5042429665
 20
68.527835599
 30
0.0
 10
302.2227199309
 20
68.7016926965
 30
0.0
 10
302.003218453
 20
68.8040968657
 30
0.0
  0
SPLINE
  5
648
100
AcDbEntity
  8
0
100
AcDbSpline
 62
7
  6
CONTINUOUS
 70
0
 71
3
 72
11
 73
7
 74
0
 42
0.0000001
 43
0.0000001
 44
0.0000000001
 40
0.0
 40
0.0
 40
0.0
 40
0.0
 40
0.2450643635
 40
0.5000018878
 40
0.7549369173
 40
1.0
 40
1.0
 40
1.0
 40
1.0
 10
302.8295469053
 20
68.2680707244
 30
0.0
 10
303.0801374111
 20
68.0387343283
 30
0.0
 10
303.543961802
 20
67.517211348
 30
0.0
 10
304.0937577219
 20
66.6211188166
 30
0.0
 10
304.4846394596
 20
65.6451731186
 30
0.0
 10
304.6262614745
 20
64.9617599593
 30
0.0
 10
304.6607247047
 20
64.6238222967
 30
0.0
  0
SPLINE
  5
649
100
AcDbEntity
  8
0
100
AcDbSpline
 62
7
  6
CONTINUOUS
 70
0
 71
3
 72
17
 73
13
 74
0
 42
0.0000001
 43
0.0000001
 44
0.0000000001
 40
0.0
 40
0.0
 40
0.0
 40
0.0
 40
0.0445513277
 40
0.0904540075
 40
0.1388540805
 40
0.190565113
 40
0.3051277955
 40
0.4343961218
 40
0.5746376207
 40
0.7200487605
 40
0.86397112
 40
1.0
 40
1.0
 40
1.0
 40
1.0
 10
314.098385758
 20
62.7943559641
 30
0.0
 10
314.0157421957
 20
62.8275978386
 30
0.0
 10
313.8396861356
 20
62.876185857
 30
0.0
 10
313.5604531768
 20
62.8901232925
 30
0.0
 10
313.2700398131
 20
62.846216732
 30
0.0
 10
312.8617470316
 20
62.7079407256
 30
0.0
 10
312.3546540809
 20
62.3892557699
 30
0.0
 10
311.8108467781
 20
61.8402082989
 30
0.0
 10
311.3439391166
 20
61.1492192197
 30
0.0
 10
310.9862049209
 20
60.3641007232
 30
0.0
 10
310.7622476798
 20
59.5398982115
 30
0.0
 10
310.710511422
 20
58.9785247909
 30
0.0
 10
310.7144109504
 20
58.7065687156
 30
0.0
  0
SPLINE
  5
64A
100
AcDbEntity
  8
0
100
AcDbSpline
 62
7
  6
CONTINUOUS
 70
0
 71
3
 72
17
 73
13
 74
0
 42
0.0000001
 43
0.0000001
 44
0.0000000001
 40
0.0
 40
0.0
 40
0.0
 40
0.0
 40
0.0445513277
 40
0.0904540075
 40
0.1388540805
 40
0.190565113
 40
0.3051277955
 40
0.4343961218
 40
0.5746376207
 40
0.7200487605
 40
0.86397112
 40
1.0
 40
1.0
 40
1.0
 40
1.0
 10
313.9339201056
 20
74.2643157174
 30
0.0
 10
313.8512765433
 20
74.2975575919
 30
0.0
 10
313.6752204831
 20
74.3461456103
 30
0.0
 10
313.3959875243
 20
74.3600830458
 30
0.0
 10
313.1055741607
 20
74.3161764853
 30
0.0
 10
312.6972813791
 20
74.1779004788
 30
0.0
 10
312.1901884284
 20
73.8592155232
 30
0.0
 10
311.6463811256
 20
73.3101680522
 30
0.0
 10
311.1794734641
 20
72.619178973
 30
0.0
 10
310.8217392685
 20
71.8340604765
 30
0.0
 10
310.5977820273
 20
71.0098579648
 30
0.0
 10
310.5460457696
 20
70.4484845442
 30
0.0
 10
310.549945298
 20
70.1765284689
 30
0.0
  0
SPLINE
  5
64B
100
AcDbEntity
  8
0
100
AcDbSpline
 62
7
  6
CONTINUOUS
 70
0
 71
3
 72
9
 73
5
 74
0
 42
0.0000001
 43
0.0000001
 44
0.0000000001
 40
0.0
 40
0.0
 40
0.0
 40
0.0
 40
0.2762856232
 40
1.0
 40
1.0
 40
1.0
 40
1.0
 10
302.003218453
 20
68.8040968657
 30
0.0
 10
302.0043773952
 20
68.8091241596
 30
0.0
 10
302.0087283877
 20
68.8272825184
 30
0.0
 10
302.0137190058
 20
68.8452967734
 30
0.0
 10
302.0178772436
 20
68.8581552307
 30
0.0
  0
SPLINE
  5
64C
100
AcDbEntity
  8
0
100
AcDbSpline
 62
7
  6
CONTINUOUS
 70
0
 71
3
 72
12
 73
8
 74
0
 42
0.0000001
 43
0.0000001
 44
0.0000000001
 40
0.0
 40
0.0
 40
0.0
 40
0.0
 40
0.2936743168
 40
0.5551174625
 40
0.786490589
 40
0.8945216622
 40
1.0
 40
1.0
 40
1.0
 40
1.0
 10
315.0753612201
 20
60.8981096611
 30
0.0
 10
315.0721994693
 20
61.118612564
 30
0.0
 10
315.0299815235
 20
61.5366041198
 30
0.0
 10
314.8410594567
 20
62.1021657076
 30
0.0
 10
314.5764712216
 20
62.4789373811
 30
0.0
 10
314.3149803849
 20
62.6897690999
 30
0.0
 10
314.171869685
 20
62.7647983869
 30
0.0
 10
314.098385758
 20
62.7943559641
 30
0.0
  0
SPLINE
  5
64D
100
AcDbEntity
  8
0
100
AcDbSpline
 62
7
  6
CONTINUOUS
 70
0
 71
3
 72
9
 73
5
 74
0
 42
0.0000001
 43
0.0000001
 44
0.0000000001
 40
0.0
 40
0.0
 40
0.0
 40
0.0
 40
0.2407284067
 40
1.0
 40
1.0
 40
1.0
 40
1.0
 10
302.0325742679
 20
68.8500008923
 30
0.0
 10
302.1018155931
 20
68.8113737767
 30
0.0
 10
302.3841825632
 20
68.6415394381
 30
0.0
 10
302.6450664377
 20
68.436904278
 30
0.0
 10
302.8295469053
 20
68.2680707244
 30
0.0
  0
SPLINE
  5
64E
100
AcDbEntity
  8
0
100
AcDbSpline
 62
7
  6
CONTINUOUS
 70
0
 71
3
 72
12
 73
8
 74
0
 42
0.0000001
 43
0.0000001
 44
0.0000000001
 40
0.0
 40
0.0
 40
0.0
 40
0.0
 40
0.2936743168
 40
0.5551174625
 40
0.786490589
 40
0.8945216622
 40
1.0
 40
1.0
 40
1.0
 40
1.0
 10
314.9108955676
 20
72.3680694144
 30
0.0
 10
314.9077338169
 20
72.5885723173
 30
0.0
 10
314.865515871
 20
73.0065638731
 30
0.0
 10
314.6765938042
 20
73.5721254609
 30
0.0
 10
314.4120055691
 20
73.9488971344
 30
0.0
 10
314.1505147325
 20
74.1597288531
 30
0.0
 10
314.0074040325
 20
74.2347581402
 30
0.0
 10
313.9339201056
 20
74.2643157174
 30
0.0
  0
SPLINE
  5
64F
100
AcDbEntity
  8
0
100
AcDbSpline
 62
7
  6
CONTINUOUS
 70
0
 71
3
 72
14
 73
10
 74
0
 42
0.0000001
 43
0.0000001
 44
0.0000000001
 40
0.0
 40
0.0
 40
0.0
 40
0.0
 40
0.2933308757
 40
0.4260418502
 40
0.5493974465
 40
0.6650973742
 40
0.7761295685
 40
0.8864092662
 40
1.0
 40
1.0
 40
1.0
 40
1.0
 10
304.6607247047
 20
64.6238222967
 30
0.0
 10
304.7009440428
 20
64.2294417055
 30
0.0
 10
304.6911292612
 20
63.6427009707
 30
0.0
 10
304.4937536382
 20
62.9235108223
 30
0.0
 10
304.2698676842
 20
62.4696820335
 30
0.0
 10
303.9700593847
 20
62.09808654
 30
0.0
 10
303.60174076
 20
61.8216116033
 30
0.0
 10
303.1771582423
 20
61.6510098091
 30
0.0
 10
302.8735538922
 20
61.6123040306
 30
0.0
 10
302.7200561006
 20
61.6100886997
 30
0.0
  0
SPLINE
  5
650
100
AcDbEntity
  8
0
100
AcDbSpline
 62
7
  6
CONTINUOUS
 70
0
 71
3
 72
11
 73
7
 74
0
 42
0.0000001
 43
0.0000001
 44
0.0000000001
 40
0.0
 40
0.0
 40
0.0
 40
0.0
 40
0.2379475155
 40
0.4949494491
 40
0.7546305679
 40
1.0
 40
1.0
 40
1.0
 40
1.0
 10
310.7389037265
 20
58.4186635176
 30
0.0
 10
310.9807604047
 20
58.627198691
 30
0.0
 10
311.4237103015
 20
59.1322903668
 30
0.0
 10
311.9203049464
 20
60.0220052841
 30
0.0
 10
312.2400820084
 20
60.9998888545
 30
0.0
 10
312.3175186334
 20
61.6800786285
 30
0.0
 10
312.312797255
 20
62.0093511517
 30
0.0
  0
SPLINE
  5
651
100
AcDbEntity
  8
0
100
AcDbSpline
 62
7
  6
CONTINUOUS
 70
0
 71
3
 72
17
 73
13
 74
0
 42
0.0000001
 43
0.0000001
 44
0.0000000001
 40
0.0
 40
0.0
 40
0.0
 40
0.0
 40
0.0445513277
 40
0.0904540075
 40
0.1388540805
 40
0.190565113
 40
0.3051277955
 40
0.4343961218
 40
0.5746376207
 40
0.7200487605
 40
0.86397112
 40
1.0
 40
1.0
 40
1.0
 40
1.0
 10
311.6913864124
 20
56.8103224126
 30
0.0
 10
311.7740299747
 20
56.7770805381
 30
0.0
 10
311.9500860349
 20
56.7284925197
 30
0.0
 10
312.2293189937
 20
56.7145550842
 30
0.0
 10
312.5197323574
 20
56.7584616446
 30
0.0
 10
312.9280251389
 20
56.8967376511
 30
0.0
 10
313.4351180896
 20
57.2154226067
 30
0.0
 10
313.9789253924
 20
57.7644700778
 30
0.0
 10
314.4458330539
 20
58.455459157
 30
0.0
 10
314.8035672496
 20
59.2405776535
 30
0.0
 10
315.0275244907
 20
60.0647801652
 30
0.0
 10
315.0792607484
 20
60.6261535858
 30
0.0
 10
315.0753612201
 20
60.8981096611
 30
0.0
  0
SPLINE
  5
652
100
AcDbEntity
  8
0
100
AcDbSpline
 62
7
  6
CONTINUOUS
 70
0
 71
3
 72
11
 73
7
 74
0
 42
0.0000001
 43
0.0000001
 44
0.0000000001
 40
0.0
 40
0.0
 40
0.0
 40
0.0
 40
0.2379475155
 40
0.4949494491
 40
0.7546305679
 40
1.0
 40
1.0
 40
1.0
 40
1.0
 10
310.5744380741
 20
69.8886232709
 30
0.0
 10
310.8162947522
 20
70.0971584443
 30
0.0
 10
311.259244649
 20
70.6022501201
 30
0.0
 10
311.7558392939
 20
71.4919650374
 30
0.0
 10
312.075616356
 20
72.4698486078
 30
0.0
 10
312.153052981
 20
73.1500383818
 30
0.0
 10
312.1483316026
 20
73.479310905
 30
0.0
  0
SPLINE
  5
653
100
AcDbEntity
  8
0
100
AcDbSpline
 62
7
  6
CONTINUOUS
 70
0
 71
3
 72
17
 73
13
 74
0
 42
0.0000001
 43
0.0000001
 44
0.0000000001
 40
0.0
 40
0.0
 40
0.0
 40
0.0
 40
0.0445513277
 40
0.0904540075
 40
0.1388540805
 40
0.190565113
 40
0.3051277955
 40
0.4343961218
 40
0.5746376207
 40
0.7200487605
 40
0.86397112
 40
1.0
 40
1.0
 40
1.0
 40
1.0
 10
311.52692076
 20
68.2802821659
 30
0.0
 10
311.6095643223
 20
68.2470402914
 30
0.0
 10
311.7856203825
 20
68.198452273
 30
0.0
 10
312.0648533413
 20
68.1845148375
 30
0.0
 10
312.3552667049
 20
68.2284213979
 30
0.0
 10
312.7635594865
 20
68.3666974044
 30
0.0
 10
313.2706524372
 20
68.68538236
 30
0.0
 10
313.81445974
 20
69.2344298311
 30
0.0
 10
314.2813674015
 20
69.9254189103
 30
0.0
 10
314.6391015971
 20
70.7105374067
 30
0.0
 10
314.8630588383
 20
71.5347399185
 30
0.0
 10
314.914795096
 20
72.0961133391
 30
0.0
 10
314.9108955676
 20
72.3680694144
 30
0.0
  0
SPLINE
  5
654
100
AcDbEntity
  8
0
100
AcDbSpline
 62
7
  6
CONTINUOUS
 70
0
 71
3
 72
9
 73
5
 74
0
 42
0.0000001
 43
0.0000001
 44
0.0000000001
 40
0.0
 40
0.0
 40
0.0
 40
0.0
 40
0.5153787366
 40
1.0
 40
1.0
 40
1.0
 40
1.0
 10
264.1244871098
 20
28.9078906099
 30
0.0
 10
263.9911626207
 20
28.9529342931
 30
0.0
 10
263.7249791581
 20
29.0201785579
 30
0.0
 10
263.4503875686
 20
29.0370805089
 30
0.0
 10
263.3181932839
 20
29.0311024349
 30
0.0
  0
LINE
  5
655
100
AcDbEntity
  8
0
100
AcDbLine
 62
7
  6
CONTINUOUS
 10
263.3181932839
 20
29.0311024349
 11
263.3135086889
 21
29.0308846754
  0
SPLINE
  5
656
100
AcDbEntity
  8
0
100
AcDbSpline
 62
7
  6
CONTINUOUS
 70
0
 71
3
 72
9
 73
5
 74
0
 42
0.0000001
 43
0.0000001
 44
0.0000000001
 40
0.0
 40
0.0
 40
0.0
 40
0.0
 40
0.4853581192
 40
1.0
 40
1.0
 40
1.0
 40
1.0
 10
262.8060461605
 20
29.1872465851
 30
0.0
 10
262.9492317867
 20
29.210977106
 30
0.0
 10
263.2506771671
 20
29.2252837853
 30
0.0
 10
263.547907426
 20
29.1773613506
 30
0.0
 10
263.6971356661
 20
29.1397476134
 30
0.0
  0
SPLINE
  5
657
100
AcDbEntity
  8
02___PRT_ALL_AXES
100
AcDbSpline
 62
7
  6
CONTINUOUS
 70
0
 71
3
 72
11
 73
7
 74
0
 42
0.0000001
 43
0.0000001
 44
0.0000000001
 40
0.0
 40
0.0
 40
0.0
 40
0.0
 40
0.2937952949
 40
0.5554178405
 40
0.787085638
 40
1.0
 40
1.0
 40
1.0
 40
1.0
 10
262.1430688985
 20
17.2847305921
 30
0.0
 10
262.1451633305
 20
17.1658006896
 30
0.0
 10
262.168552384
 20
16.9404169775
 30
0.0
 10
262.271712514
 20
16.6354503648
 30
0.0
 10
262.438855797
 20
16.3974392703
 30
0.0
 10
262.5931040784
 20
16.2945554191
 30
0.0
 10
262.67307902
 20
16.2623865869
 30
0.0
  0
SPLINE
  5
658
100
AcDbEntity
  8
02___PRT_ALL_AXES
100
AcDbSpline
 62
7
  6
CONTINUOUS
 70
0
 71
3
 72
11
 73
7
 74
0
 42
0.0000001
 43
0.0000001
 44
0.0000000001
 40
0.0
 40
0.0
 40
0.0
 40
0.0
 40
0.2939562456
 40
0.5556743015
 40
0.7872788089
 40
1.0
 40
1.0
 40
1.0
 40
1.0
 10
261.7845944017
 20
42.2842599092
 30
0.0
 10
261.7863099745
 20
42.1646145553
 30
0.0
 10
261.8091307391
 20
41.9378301878
 30
0.0
 10
261.9119826802
 20
41.6308293633
 30
0.0
 10
262.0794451999
 20
41.3911664837
 30
0.0
 10
262.2343754387
 20
41.287608597
 30
0.0
 10
262.3147102832
 20
41.2552949987
 30
0.0
  0
SPLINE
  5
659
100
AcDbEntity
  8
02___PRT_ALL_AXES
100
AcDbSpline
 62
7
  6
CONTINUOUS
 70
0
 71
3
 72
9
 73
5
 74
0
 42
0.0000001
 43
0.0000001
 44
0.0000000001
 40
0.0
 40
0.0
 40
0.0
 40
0.0
 40
0.2657101872
 40
1.0
 40
1.0
 40
1.0
 40
1.0
 10
263.0459759388
 20
43.9179647705
 30
0.0
 10
263.0453019054
 20
43.9649723665
 30
0.0
 10
263.0366379306
 20
44.141619466
 30
0.0
 10
263.0025785482
 20
44.3179612477
 30
0.0
 10
262.9586558927
 20
44.4402301865
 30
0.0
  0
SPLINE
  5
65A
100
AcDbEntity
  8
02___PRT_ALL_AXES
100
AcDbSpline
 62
7
  6
CONTINUOUS
 70
0
 71
3
 72
9
 73
5
 74
0
 42
0.0000001
 43
0.0000001
 44
0.0000000001
 40
0.0
 40
0.0
 40
0.0
 40
0.0
 40
0.2345276276
 40
1.0
 40
1.0
 40
1.0
 40
1.0
 10
262.2383813806
 20
16.7658326681
 30
0.0
 10
262.2751033335
 20
16.7840745291
 30
0.0
 10
262.4278225711
 20
16.8696070317
 30
0.0
 10
262.5641519081
 20
16.9826563765
 30
0.0
 10
262.6584989849
 20
17.0775728259
 30
0.0
  0
SPLINE
  5
65B
100
AcDbEntity
  8
02___PRT_ALL_AXES
100
AcDbSpline
 62
7
  6
CONTINUOUS
 70
0
 71
3
 72
15
 73
11
 74
0
 42
0.0000001
 43
0.0000001
 44
0.0000000001
 40
0.0
 40
0.0
 40
0.0
 40
0.0
 40
0.0900084001
 40
0.1898222373
 40
0.3044900084
 40
0.4338764582
 40
0.5742452728
 40
0.7197935902
 40
0.8638425725
 40
1.0
 40
1.0
 40
1.0
 40
1.0
 10
263.6208856433
 20
44.5024330847
 30
0.0
 10
263.5303658989
 20
44.5388434204
 30
0.0
 10
263.319159981
 20
44.570293029
 30
0.0
 10
262.9939593005
 20
44.4833143929
 30
0.0
 10
262.6748562264
 20
44.2827291768
 30
0.0
 10
262.3795215287
 20
43.9846576619
 30
0.0
 10
262.1262207545
 20
43.6097477024
 30
0.0
 10
261.9320927699
 20
43.1836977994
 30
0.0
 10
261.8105458833
 20
42.7364614852
 30
0.0
 10
261.7824783081
 20
42.4318378885
 30
0.0
 10
261.7845944017
 20
42.2842599092
 30
0.0
  0
SPLINE
  5
65C
100
AcDbEntity
  8
02___PRT_ALL_AXES
100
AcDbSpline
 62
7
  6
CONTINUOUS
 70
0
 71
3
 72
11
 73
7
 74
0
 42
0.0000001
 43
0.0000001
 44
0.0000000001
 40
0.0
 40
0.0
 40
0.0
 40
0.0
 40
0.2225541355
 40
0.4782678775
 40
0.7458853291
 40
1.0
 40
1.0
 40
1.0
 40
1.0
 10
261.8800126438
 20
41.75874108
 30
0.0
 10
262.0499762481
 20
41.8431715689
 30
0.0
 10
262.3745803152
 20
42.1060527235
 30
0.0
 10
262.7413384
 20
42.6325989939
 30
0.0
 10
262.9866124916
 20
43.2545509202
 30
0.0
 10
263.0490827244
 20
43.7012951726
 30
0.0
 10
263.0459759388
 20
43.9179647705
 30
0.0
  0
SPLINE
  5
65D
100
AcDbEntity
  8
02___PRT_ALL_AXES
100
AcDbSpline
 62
7
  6
CONTINUOUS
 70
0
 71
3
 72
11
 73
7
 74
0
 42
0.0000001
 43
0.0000001
 44
0.0000000001
 40
0.0
 40
0.0
 40
0.0
 40
0.0
 40
0.2939562456
 40
0.5556743015
 40
0.7872788089
 40
1.0
 40
1.0
 40
1.0
 40
1.0
 10
264.1510015248
 20
43.4734681742
 30
0.0
 10
264.149285952
 20
43.5931135281
 30
0.0
 10
264.1264651874
 20
43.8198978957
 30
0.0
 10
264.0236132463
 20
44.1268987201
 30
0.0
 10
263.8561507266
 20
44.3665615997
 30
0.0
 10
263.7012204878
 20
44.4701194864
 30
0.0
 10
263.6208856433
 20
44.5024330847
 30
0.0
  0
SPLINE
  5
65E
100
AcDbEntity
  8
02___PRT_ALL_AXES
100
AcDbSpline
 62
7
  6
CONTINUOUS
 70
0
 71
3
 72
11
 73
7
 74
0
 42
0.0000001
 43
0.0000001
 44
0.0000000001
 40
0.0
 40
0.0
 40
0.0
 40
0.0
 40
0.2129114929
 40
0.4445795082
 40
0.7062109808
 40
1.0
 40
1.0
 40
1.0
 40
1.0
 10
262.67307902
 20
16.2623865869
 30
0.0
 10
262.7530651728
 20
16.2302132451
 30
0.0
 10
262.9356182324
 20
16.1976214387
 30
0.0
 10
263.2210633432
 20
16.2536239349
 30
0.0
 10
263.5066965047
 20
16.4022597657
 30
0.0
 10
263.6796577071
 20
16.54870324
 30
0.0
 10
263.7635245709
 20
16.6330762297
 30
0.0
  0
SPLINE
  5
65F
100
AcDbEntity
  8
02___PRT_ALL_AXES
100
AcDbSpline
 62
7
  6
CONTINUOUS
 70
0
 71
3
 72
15
 73
11
 74
0
 42
0.0000001
 43
0.0000001
 44
0.0000000001
 40
0.0
 40
0.0
 40
0.0
 40
0.0
 40
0.0900084001
 40
0.1898222373
 40
0.3044900084
 40
0.4338764582
 40
0.5742452728
 40
0.7197935902
 40
0.8638425725
 40
1.0
 40
1.0
 40
1.0
 40
1.0
 10
262.3147102832
 20
41.2552949987
 30
0.0
 10
262.4052300276
 20
41.2188846631
 30
0.0
 10
262.6164359454
 20
41.1874350545
 30
0.0
 10
262.941636626
 20
41.2744136905
 30
0.0
 10
263.2607397001
 20
41.4749989066
 30
0.0
 10
263.5560743978
 20
41.7730704215
 30
0.0
 10
263.809375172
 20
42.147980381
 30
0.0
 10
264.0035031566
 20
42.574030284
 30
0.0
 10
264.1250500432
 20
43.0212665983
 30
0.0
 10
264.1531176184
 20
43.325890195
 30
0.0
 10
264.1510015248
 20
43.4734681742
 30
0.0
  0
SPLINE
  5
660
100
AcDbEntity
  8
0
100
AcDbSpline
 62
7
  6
CONTINUOUS
 70
0
 71
3
 72
12
 73
8
 74
0
 42
0.0000001
 43
0.0000001
 44
0.0000000001
 40
0.0
 40
0.0
 40
0.0
 40
0.0
 40
0.2936743168
 40
0.5551174625
 40
0.786490589
 40
0.8945216622
 40
1.0
 40
1.0
 40
1.0
 40
1.0
 10
273.1303530969
 20
18.6918300341
 30
0.0
 10
273.1335148476
 20
18.4713271312
 30
0.0
 10
273.1757327935
 20
18.0533355754
 30
0.0
 10
273.3646548603
 20
17.4877739876
 30
0.0
 10
273.6292430954
 20
17.1110023141
 30
0.0
 10
273.8907339321
 20
16.9001705953
 30
0.0
 10
274.033844632
 20
16.8251413083
 30
0.0
 10
274.1073285589
 20
16.7955837311
 30
0.0
  0
SPLINE
  5
661
100
AcDbEntity
  8
0
100
AcDbSpline
 62
7
  6
CONTINUOUS
 70
0
 71
3
 72
12
 73
8
 74
0
 42
0.0000001
 43
0.0000001
 44
0.0000000001
 40
0.0
 40
0.0
 40
0.0
 40
0.0
 40
0.2936743168
 40
0.5551174625
 40
0.786490589
 40
0.8945216622
 40
1.0
 40
1.0
 40
1.0
 40
1.0
 10
272.9658874445
 20
30.1617897874
 30
0.0
 10
272.9690491952
 20
29.9412868845
 30
0.0
 10
273.011267141
 20
29.5232953287
 30
0.0
 10
273.2001892078
 20
28.9577337409
 30
0.0
 10
273.464777443
 20
28.5809620674
 30
0.0
 10
273.7262682796
 20
28.3701303486
 30
0.0
 10
273.8693789795
 20
28.2951010616
 30
0.0
 10
273.9428629065
 20
28.2655434844
 30
0.0
  0
SPLINE
  5
662
100
AcDbEntity
  8
0
100
AcDbSpline
 62
7
  6
CONTINUOUS
 70
0
 71
3
 72
11
 73
7
 74
0
 42
0.0000001
 43
0.0000001
 44
0.0000000001
 40
0.0
 40
0.0
 40
0.0
 40
0.0
 40
0.222447652
 40
0.4622819353
 40
0.7216533208
 40
1.0
 40
1.0
 40
1.0
 40
1.0
 10
266.5292059354
 20
22.573176626
 30
0.0
 10
266.6324177058
 20
22.6950452471
 30
0.0
 10
266.8141558934
 20
22.977202272
 30
0.0
 10
266.9935507641
 20
23.4667927454
 30
0.0
 10
267.085378898
 20
24.0202028115
 30
0.0
 10
267.0867908418
 20
24.4079284981
 30
0.0
 10
267.0738395117
 20
24.6073416065
 30
0.0
  0
SPLINE
  5
663
100
AcDbEntity
  8
0
100
AcDbSpline
 62
7
  6
CONTINUOUS
 70
0
 71
3
 72
9
 73
5
 74
0
 42
0.0000001
 43
0.0000001
 44
0.0000000001
 40
0.0
 40
0.0
 40
0.0
 40
0.0
 40
0.260899947
 40
1.0
 40
1.0
 40
1.0
 40
1.0
 10
265.2412721791
 20
28.2530927661
 30
0.0
 10
265.176100816
 20
28.30843769
 30
0.0
 10
264.920185113
 20
28.5130969175
 30
0.0
 10
264.6386620774
 20
28.686954015
 30
0.0
 10
264.4191605994
 20
28.7893581842
 30
0.0
  0
SPLINE
  5
664
100
AcDbEntity
  8
0
100
AcDbSpline
 62
7
  6
CONTINUOUS
 70
0
 71
3
 72
11
 73
7
 74
0
 42
0.0000001
 43
0.0000001
 44
0.0000000001
 40
0.0
 40
0.0
 40
0.0
 40
0.0
 40
0.2450643635
 40
0.5000018878
 40
0.7549369173
 40
1.0
 40
1.0
 40
1.0
 40
1.0
 10
265.2454890518
 20
28.2533320429
 30
0.0
 10
265.4960795575
 20
28.0239956468
 30
0.0
 10
265.9599039485
 20
27.5024726665
 30
0.0
 10
266.5096998684
 20
26.6063801351
 30
0.0
 10
266.9005816061
 20
25.6304344371
 30
0.0
 10
267.042203621
 20
24.9470212778
 30
0.0
 10
267.0766668512
 20
24.6090836152
 30
0.0
  0
SPLINE
  5
665
100
AcDbEntity
  8
0
100
AcDbSpline
 62
7
  6
CONTINUOUS
 70
0
 71
3
 72
17
 73
13
 74
0
 42
0.0000001
 43
0.0000001
 44
0.0000000001
 40
0.0
 40
0.0
 40
0.0
 40
0.0
 40
0.0445513277
 40
0.0904540075
 40
0.1388540805
 40
0.190565113
 40
0.3051277955
 40
0.4343961218
 40
0.5746376207
 40
0.7200487605
 40
0.86397112
 40
1.0
 40
1.0
 40
1.0
 40
1.0
 10
276.5143279045
 20
22.7796172826
 30
0.0
 10
276.4316843422
 20
22.8128591571
 30
0.0
 10
276.255628282
 20
22.8614471755
 30
0.0
 10
275.9763953232
 20
22.875384611
 30
0.0
 10
275.6859819596
 20
22.8314780505
 30
0.0
 10
275.277689178
 20
22.6932020441
 30
0.0
 10
274.7705962273
 20
22.3745170884
 30
0.0
 10
274.2267889245
 20
21.8254696174
 30
0.0
 10
273.759881263
 20
21.1344805382
 30
0.0
 10
273.4021470674
 20
20.3493620417
 30
0.0
 10
273.1781898262
 20
19.52515953
 30
0.0
 10
273.1264535685
 20
18.9637861094
 30
0.0
 10
273.1303530969
 20
18.6918300341
 30
0.0
  0
SPLINE
  5
666
100
AcDbEntity
  8
0
100
AcDbSpline
 62
7
  6
CONTINUOUS
 70
0
 71
3
 72
17
 73
13
 74
0
 42
0.0000001
 43
0.0000001
 44
0.0000000001
 40
0.0
 40
0.0
 40
0.0
 40
0.0
 40
0.0445513277
 40
0.0904540075
 40
0.1388540805
 40
0.190565113
 40
0.3051277955
 40
0.4343961218
 40
0.5746376207
 40
0.7200487605
 40
0.86397112
 40
1.0
 40
1.0
 40
1.0
 40
1.0
 10
276.3498622521
 20
34.2495770359
 30
0.0
 10
276.2672186898
 20
34.2828189104
 30
0.0
 10
276.0911626296
 20
34.3314069288
 30
0.0
 10
275.8119296708
 20
34.3453443643
 30
0.0
 10
275.5215163071
 20
34.3014378038
 30
0.0
 10
275.1132235256
 20
34.1631617973
 30
0.0
 10
274.6061305749
 20
33.8444768417
 30
0.0
 10
274.0623232721
 20
33.2954293707
 30
0.0
 10
273.5954156106
 20
32.6044402915
 30
0.0
 10
273.2376814149
 20
31.819321795
 30
0.0
 10
273.0137241738
 20
30.9951192833
 30
0.0
 10
272.9619879161
 20
30.4337458627
 30
0.0
 10
272.9658874445
 20
30.1617897874
 30
0.0
  0
SPLINE
  5
667
100
AcDbEntity
  8
0
100
AcDbSpline
 62
7
  6
CONTINUOUS
 70
0
 71
3
 72
9
 73
5
 74
0
 42
0.0000001
 43
0.0000001
 44
0.0000000001
 40
0.0
 40
0.0
 40
0.0
 40
0.0
 40
0.2762856232
 40
1.0
 40
1.0
 40
1.0
 40
1.0
 10
264.4191605994
 20
28.7893581842
 30
0.0
 10
264.4203195417
 20
28.7943854781
 30
0.0
 10
264.4246705342
 20
28.8125438369
 30
0.0
 10
264.4296611522
 20
28.8305580919
 30
0.0
 10
264.4338193901
 20
28.8434165492
 30
0.0
  0
SPLINE
  5
668
100
AcDbEntity
  8
0
100
AcDbSpline
 62
7
  6
CONTINUOUS
 70
0
 71
3
 72
12
 73
8
 74
0
 42
0.0000001
 43
0.0000001
 44
0.0000000001
 40
0.0
 40
0.0
 40
0.0
 40
0.0
 40
0.2936743168
 40
0.5551174625
 40
0.786490589
 40
0.8945216622
 40
1.0
 40
1.0
 40
1.0
 40
1.0
 10
277.4913033665
 20
20.8833709796
 30
0.0
 10
277.4881416158
 20
21.1038738825
 30
0.0
 10
277.4459236699
 20
21.5218654383
 30
0.0
 10
277.2570016032
 20
22.0874270261
 30
0.0
 10
276.992413368
 20
22.4641986996
 30
0.0
 10
276.7309225314
 20
22.6750304184
 30
0.0
 10
276.5878118314
 20
22.7500597054
 30
0.0
 10
276.5143279045
 20
22.7796172826
 30
0.0
  0
SPLINE
  5
669
100
AcDbEntity
  8
0
100
AcDbSpline
 62
7
  6
CONTINUOUS
 70
0
 71
3
 72
9
 73
5
 74
0
 42
0.0000001
 43
0.0000001
 44
0.0000000001
 40
0.0
 40
0.0
 40
0.0
 40
0.0
 40
0.2407284067
 40
1.0
 40
1.0
 40
1.0
 40
1.0
 10
264.4485164144
 20
28.8352622108
 30
0.0
 10
264.5177577396
 20
28.7966350952
 30
0.0
 10
264.8001247097
 20
28.6268007566
 30
0.0
 10
265.0610085842
 20
28.4221655965
 30
0.0
 10
265.2454890518
 20
28.2533320429
 30
0.0
  0
SPLINE
  5
66A
100
AcDbEntity
  8
0
100
AcDbSpline
 62
7
  6
CONTINUOUS
 70
0
 71
3
 72
12
 73
8
 74
0
 42
0.0000001
 43
0.0000001
 44
0.0000000001
 40
0.0
 40
0.0
 40
0.0
 40
0.0
 40
0.2936743168
 40
0.5551174625
 40
0.786490589
 40
0.8945216622
 40
1.0
 40
1.0
 40
1.0
 40
1.0
 10
277.3268377141
 20
32.3533307329
 30
0.0
 10
277.3236759634
 20
32.5738336358
 30
0.0
 10
277.2814580175
 20
32.9918251916
 30
0.0
 10
277.0925359507
 20
33.5573867794
 30
0.0
 10
276.8279477156
 20
33.9341584529
 30
0.0
 10
276.5664568789
 20
34.1449901716
 30
0.0
 10
276.423346179
 20
34.2200194587
 30
0.0
 10
276.3498622521
 20
34.2495770359
 30
0.0
  0
SPLINE
  5
66B
100
AcDbEntity
  8
0
100
AcDbSpline
 62
7
  6
CONTINUOUS
 70
0
 71
3
 72
11
 73
7
 74
0
 42
0.0000001
 43
0.0000001
 44
0.0000000001
 40
0.0
 40
0.0
 40
0.0
 40
0.0
 40
0.2829753281
 40
0.5437105434
 40
0.7814649314
 40
1.0
 40
1.0
 40
1.0
 40
1.0
 10
267.0766668512
 20
24.6090836152
 30
0.0
 10
267.1027109648
 20
24.3537016665
 30
0.0
 10
267.1145255381
 20
23.8577649057
 30
0.0
 10
266.9989560256
 20
23.1534596892
 30
0.0
 10
266.7523646431
 20
22.5449137111
 30
0.0
 10
266.4952433878
 20
22.2115207227
 30
0.0
 10
266.3505322207
 20
22.0760177177
 30
0.0
  0
SPLINE
  5
66C
100
AcDbEntity
  8
0
100
AcDbSpline
 62
7
  6
CONTINUOUS
 70
0
 71
3
 72
11
 73
7
 74
0
 42
0.0000001
 43
0.0000001
 44
0.0000000001
 40
0.0
 40
0.0
 40
0.0
 40
0.0
 40
0.2379475155
 40
0.4949494491
 40
0.7546305679
 40
1.0
 40
1.0
 40
1.0
 40
1.0
 10
273.154845873
 20
18.4039248361
 30
0.0
 10
273.3967025511
 20
18.6124600095
 30
0.0
 10
273.8396524479
 20
19.1175516853
 30
0.0
 10
274.3362470928
 20
20.0072666026
 30
0.0
 10
274.6560241549
 20
20.985150173
 30
0.0
 10
274.7334607799
 20
21.665339947
 30
0.0
 10
274.7287394015
 20
21.9946124702
 30
0.0
  0
SPLINE
  5
66D
100
AcDbEntity
  8
0
100
AcDbSpline
 62
7
  6
CONTINUOUS
 70
0
 71
3
 72
17
 73
13
 74
0
 42
0.0000001
 43
0.0000001
 44
0.0000000001
 40
0.0
 40
0.0
 40
0.0
 40
0.0
 40
0.0445513277
 40
0.0904540075
 40
0.1388540805
 40
0.190565113
 40
0.3051277955
 40
0.4343961218
 40
0.5746376207
 40
0.7200487605
 40
0.86397112
 40
1.0
 40
1.0
 40
1.0
 40
1.0
 10
274.1073285589
 20
16.7955837311
 30
0.0
 10
274.1899721212
 20
16.7623418566
 30
0.0
 10
274.3660281814
 20
16.7137538382
 30
0.0
 10
274.6452611402
 20
16.6998164027
 30
0.0
 10
274.9356745039
 20
16.7437229631
 30
0.0
 10
275.3439672854
 20
16.8819989696
 30
0.0
 10
275.8510602361
 20
17.2006839252
 30
0.0
 10
276.3948675389
 20
17.7497313963
 30
0.0
 10
276.8617752004
 20
18.4407204755
 30
0.0
 10
277.219509396
 20
19.225838972
 30
0.0
 10
277.4434666372
 20
20.0500414837
 30
0.0
 10
277.4952028949
 20
20.6114149043
 30
0.0
 10
277.4913033665
 20
20.8833709796
 30
0.0
  0
SPLINE
  5
66E
100
AcDbEntity
  8
0
100
AcDbSpline
 62
7
  6
CONTINUOUS
 70
0
 71
3
 72
11
 73
7
 74
0
 42
0.0000001
 43
0.0000001
 44
0.0000000001
 40
0.0
 40
0.0
 40
0.0
 40
0.0
 40
0.2379475155
 40
0.4949494491
 40
0.7546305679
 40
1.0
 40
1.0
 40
1.0
 40
1.0
 10
272.9903802205
 20
29.8738845894
 30
0.0
 10
273.2322368987
 20
30.0824197628
 30
0.0
 10
273.6751867955
 20
30.5875114386
 30
0.0
 10
274.1717814404
 20
31.4772263559
 30
0.0
 10
274.4915585025
 20
32.4551099263
 30
0.0
 10
274.5689951275
 20
33.1352997003
 30
0.0
 10
274.564273749
 20
33.4645722235
 30
0.0
  0
SPLINE
  5
66F
100
AcDbEntity
  8
0
100
AcDbSpline
 62
7
  6
CONTINUOUS
 70
0
 71
3
 72
17
 73
13
 74
0
 42
0.0000001
 43
0.0000001
 44
0.0000000001
 40
0.0
 40
0.0
 40
0.0
 40
0.0
 40
0.0445513277
 40
0.0904540075
 40
0.1388540805
 40
0.190565113
 40
0.3051277955
 40
0.4343961218
 40
0.5746376207
 40
0.7200487605
 40
0.86397112
 40
1.0
 40
1.0
 40
1.0
 40
1.0
 10
273.9428629065
 20
28.2655434844
 30
0.0
 10
274.0255064688
 20
28.2323016099
 30
0.0
 10
274.2015625289
 20
28.1837135915
 30
0.0
 10
274.4807954878
 20
28.169776156
 30
0.0
 10
274.7712088514
 20
28.2136827164
 30
0.0
 10
275.179501633
 20
28.3519587229
 30
0.0
 10
275.6865945836
 20
28.6706436785
 30
0.0
 10
276.2304018864
 20
29.2196911496
 30
0.0
 10
276.697309548
 20
29.9106802288
 30
0.0
 10
277.0550437436
 20
30.6957987252
 30
0.0
 10
277.2790009848
 20
31.520001237
 30
0.0
 10
277.3307372425
 20
32.0813746576
 30
0.0
 10
277.3268377141
 20
32.3533307329
 30
0.0
  0
SPLINE
  5
670
100
AcDbEntity
  8
0
100
AcDbSpline
 62
7
  6
CONTINUOUS
 70
0
 71
3
 72
9
 73
5
 74
0
 42
0.0000001
 43
0.0000001
 44
0.0000000001
 40
0.0
 40
0.0
 40
0.0
 40
0.0
 40
0.2622756233
 40
1.0
 40
1.0
 40
1.0
 40
1.0
 10
292.8040696527
 20
63.2161491026
 30
0.0
 10
293.288167645
 20
63.7670623778
 30
0.0
 10
295.2146444436
 20
65.7918601095
 30
0.0
 10
297.4978069367
 20
67.5035728024
 30
0.0
 10
299.3410086127
 20
68.429850722
 30
0.0
  0
SPLINE
  5
671
100
AcDbEntity
  8
0
100
AcDbSpline
 62
7
  6
CONTINUOUS
 70
0
 71
3
 72
9
 73
5
 74
0
 42
0.0000001
 43
0.0000001
 44
0.0000000001
 40
0.0
 40
0.0
 40
0.0
 40
0.0
 40
0.485112122
 40
1.0
 40
1.0
 40
1.0
 40
1.0
 10
280.0886347638
 20
29.7464937809
 30
0.0
 10
281.5071684036
 20
30.8894723081
 30
0.0
 10
284.1485077756
 20
33.605364906
 30
0.0
 10
286.2142836781
 20
36.7674504623
 30
0.0
 10
287.1306791818
 20
38.4700219378
 30
0.0
  0
SPLINE
  5
672
100
AcDbEntity
  8
0
100
AcDbSpline
 62
7
  6
CONTINUOUS
 70
0
 71
3
 72
11
 73
7
 74
0
 42
0.0000001
 43
0.0000001
 44
0.0000000001
 40
0.0
 40
0.0
 40
0.0
 40
0.0
 40
0.2844852593
 40
0.5516109812
 40
0.7927760123
 40
1.0
 40
1.0
 40
1.0
 40
1.0
 10
295.4330947358
 20
53.8950822347
 30
0.0
 10
295.9201003318
 20
54.7998900745
 30
0.0
 10
296.968370979
 20
56.5010680957
 30
0.0
 10
298.7737242418
 20
58.7348341935
 30
0.0
 10
300.6750018606
 20
60.4989422957
 30
0.0
 10
302.0399243617
 20
61.3923739015
 30
0.0
 10
302.7087073766
 20
61.7284624304
 30
0.0
  0
SPLINE
  5
673
100
AcDbEntity
  8
0
100
AcDbSpline
 62
7
  6
CONTINUOUS
 70
0
 71
3
 72
9
 73
5
 74
0
 42
0.0000001
 43
0.0000001
 44
0.0000000001
 40
0.0
 40
0.0
 40
0.0
 40
0.0
 40
0.241030321
 40
1.0
 40
1.0
 40
1.0
 40
1.0
 10
277.7942408727
 20
37.9710075851
 30
0.0
 10
278.0476441696
 20
38.2716027154
 30
0.0
 10
279.0633809566
 20
39.5485161193
 30
0.0
 10
279.9397966936
 20
40.9345345166
 30
0.0
 10
280.5265408548
 20
42.0246466661
 30
0.0
  0
SPLINE
  5
674
100
AcDbEntity
  8
0
100
AcDbSpline
 62
7
  6
CONTINUOUS
 70
0
 71
3
 72
18
 73
14
 74
0
 42
0.0000001
 43
0.0000001
 44
0.0000000001
 40
0.0
 40
0.0
 40
0.0
 40
0.0
 40
0.3398583788
 40
0.5091900883
 40
0.6646877984
 40
0.7343601666
 40
0.7972804203
 40
0.8525568518
 40
0.8994686482
 40
0.9374737243
 40
0.9663474405
 40
0.9864591563
 40
1.0
 40
1.0
 40
1.0
 40
1.0
 10
291.0775958581
 20
56.802557583
 30
0.0
 10
291.6247811774
 20
56.5496306217
 30
0.0
 10
292.4293696326
 20
56.1369534339
 30
0.0
 10
293.4502210995
 20
55.5469654063
 30
0.0
 10
294.0423661464
 20
55.1736304192
 30
0.0
 10
294.4640165277
 20
54.8848714336
 30
0.0
 10
294.7332696508
 20
54.6884530564
 30
0.0
 10
294.9634142497
 20
54.5071904998
 30
0.0
 10
295.1509486769
 20
54.3437439112
 30
0.0
 10
295.2940869644
 20
54.2010288477
 30
0.0
 10
295.3900271344
 20
54.0796142541
 30
0.0
 10
295.4438935031
 20
53.9817257498
 30
0.0
 10
295.4444816813
 20
53.9162289791
 30
0.0
 10
295.4330838166
 20
53.8950881121
 30
0.0
  0
SPLINE
  5
675
100
AcDbEntity
  8
0
100
AcDbSpline
 62
7
  6
CONTINUOUS
 70
0
 71
3
 72
13
 73
9
 74
0
 42
0.0000001
 43
0.0000001
 44
0.0000000001
 40
0.0
 40
0.0
 40
0.0
 40
0.0
 40
0.2537004534
 40
0.5101793652
 40
0.6389326157
 40
0.7666379376
 40
0.8897662268
 40
1.0
 40
1.0
 40
1.0
 40
1.0
 10
293.1378150147
 20
63.3575008218
 30
0.0
 10
293.3657561779
 20
63.5887642522
 30
0.0
 10
293.8399686555
 20
64.0384615492
 30
0.0
 10
294.4838398015
 20
64.5462510417
 30
0.0
 10
295.0424204595
 20
64.892627981
 30
0.0
 10
295.4829364035
 20
65.1017594953
 30
0.0
 10
295.9295370927
 20
65.2280877127
 30
0.0
 10
296.2418496335
 20
65.2109082796
 30
0.0
 10
296.3727465397
 20
65.1582549927
 30
0.0
  0
SPLINE
  5
676
100
AcDbEntity
  8
0
100
AcDbSpline
 62
7
  6
CONTINUOUS
 70
0
 71
3
 72
16
 73
12
 74
0
 42
0.0000001
 43
0.0000001
 44
0.0000000001
 40
0.0
 40
0.0
 40
0.0
 40
0.0
 40
0.1217677568
 40
0.2568973284
 40
0.3995757362
 40
0.5420984921
 40
0.6768116783
 40
0.7979837023
 40
0.9039588773
 40
0.9527206734
 40
1.0
 40
1.0
 40
1.0
 40
1.0
 10
300.9768621817
 20
68.4264210956
 30
0.0
 10
301.2833500595
 20
68.3031363318
 30
0.0
 10
301.8866796749
 20
67.9320873798
 30
0.0
 10
302.6483133173
 20
67.1492999441
 30
0.0
 10
303.2602273707
 20
66.1774476296
 30
0.0
 10
303.6663198384
 20
65.1047248171
 30
0.0
 10
303.8293625537
 20
64.0267083712
 30
0.0
 10
303.7333184349
 20
63.0377885586
 30
0.0
 10
303.419049498
 20
62.3363355167
 30
0.0
 10
303.0427103947
 20
61.9320131542
 30
0.0
 10
302.8233086468
 20
61.7860755754
 30
0.0
 10
302.7086893532
 20
61.7284983015
 30
0.0
  0
SPLINE
  5
677
100
AcDbEntity
  8
0
100
AcDbSpline
 62
7
  6
CONTINUOUS
 70
0
 71
3
 72
10
 73
6
 74
0
 42
0.0000001
 43
0.0000001
 44
0.0000000001
 40
0.0
 40
0.0
 40
0.0
 40
0.0
 40
0.2335241193
 40
0.4746227855
 40
1.0
 40
1.0
 40
1.0
 40
1.0
 10
299.3410266362
 20
68.429814851
 30
0.0
 10
299.4578637748
 20
68.4885062259
 30
0.0
 10
299.7111940314
 20
68.5787502394
 30
0.0
 10
300.2721472946
 20
68.6370179913
 30
0.0
 10
300.7039550061
 20
68.5361980204
 30
0.0
 10
300.9768621817
 20
68.4264210956
 30
0.0
  0
SPLINE
  5
678
100
AcDbEntity
  8
0
100
AcDbSpline
 62
7
  6
CONTINUOUS
 70
0
 71
3
 72
20
 73
16
 74
0
 42
0.0000001
 43
0.0000001
 44
0.0000000001
 40
0.0
 40
0.0
 40
0.0
 40
0.0
 40
0.1471790767
 40
0.3114992353
 40
0.4805876932
 40
0.6416209327
 40
0.7152796703
 40
0.7824870601
 40
0.8420047924
 40
0.8927847963
 40
0.9339914464
 40
0.9651554249
 40
0.9769899656
 40
0.986487835
 40
1.0
 40
1.0
 40
1.0
 40
1.0
 10
282.0018477209
 20
41.7132464259
 30
0.0
 10
282.2824155523
 20
41.6003880019
 30
0.0
 10
282.8683657024
 20
41.3419428156
 30
0.0
 10
283.7536305989
 20
40.9038802627
 30
0.0
 10
284.6460056707
 20
40.4177324865
 30
0.0
 10
285.3584859269
 20
39.9920386241
 30
0.0
 10
285.8789195511
 20
39.6543515511
 30
0.0
 10
286.2178627203
 20
39.4204594757
 30
0.0
 10
286.5106877469
 20
39.2028869782
 30
0.0
 10
286.7521280877
 20
39.006096695
 30
0.0
 10
286.9374360474
 20
38.8335175168
 30
0.0
 10
287.0527689942
 20
38.7038391162
 30
0.0
 10
287.1107917968
 20
38.6120870417
 30
0.0
 10
287.1401073905
 20
38.5476326147
 30
0.0
 10
287.1438419123
 20
38.4944675233
 30
0.0
 10
287.1306659767
 20
38.4700290455
 30
0.0
  0
SPLINE
  5
679
100
AcDbEntity
  8
0
100
AcDbSpline
 62
7
  6
CONTINUOUS
 70
0
 71
3
 72
13
 73
9
 74
0
 42
0.0000001
 43
0.0000001
 44
0.0000000001
 40
0.0
 40
0.0
 40
0.0
 40
0.0
 40
0.1003192246
 40
0.1864476116
 40
0.299256654
 40
0.4384917776
 40
0.6030121198
 40
1.0
 40
1.0
 40
1.0
 40
1.0
 10
280.5265540599
 20
42.0246395583
 30
0.0
 10
280.551085914
 20
42.0701407804
 30
0.0
 10
280.6673855185
 20
42.0924541501
 30
0.0
 10
280.8142841291
 20
42.0819506037
 30
0.0
 10
280.9887097254
 20
42.0519647479
 30
0.0
 10
281.1959158625
 20
41.9988885621
 30
0.0
 10
281.5413138788
 20
41.8919246001
 30
0.0
 10
281.8120640975
 20
41.7895868977
 30
0.0
 10
282.0018477209
 20
41.7132464259
 30
0.0
  0
SPLINE
  5
67A
100
AcDbEntity
  8
0
100
AcDbSpline
 62
7
  6
CONTINUOUS
 70
0
 71
3
 72
23
 73
19
 74
0
 42
0.0000001
 43
0.0000001
 44
0.0000000001
 40
0.0
 40
0.0
 40
0.0
 40
0.0
 40
0.0256752918
 40
0.0505440963
 40
0.0762186038
 40
0.1030128246
 40
0.1307947342
 40
0.1593758964
 40
0.2183267165
 40
0.2790543049
 40
0.3410609138
 40
0.4040533823
 40
0.4678526174
 40
0.5974629492
 40
0.7295317102
 40
0.8639983272
 40
0.9320396896
 40
1.0
 40
1.0
 40
1.0
 40
1.0
 10
296.3727465397
 20
65.1582549927
 30
0.0
 10
296.4576420303
 20
65.1241057774
 30
0.0
 10
296.6121667237
 20
65.0156189638
 30
0.0
 10
296.7407153752
 20
64.7683584345
 30
0.0
 10
296.7879837628
 20
64.494317135
 30
0.0
 10
296.7819266663
 20
64.2072449287
 30
0.0
 10
296.7375434703
 20
63.9136488022
 30
0.0
 10
296.6388717081
 20
63.5142729661
 30
0.0
 10
296.4594102646
 20
63.01595907
 30
0.0
 10
296.1875657129
 20
62.4277470385
 30
0.0
 10
295.8717923459
 20
61.8455730369
 30
0.0
 10
295.5213434553
 20
61.2708836899
 30
0.0
 10
295.0122884395
 20
60.5117483219
 30
0.0
 10
294.3106853341
 20
59.5863711992
 30
0.0
 10
293.3741849902
 20
58.5283673401
 30
0.0
 10
292.5009334257
 20
57.7109681054
 30
0.0
 10
291.724192585
 20
57.1387079419
 30
0.0
 10
291.3000915649
 20
56.8982713085
 30
0.0
 10
291.0775958581
 20
56.802557583
 30
0.0
  0
ELLIPSE
  5
67B
100
AcDbEntity
  8
0
100
AcDbEllipse
 62
7
  6
CONTINUOUS
 10
270.7145751953
 20
265.2101143055
 30
0.0
 11
0.0
 21
17.6678188655
 31
0.0
 40
0.4245006165
 41
-3.4021448185
 42
-2.8810404887
  0
ELLIPSE
  5
67C
100
AcDbEntity
  8
0
100
AcDbEllipse
 62
7
  6
CONTINUOUS
 10
137.9046196792
 20
28.9997971447
 30
0.0
 11
6.4013381162
 21
0.0
 31
0.0
 40
0.6248693519
 41
-1.5707965333
 42
1.5707961203
  0
ELLIPSE
  5
67D
100
AcDbEntity
  8
0
100
AcDbEllipse
 62
7
  6
CONTINUOUS
 10
293.4982839697
 20
61.2967710559
 30
0.0
 11
2.31962886
 21
2.7648381292
 31
0.0
 40
0.4222587649
 41
-2.3671361013
 42
0.7744565523
  0
ELLIPSE
  5
67E
100
AcDbEntity
  8
0
100
AcDbEllipse
 62
7
  6
CONTINUOUS
 10
299.4924547463
 20
69.3491960237
 30
0.0
 11
9.5705241751
 21
12.6180577202
 31
0.0
 40
0.181608218
 41
-3.2942450352
 42
-2.8315108091
  0
ENDSEC
  0
SECTION
  2
OBJECTS
  0
DICTIONARY
  5
C
100
AcDbDictionary
280
0
281
1
  3
ACAD_GROUP
350
D
  3
ACAD_MLINESTYLE
350
17
  3
ACAD_LAYOUT
350
1A
  3
ACAD_PLOTSETTINGS
350
19
  3
ACAD_PLOTSTYLENAME
350
E
  0
DICTIONARY
  5
D
102
{ACAD_REACTORS
330
C
102
}
100
AcDbDictionary
280
0
281
1
  0
ACDBDICTIONARYWDFLT
  5
E
102
{ACAD_REACTORS
330
C
102
}
100
AcDbDictionary
281
1
  3
Normal
350
F
100
AcDbDictionaryWithDefault
340
F
  0
DICTIONARY
  5
17
102
{ACAD_REACTORS
330
C
102
}
100
AcDbDictionary
280
0
281
1
  3
Standard
350
18
  0
DICTIONARY
  5
19
102
{ACAD_REACTORS
330
C
102
}
100
AcDbDictionary
281
1
  0
DICTIONARY
  5
1A
102
{ACAD_REACTORS
330
C
102
}
100
AcDbDictionary
281
1
  3
Model
350
67F
  3
Layout1
350
680
  0
ACDBPLACEHOLDER
  5
F
102
{ACAD_REACTORS
330
E
102
}
  0
MLINESTYLE
  5
18
102
{ACAD_REACTORS
330
17
102
}
100
AcDbMlineStyle
  2
STANDARD
 70
0
  3

 62
256
 51
90.0
 52
90.0
 71
2
 49
0.5
 62
256
  6
BYLAYER
 49
-0.5
 62
256
  6
BYLAYER
  0
LAYOUT
  5
67F
102
{ACAD_REACTORS
330
1A
102
}
100
AcDbPlotSettings
  1

  2
none_device
  4
ISO_A3_(420.00_x_297.00_MM)
  6

 40
0.0
 41
0.0
 42
0.0
 43
0.0
 44
420.0
 45
297.0
 46
0.0
 47
0.0
 48
0.0
 49
0.0
140
0.0
141
0.0
142
1.0
143
1.0
 70
1024
 72
1
 73
0
 74
0
  7

 75
0
147
1.0
148
0.0
149
0.0
100
AcDbLayout
  1
Model
 70
0
 71
0
 10
0.0
 20
0.0
 11
420.0
 21
297.0
 12
0.0
 22
0.0
 32
0.0
 14
0.0
 24
0.0
 34
0.0
 15
0.0
 25
0.0
 35
0.0
146
0.0
 13
0.0
 23
0.0
 33
0.0
 16
1.0
 26
0.0
 36
0.0
 17
0.0
 27
1.0
 37
0.0
 76
0
330
216
345
0
346
0
  0
LAYOUT
  5
680
102
{ACAD_REACTORS
330
1A
102
}
100
AcDbPlotSettings
  1

  2
none_device
  4
ISO_A3_(420.00_x_297.00_MM)
  6

 40
0.0
 41
0.0
 42
0.0
 43
0.0
 44
420.0
 45
297.0
 46
0.0
 47
0.0
 48
0.0
 49
0.0
140
0.0
141
0.0
142
1.0
143
1.0
 70
0
 72
1
 73
0
 74
0
  7

 75
0
147
1.0
148
0.0
149
0.0
100
AcDbLayout
  1
Layout1
 70
0
 71
1
 10
0.0
 20
0.0
 11
420.0
 21
297.0
 12
0.0
 22
0.0
 32
0.0
 14
0.0
 24
0.0
 34
0.0
 15
0.0
 25
0.0
 35
0.0
146
0.0
 13
0.0
 23
0.0
 33
0.0
 16
1.0
 26
0.0
 36
0.0
 17
0.0
 27
1.0
 37
0.0
 76
0
330
217
345
0
346
0
  0
ENDSEC
  0
EOF
