999
DXF file: sensoradapter_dm12_etage.dxf
999
Pro/ENGINEER 2018400 by Parametric Technology Corporation
  0
SECTION
  2
HEADER
  9
$ACADVER
  1
AC1027
  9
$DWGCODEPAGE
  3
ANSI_1252
  9
$EXTMAX
 10
420.0
 20
297.0
 30
0.0
  9
$EXTMIN
 10
0.0
 20
0.0
 30
0.0
  9
$LIMMIN
 10
0.0
 20
0.0
  9
$LIMMAX
 10
420.0
 20
297.0
  9
$VIEWCTR
 10
210.0
 20
148.5
  9
$VIEWSIZE
 40
297.0
  9
$CLAYER
  8
0
  9
$LTSCALE
 40
23.1
  9
$CELTYPE
  6
BYLAYER
  9
$DIMSCALE
 40
1.0
  9
$DIMASZ
 40
3.5
  9
$DIMEXO
 40
1.0
  9
$DIMDLI
 40
15.96
  9
$DIMEXE
 40
1.5
  9
$DIMCEN
 40
3.78
  9
$DIMLFAC
 40
1.0
  9
$DIMBLK
  1
_FILLED
  9
$DIMALT
 70
0
  9
$DIMALTF
 40
0.0393700787
  9
$DIMTXT
 40
3.5
  9
$DIMTOL
 70
1
  9
$DIMLIM
 70
0
  9
$DIMTFAC
 40
1.0
  9
$DIMTP
 40
0.01
  9
$DIMTM
 40
0.01
  9
$DIMGAP
 40
0.625
  9
$DIMDSEP
 70
44
  9
$AUNITS
 70
0
  9
$PDMODE
 70
3
  9
$PDSIZE
 40
8.0
  9
$HANDSEED
  5
675
  9
$TILEMODE
 70
1
  9
$MEASUREMENT
 70
1
  9
$INSUNITS
 70
4
  0
ENDSEC
  0
SECTION
  2
CLASSES
  0
CLASS
  1
ACDBDICTIONARYWDFLT
  2
AcDbDictionaryWithDefault
  3
AutoCAD 2000
 90
0
 91
1
280
0
281
0
  0
CLASS
  1
ACDBPLACEHOLDER
  2
AcDbPlaceHolder
  3
AutoCAD 2000
 90
0
 91
1
280
0
281
0
  0
CLASS
  1
LAYOUT
  2
AcDbLayout
  3
AutoCAD 2000
 90
0
 91
0
280
0
281
0
  0
ENDSEC
  0
SECTION
  2
TABLES
  0
TABLE
  2
VPORT
  5
8
100
AcDbSymbolTable
 70
2
  0
VPORT
  5
1F4
100
AcDbSymbolTableRecord
100
AcDbViewportTableRecord
  2
*ACTIVE
 70
0
 10
0.0
 20
0.0
 11
1.0
 21
1.0
 12
210.0
 22
148.5
 13
0.0
 23
0.0
 14
1.0
 24
1.0
 15
0.0
 25
0.0
 16
0.0
 26
0.0
 36
1.0
 17
0.0
 27
0.0
 37
0.0
 40
297.0
 41
1.4141414141
 42
50.0
 43
0.0
 44
0.0
 50
0.0
 51
0.0
 71
0
 72
100
 73
1
 74
1
 75
0
 76
0
 77
0
 78
0
  0
ENDTAB
  0
TABLE
  2
LTYPE
  5
5
100
AcDbSymbolTable
 70
6
  0
LTYPE
  5
14
100
AcDbSymbolTableRecord
100
AcDbLinetypeTableRecord
  2
BYBLOCK
 70
0
  3

 72
65
 73
0
 40
0.0
  0
LTYPE
  5
15
100
AcDbSymbolTableRecord
100
AcDbLinetypeTableRecord
  2
BYLAYER
 70
0
  3

 72
65
 73
0
 40
0.0
  0
LTYPE
  5
16
100
AcDbSymbolTableRecord
100
AcDbLinetypeTableRecord
  2
CONTINUOUS
 70
64
  3
Solid line
 72
65
 73
0
 40
0.0
  0
LTYPE
  5
1F5
100
AcDbSymbolTableRecord
100
AcDbLinetypeTableRecord
  2
CENTER
 70
64
  3
____ _ ____ _ ____ _ ____ _ ____ _ ____ _ ____
 72
65
 73
4
 40
0.6
 49
0.375
 74
0
 49
-0.075
 74
0
 49
0.075
 74
0
 49
-0.075
 74
0
  0
LTYPE
  5
1F6
100
AcDbSymbolTableRecord
100
AcDbLinetypeTableRecord
  2
HIDDEN
 70
64
  3
- - - - - - - - - - - - - - - - - - - -
 72
65
 73
2
 40
0.2
 49
0.1
 74
0
 49
-0.1
 74
0
  0
LTYPE
  5
1F7
100
AcDbSymbolTableRecord
100
AcDbLinetypeTableRecord
  2
PHANTOM
 70
64
  3
_____ _ _ _____ _ _ _____ _ _ _____
 72
65
 73
6
 40
0.8
 49
0.45
 74
0
 49
-0.05
 74
0
 49
0.1
 74
0
 49
-0.05
 74
0
 49
0.1
 74
0
 49
-0.05
 74
0
  0
LTYPE
  5
1F8
100
AcDbSymbolTableRecord
100
AcDbLinetypeTableRecord
  2
DOT
 70
64
  3
. . . . . . . . . . . . . . . . . . . .
 72
65
 73
2
 40
0.2
 49
0.1
 74
0
 49
-0.1
 74
0
  0
LTYPE
  5
1F9
100
AcDbSymbolTableRecord
100
AcDbLinetypeTableRecord
  2
DASHED
 70
64
  3
- - - - - - - - - - - - - - - - - - - -
 72
65
 73
2
 40
0.2
 49
0.1
 74
0
 49
-0.1
 74
0
  0
ENDTAB
  0
TABLE
  2
LAYER
  5
2
100
AcDbSymbolTable
 70
36
  0
LAYER
  5
10
100
AcDbSymbolTableRecord
100
AcDbLayerTableRecord
  2
0
 70
0
 62
7
  6
CONTINUOUS
370
-3
390
F
  0
LAYER
  5
1FA
100
AcDbSymbolTableRecord
100
AcDbLayerTableRecord
  2
DEFAULT_1
 70
0
 62
7
  6
CENTER
370
-3
390
F
  0
LAYER
  5
1FB
100
AcDbSymbolTableRecord
100
AcDbLayerTableRecord
  2
DEFAULT_2
 70
0
 62
8
  6
HIDDEN
370
-3
390
F
  0
LAYER
  5
1FC
100
AcDbSymbolTableRecord
100
AcDbLayerTableRecord
  2
DEFAULT_3
 70
0
 62
7
  6
PHANTOM
370
-3
390
F
  0
LAYER
  5
1FD
100
AcDbSymbolTableRecord
100
AcDbLayerTableRecord
  2
01_ALL_DTM_PLN
 70
0
 62
7
  6
CONTINUOUS
370
-3
390
F
  0
LAYER
  5
1FE
100
AcDbSymbolTableRecord
100
AcDbLayerTableRecord
  2
01__ASM_ALL_DTM_PLN
 70
0
 62
7
  6
CONTINUOUS
370
-3
390
F
  0
LAYER
  5
1FF
100
AcDbSymbolTableRecord
100
AcDbLayerTableRecord
  2
01__ASM_DEF_DTM_PLN
 70
0
 62
7
  6
CONTINUOUS
370
-3
390
F
  0
LAYER
  5
200
100
AcDbSymbolTableRecord
100
AcDbLayerTableRecord
  2
01___PRT_ALL_DTM_PLN
 70
0
 62
7
  6
CONTINUOUS
370
-3
390
F
  0
LAYER
  5
201
100
AcDbSymbolTableRecord
100
AcDbLayerTableRecord
  2
01___PRT_DEF_DTM_PLN
 70
0
 62
7
  6
CONTINUOUS
370
-3
390
F
  0
LAYER
  5
202
100
AcDbSymbolTableRecord
100
AcDbLayerTableRecord
  2
02_ALL_AXES
 70
0
 62
7
  6
CONTINUOUS
370
-3
390
F
  0
LAYER
  5
203
100
AcDbSymbolTableRecord
100
AcDbLayerTableRecord
  2
02__ASM_ALL_AXES
 70
0
 62
7
  6
CONTINUOUS
370
-3
390
F
  0
LAYER
  5
204
100
AcDbSymbolTableRecord
100
AcDbLayerTableRecord
  2
02___PRT_ALL_AXES
 70
0
 62
7
  6
CONTINUOUS
370
-3
390
F
  0
LAYER
  5
205
100
AcDbSymbolTableRecord
100
AcDbLayerTableRecord
  2
03_ALL_CURVES
 70
0
 62
7
  6
CONTINUOUS
370
-3
390
F
  0
LAYER
  5
206
100
AcDbSymbolTableRecord
100
AcDbLayerTableRecord
  2
03__ASM_ALL_CURVES
 70
0
 62
7
  6
CONTINUOUS
370
-3
390
F
  0
LAYER
  5
207
100
AcDbSymbolTableRecord
100
AcDbLayerTableRecord
  2
03___PRT_ALL_CURVES
 70
0
 62
7
  6
CONTINUOUS
370
-3
390
F
  0
LAYER
  5
208
100
AcDbSymbolTableRecord
100
AcDbLayerTableRecord
  2
04_ALL_DTM_PNT
 70
0
 62
7
  6
CONTINUOUS
370
-3
390
F
  0
LAYER
  5
209
100
AcDbSymbolTableRecord
100
AcDbLayerTableRecord
  2
04__ASM_ALL_DTM_PNT
 70
0
 62
7
  6
CONTINUOUS
370
-3
390
F
  0
LAYER
  5
20A
100
AcDbSymbolTableRecord
100
AcDbLayerTableRecord
  2
04___PRT_ALL_DTM_PNT
 70
0
 62
7
  6
CONTINUOUS
370
-3
390
F
  0
LAYER
  5
20B
100
AcDbSymbolTableRecord
100
AcDbLayerTableRecord
  2
05_ALL_DTM_CSYS
 70
0
 62
7
  6
CONTINUOUS
370
-3
390
F
  0
LAYER
  5
20C
100
AcDbSymbolTableRecord
100
AcDbLayerTableRecord
  2
05__ASM_ALL_DTM_CSYS
 70
0
 62
7
  6
CONTINUOUS
370
-3
390
F
  0
LAYER
  5
20D
100
AcDbSymbolTableRecord
100
AcDbLayerTableRecord
  2
05__ASM_DEF_DTM_CSYS
 70
0
 62
7
  6
CONTINUOUS
370
-3
390
F
  0
LAYER
  5
20E
100
AcDbSymbolTableRecord
100
AcDbLayerTableRecord
  2
05___PRT_ALL_DTM_CSYS
 70
0
 62
7
  6
CONTINUOUS
370
-3
390
F
  0
LAYER
  5
20F
100
AcDbSymbolTableRecord
100
AcDbLayerTableRecord
  2
05___PRT_DEF_DTM_CSYS
 70
0
 62
7
  6
CONTINUOUS
370
-3
390
F
  0
LAYER
  5
210
100
AcDbSymbolTableRecord
100
AcDbLayerTableRecord
  2
06_ALL_SURFS
 70
0
 62
7
  6
CONTINUOUS
370
-3
390
F
  0
LAYER
  5
211
100
AcDbSymbolTableRecord
100
AcDbLayerTableRecord
  2
06__ASM_ALL_SURFS
 70
0
 62
7
  6
CONTINUOUS
370
-3
390
F
  0
LAYER
  5
212
100
AcDbSymbolTableRecord
100
AcDbLayerTableRecord
  2
06___PRT_ALL_SURFS
 70
0
 62
7
  6
CONTINUOUS
370
-3
390
F
  0
LAYER
  5
213
100
AcDbSymbolTableRecord
100
AcDbLayerTableRecord
  2
07__ASM_ALL_SKELETONS
 70
0
 62
7
  6
CONTINUOUS
370
-3
390
F
  0
ENDTAB
  0
TABLE
  2
STYLE
  5
3
100
AcDbSymbolTable
 70
1
  0
STYLE
  5
11
100
AcDbSymbolTableRecord
100
AcDbTextStyleTableRecord
  2
STANDARD
 70
0
 40
0.0
 41
0.85
 50
0.0
 71
0
 42
0.2
  3
txt
  4

  0
STYLE
  5
214
100
AcDbSymbolTableRecord
100
AcDbTextStyleTableRecord
  2
TEXTSTYLE_1
 70
0
 40
0.0
 41
0.8
 50
0.0
 71
0
 42
0.2
  3
gdt
  4

  0
ENDTAB
  0
TABLE
  2
VIEW
  5
6
100
AcDbSymbolTable
 70
0
  0
ENDTAB
  0
TABLE
  2
UCS
  5
7
100
AcDbSymbolTable
 70
0
  0
ENDTAB
  0
TABLE
  2
APPID
  5
9
100
AcDbSymbolTable
 70
1
  0
APPID
  5
215
100
AcDbSymbolTableRecord
100
AcDbRegAppTableRecord
  2
ACAD
 70
0
  0
ENDTAB
  0
TABLE
  2
BLOCK_RECORD
  5
1
100
AcDbSymbolTable
 70
0
  0
BLOCK_RECORD
  5
216
100
AcDbSymbolTableRecord
100
AcDbBlockTableRecord
  2
*Model_Space
  0
BLOCK_RECORD
  5
217
100
AcDbSymbolTableRecord
100
AcDbBlockTableRecord
  2
*Paper_Space
  0
BLOCK_RECORD
  5
218
100
AcDbSymbolTableRecord
100
AcDbBlockTableRecord
  2
_FILLED
  0
BLOCK_RECORD
  5
219
100
AcDbSymbolTableRecord
100
AcDbBlockTableRecord
  2
*D0
  0
BLOCK_RECORD
  5
21A
100
AcDbSymbolTableRecord
100
AcDbBlockTableRecord
  2
*D1
  0
BLOCK_RECORD
  5
21B
100
AcDbSymbolTableRecord
100
AcDbBlockTableRecord
  2
*D2
  0
BLOCK_RECORD
  5
21C
100
AcDbSymbolTableRecord
100
AcDbBlockTableRecord
  2
*D3
  0
BLOCK_RECORD
  5
21D
100
AcDbSymbolTableRecord
100
AcDbBlockTableRecord
  2
*D4
  0
BLOCK_RECORD
  5
21E
100
AcDbSymbolTableRecord
100
AcDbBlockTableRecord
  2
*D5
  0
BLOCK_RECORD
  5
21F
100
AcDbSymbolTableRecord
100
AcDbBlockTableRecord
  2
*D6
  0
BLOCK_RECORD
  5
220
100
AcDbSymbolTableRecord
100
AcDbBlockTableRecord
  2
*D7
  0
BLOCK_RECORD
  5
221
100
AcDbSymbolTableRecord
100
AcDbBlockTableRecord
  2
*D8
  0
BLOCK_RECORD
  5
222
100
AcDbSymbolTableRecord
100
AcDbBlockTableRecord
  2
*D9
  0
BLOCK_RECORD
  5
223
100
AcDbSymbolTableRecord
100
AcDbBlockTableRecord
  2
*D10
  0
BLOCK_RECORD
  5
224
100
AcDbSymbolTableRecord
100
AcDbBlockTableRecord
  2
*D11
  0
BLOCK_RECORD
  5
225
100
AcDbSymbolTableRecord
100
AcDbBlockTableRecord
  2
*D12
  0
BLOCK_RECORD
  5
226
100
AcDbSymbolTableRecord
100
AcDbBlockTableRecord
  2
*D13
  0
BLOCK_RECORD
  5
227
100
AcDbSymbolTableRecord
100
AcDbBlockTableRecord
  2
*D14
  0
BLOCK_RECORD
  5
228
100
AcDbSymbolTableRecord
100
AcDbBlockTableRecord
  2
*D15
  0
BLOCK_RECORD
  5
229
100
AcDbSymbolTableRecord
100
AcDbBlockTableRecord
  2
*D16
  0
BLOCK_RECORD
  5
22A
100
AcDbSymbolTableRecord
100
AcDbBlockTableRecord
  2
*D17
  0
ENDTAB
  0
TABLE
  2
DIMSTYLE
  5
A
100
AcDbSymbolTable
 70
1
100
AcDbDimStyleTable
 71
0
  0
DIMSTYLE
105
22B
100
AcDbSymbolTableRecord
100
AcDbDimStyleTableRecord
  2
STANDARD
 70
0
  3

  4

 40
1.0
 41
3.5
 42
1.0
 43
0.38
 44
1.5
 45
0.0
 46
0.0
 47
0.01
 48
0.01
140
3.5
141
0.09
142
0.0
143
25.4
144
1.0
145
0.0
146
1.0
147
0.625
 71
1.0
 72
0.0
 73
0
 74
0
 75
0
 76
0
 77
1
 78
8
 79
2
170
0
171
1
172
0
173
0
174
0
175
0
176
0
177
0
178
0
270
2
179
2
271
2
272
2
273
2
274
2
275
0
280
0
281
0
282
0
283
1
284
8
285
0
286
0
287
3
288
0
340
11
278
44
341
218
342
218
343
218
344
218
  0
DIMSTYLE
105
22C
100
AcDbSymbolTableRecord
100
AcDbDimStyleTableRecord
  2
DIMSTYLE_1
 70
0
  3

  4

 40
1.0
 41
3.5
 42
1.0
 43
0.38
 44
1.5
 45
0.0
 46
0.0
 47
0.01
 48
0.01
140
3.5
141
0.09
142
0.0
143
25.4
144
1.0
145
0.0
146
1.0
147
0.875
 71
0.0
 72
0.0
 73
0
 74
0
 75
0
 76
0
 77
1
 78
8
 79
2
170
0
171
1
172
0
173
0
174
0
175
0
176
0
177
0
178
0
270
2
179
2
271
2
272
2
273
2
274
2
275
0
280
0
281
0
282
0
283
1
284
8
285
0
286
0
287
3
288
0
340
11
278
44
341
218
342
218
343
218
344
218
  0
ENDTAB
  0
ENDSEC
  0
SECTION
  2
BLOCKS
  0
BLOCK
  5
20
100
AcDbEntity
  8
0
100
AcDbBlockBegin
  2
*Model_Space
 70
0
 10
0.0
 20
0.0
 30
0.0
  3
*Model_Space
  1

  0
ENDBLK
  5
21
100
AcDbEntity
  8
0
100
AcDbBlockEnd
  0
BLOCK
  5
1C
100
AcDbEntity
  8
0
100
AcDbBlockBegin
  2
*Paper_Space
 70
0
 10
0.0
 20
0.0
 30
0.0
  3
*Paper_Space
  1

  0
ENDBLK
  5
1D
100
AcDbEntity
  8
0
100
AcDbBlockEnd
  0
BLOCK
  5
22D
100
AcDbEntity
  8
0
100
AcDbBlockBegin
  2
_FILLED
 70
64
 10
0.0
 20
0.0
  3
_FILLED
  1

  0
SOLID
  5
22E
100
AcDbEntity
  8
0
  6
BYBLOCK
 62
0
100
AcDbTrace
 10
0.0
 20
0.0
 11
-1.0
 21
0.2142857143
 12
-1.0
 22
-0.2142857143
 13
-1.0
 23
-0.2142857143
  0
ENDBLK
  5
22F
100
AcDbEntity
  8
0
  6
BYBLOCK
 62
0
100
AcDbBlockEnd
  0
BLOCK
  5
230
100
AcDbEntity
  8
0
100
AcDbBlockBegin
 62
2
  6
CONTINUOUS
  2
*D0
 70
65
 10
0.0
 20
0.0
  3
*D0
  1

  0
MTEXT
  5
231
100
AcDbEntity
  8
0
100
AcDbMText
 62
2
  6
CONTINUOUS
  7
STANDARD
 71
2
 72
1
 10
2.9237595189
 20
234.7491294682
 30
0.0
 11
0.0
 21
1.0
 31
0.0
 73
2
 44
0.9
  1
34
 40
3.5
 41
5.95
  0
LINE
  5
232
100
AcDbEntity
  8
0
100
AcDbLine
 62
2
  6
CONTINUOUS
 10
17.2678239067
 20
217.7491294682
 11
5.7987595189
 21
217.7491294682
  0
LINE
  5
233
100
AcDbEntity
  8
0
100
AcDbLine
 62
2
  6
CONTINUOUS
 10
71.6867071554
 20
251.7491294682
 11
5.7987595189
 21
251.7491294682
  0
LINE
  5
234
100
AcDbEntity
  8
0
100
AcDbLine
 62
2
  6
CONTINUOUS
 10
7.2987595189
 20
217.7491294682
 11
7.2987595189
 21
234.7491294682
  0
LINE
  5
235
100
AcDbEntity
  8
0
100
AcDbLine
 62
2
  6
CONTINUOUS
 10
7.2987595189
 20
251.7491294682
 11
7.2987595189
 21
234.7491294682
  0
INSERT
  5
236
100
AcDbEntity
  8
0
100
AcDbBlockReference
 62
2
  6
CONTINUOUS
  2
_FILLED
 10
7.2987595189
 20
217.7491294682
 41
3.5
 42
3.5
 43
3.5
 50
270.0
  0
INSERT
  5
237
100
AcDbEntity
  8
0
100
AcDbBlockReference
 62
2
  6
CONTINUOUS
  2
_FILLED
 10
7.2987595189
 20
251.7491294682
 41
3.5
 42
3.5
 43
3.5
 50
90.0
  0
ENDBLK
  5
238
100
AcDbEntity
  8
0
  6
BYBLOCK
 62
0
100
AcDbBlockEnd
  0
BLOCK
  5
239
100
AcDbEntity
  8
0
100
AcDbBlockBegin
 62
2
  6
CONTINUOUS
  2
*D1
 70
65
 10
0.0
 20
0.0
  3
*D1
  1

  0
MTEXT
  5
23A
100
AcDbEntity
  8
0
100
AcDbMText
 62
2
  6
CONTINUOUS
  7
STANDARD
 71
2
 72
1
 10
136.8004511378
 20
177.4241294682
 30
0.0
 11
1.0
 21
0.0
 31
0.0
 73
2
 44
0.9
  1
(117)
 40
3.5
 41
14.875
  0
LINE
  5
23B
100
AcDbEntity
  8
0
100
AcDbLine
 62
2
  6
CONTINUOUS
 10
195.8810105128
 20
246.7491294682
 11
195.8810105128
 21
171.5491294682
  0
LINE
  5
23C
100
AcDbEntity
  8
0
100
AcDbLine
 62
2
  6
CONTINUOUS
 10
77.7198917627
 20
246.0491294682
 11
77.7198917627
 21
171.5491294682
  0
LINE
  5
23D
100
AcDbEntity
  8
0
100
AcDbLine
 62
2
  6
CONTINUOUS
 10
195.8810105128
 20
173.0491294682
 11
136.8004511378
 21
173.0491294682
  0
LINE
  5
23E
100
AcDbEntity
  8
0
100
AcDbLine
 62
2
  6
CONTINUOUS
 10
77.7198917627
 20
173.0491294682
 11
136.8004511378
 21
173.0491294682
  0
INSERT
  5
23F
100
AcDbEntity
  8
0
100
AcDbBlockReference
 62
2
  6
CONTINUOUS
  2
_FILLED
 10
195.8810105128
 20
173.0491294682
 41
3.5
 42
3.5
 43
3.5
  0
INSERT
  5
240
100
AcDbEntity
  8
0
100
AcDbBlockReference
 62
2
  6
CONTINUOUS
  2
_FILLED
 10
77.7198917627
 20
173.0491294682
 41
3.5
 42
3.5
 43
3.5
 50
180.0
  0
ENDBLK
  5
241
100
AcDbEntity
  8
0
  6
BYBLOCK
 62
0
100
AcDbBlockEnd
  0
BLOCK
  5
242
100
AcDbEntity
  8
0
100
AcDbBlockBegin
 62
2
  6
CONTINUOUS
  2
*D2
 70
65
 10
0.0
 20
0.0
  3
*D2
  1

  0
MTEXT
  5
243
100
AcDbEntity
  8
0
100
AcDbMText
 62
2
  6
CONTINUOUS
  7
STANDARD
 71
2
 72
1
 10
107.9398850159
 20
167.4241294682
 30
0.0
 11
1.0
 21
0.0
 31
0.0
 73
2
 44
0.9
  1
174
 40
3.5
 41
8.925
  0
LINE
  5
244
100
AcDbEntity
  8
0
100
AcDbLine
 62
2
  6
CONTINUOUS
 10
19.9987595189
 20
213.3491294682
 11
19.9987595189
 21
161.5491294682
  0
LINE
  5
245
100
AcDbEntity
  8
0
100
AcDbLine
 62
2
  6
CONTINUOUS
 10
195.8810105128
 20
246.7491294682
 11
195.8810105128
 21
161.5491294682
  0
LINE
  5
246
100
AcDbEntity
  8
0
100
AcDbLine
 62
2
  6
CONTINUOUS
 10
19.9987595189
 20
163.0491294682
 11
107.9398850159
 21
163.0491294682
  0
LINE
  5
247
100
AcDbEntity
  8
0
100
AcDbLine
 62
2
  6
CONTINUOUS
 10
195.8810105128
 20
163.0491294682
 11
107.9398850159
 21
163.0491294682
  0
INSERT
  5
248
100
AcDbEntity
  8
0
100
AcDbBlockReference
 62
2
  6
CONTINUOUS
  2
_FILLED
 10
19.9987595189
 20
163.0491294682
 41
3.5
 42
3.5
 43
3.5
 50
180.0
  0
INSERT
  5
249
100
AcDbEntity
  8
0
100
AcDbBlockReference
 62
2
  6
CONTINUOUS
  2
_FILLED
 10
195.8810105128
 20
163.0491294682
 41
3.5
 42
3.5
 43
3.5
  0
ENDBLK
  5
24A
100
AcDbEntity
  8
0
  6
BYBLOCK
 62
0
100
AcDbBlockEnd
  0
BLOCK
  5
24B
100
AcDbEntity
  8
0
100
AcDbBlockBegin
 62
2
  6
CONTINUOUS
  2
*D3
 70
65
 10
0.0
 20
0.0
  3
*D3
  1

  0
MTEXT
  5
24C
100
AcDbEntity
  8
0
100
AcDbMText
 62
2
  6
CONTINUOUS
  7
STANDARD
 71
2
 72
1
 10
204.2060105128
 20
79.6030429581
 30
0.0
 11
0.0
 21
1.0
 31
0.0
 73
2
 44
0.9
  1
15,9
 40
3.5
 41
11.9
  0
LINE
  5
24D
100
AcDbEntity
  8
0
100
AcDbLine
 62
2
  6
CONTINUOUS
 10
168.8810105128
 20
87.5530429581
 11
210.0810105128
 21
87.5530429581
  0
LINE
  5
24E
100
AcDbEntity
  8
0
100
AcDbLine
 62
2
  6
CONTINUOUS
 10
198.2072464955
 20
71.6530429581
 11
210.0810105128
 21
71.6530429581
  0
LINE
  5
24F
100
AcDbEntity
  8
0
100
AcDbLine
 62
2
  6
CONTINUOUS
 10
208.5810105128
 20
87.5530429581
 11
208.5810105128
 21
79.6030429581
  0
LINE
  5
250
100
AcDbEntity
  8
0
100
AcDbLine
 62
2
  6
CONTINUOUS
 10
208.5810105128
 20
71.6530429581
 11
208.5810105128
 21
79.6030429581
  0
INSERT
  5
251
100
AcDbEntity
  8
0
100
AcDbBlockReference
 62
2
  6
CONTINUOUS
  2
_FILLED
 10
208.5810105128
 20
87.5530429581
 41
3.5
 42
3.5
 43
3.5
 50
90.0
  0
INSERT
  5
252
100
AcDbEntity
  8
0
100
AcDbBlockReference
 62
2
  6
CONTINUOUS
  2
_FILLED
 10
208.5810105128
 20
71.6530429581
 41
3.5
 42
3.5
 43
3.5
 50
270.0
  0
ENDBLK
  5
253
100
AcDbEntity
  8
0
  6
BYBLOCK
 62
0
100
AcDbBlockEnd
  0
BLOCK
  5
254
100
AcDbEntity
  8
0
100
AcDbBlockBegin
 62
2
  6
CONTINUOUS
  2
*D4
 70
65
 10
0.0
 20
0.0
  3
*D4
  1

  0
MTEXT
  5
255
100
AcDbEntity
  8
0
100
AcDbMText
 62
2
  6
CONTINUOUS
  7
STANDARD
 71
3
 72
1
 10
207.3251469638
 20
113.5652248413
 30
0.0
 11
0.0
 21
1.0
 31
0.0
 73
2
 44
0.9
  1
M14
 40
3.5
 41
8.925
  0
LINE
  5
256
100
AcDbEntity
  8
0
100
AcDbLine
 62
2
  6
CONTINUOUS
 10
225.054196543
 20
131.9955206484
 11
210.2001469638
 21
131.9955206484
  0
LINE
  5
257
100
AcDbEntity
  8
0
100
AcDbLine
 62
2
  6
CONTINUOUS
 10
225.054196543
 20
117.9955206484
 11
210.2001469638
 21
117.9955206484
  0
LINE
  5
258
100
AcDbEntity
  8
0
100
AcDbLine
 62
2
  6
CONTINUOUS
 10
211.7001469638
 20
131.9955206484
 11
211.7001469638
 21
124.9955206484
  0
LINE
  5
259
100
AcDbEntity
  8
0
100
AcDbLine
 62
2
  6
CONTINUOUS
 10
211.7001469638
 20
117.9955206484
 11
211.7001469638
 21
124.9955206484
  0
LINE
  5
25A
100
AcDbEntity
  8
0
100
AcDbLine
 62
2
  6
CONTINUOUS
 10
211.7001469638
 20
124.9955206484
 11
211.7001469638
 21
104.6402248413
  0
INSERT
  5
25B
100
AcDbEntity
  8
0
100
AcDbBlockReference
 62
2
  6
CONTINUOUS
  2
_FILLED
 10
211.7001469638
 20
131.9955206484
 41
3.5
 42
3.5
 43
3.5
 50
90.0
  0
INSERT
  5
25C
100
AcDbEntity
  8
0
100
AcDbBlockReference
 62
2
  6
CONTINUOUS
  2
_FILLED
 10
211.7001469638
 20
117.9955206484
 41
3.5
 42
3.5
 43
3.5
 50
270.0
  0
ENDBLK
  5
25D
100
AcDbEntity
  8
0
  6
BYBLOCK
 62
0
100
AcDbBlockEnd
  0
BLOCK
  5
25E
100
AcDbEntity
  8
0
100
AcDbBlockBegin
 62
2
  6
CONTINUOUS
  2
*D5
 70
65
 10
0.0
 20
0.0
  3
*D5
  1

  0
MTEXT
  5
25F
100
AcDbEntity
  8
0
100
AcDbMText
 62
2
  6
CONTINUOUS
  7
STANDARD
 71
3
 72
1
 10
219.0383931217
 20
144.9082709221
 30
0.0
 11
1.0
 21
0.0
 31
0.0
 73
2
 44
0.9
  1
7,1
 40
3.5
 41
8.925
  0
LINE
  5
260
100
AcDbEntity
  8
0
100
AcDbLine
 62
2
  6
CONTINUOUS
 10
225.854196543
 20
132.7955206484
 11
225.854196543
 21
142.0332709221
  0
LINE
  5
261
100
AcDbEntity
  8
0
100
AcDbLine
 62
2
  6
CONTINUOUS
 10
232.954196543
 20
133.7455206484
 11
232.954196543
 21
142.0332709221
  0
LINE
  5
262
100
AcDbEntity
  8
0
100
AcDbLine
 62
2
  6
CONTINUOUS
 10
225.854196543
 20
140.5332709221
 11
210.1133931217
 21
140.5332709221
  0
LINE
  5
263
100
AcDbEntity
  8
0
100
AcDbLine
 62
2
  6
CONTINUOUS
 10
210.1133931217
 20
140.5332709221
 11
229.404196543
 21
140.5332709221
  0
LINE
  5
264
100
AcDbEntity
  8
0
100
AcDbLine
 62
2
  6
CONTINUOUS
 10
232.954196543
 20
140.5332709221
 11
237.954196543
 21
140.5332709221
  0
LINE
  5
265
100
AcDbEntity
  8
0
100
AcDbLine
 62
2
  6
CONTINUOUS
 10
237.954196543
 20
140.5332709221
 11
229.404196543
 21
140.5332709221
  0
INSERT
  5
266
100
AcDbEntity
  8
0
100
AcDbBlockReference
 62
2
  6
CONTINUOUS
  2
_FILLED
 10
225.854196543
 20
140.5332709221
 41
3.5
 42
3.5
 43
3.5
  0
INSERT
  5
267
100
AcDbEntity
  8
0
100
AcDbBlockReference
 62
2
  6
CONTINUOUS
  2
_FILLED
 10
232.954196543
 20
140.5332709221
 41
3.5
 42
3.5
 43
3.5
 50
180.0
  0
ENDBLK
  5
268
100
AcDbEntity
  8
0
  6
BYBLOCK
 62
0
100
AcDbBlockEnd
  0
BLOCK
  5
269
100
AcDbEntity
  8
0
100
AcDbBlockBegin
 62
2
  6
CONTINUOUS
  2
*D6
 70
65
 10
0.0
 20
0.0
  3
*D6
  1

  0
MTEXT
  5
26A
100
AcDbEntity
  8
0
100
AcDbMText
 62
2
  6
CONTINUOUS
  7
STANDARD
 71
2
 72
1
 10
261.154196543
 20
74.6705206484
 30
0.0
 11
1.0
 21
0.0
 31
0.0
 73
2
 44
0.9
  1
30
 40
3.5
 41
5.95
  0
LINE
  5
26B
100
AcDbEntity
  8
0
100
AcDbLine
 62
2
  6
CONTINUOUS
 10
246.154196543
 20
91.9955206484
 11
246.154196543
 21
68.7955206484
  0
LINE
  5
26C
100
AcDbEntity
  8
0
100
AcDbLine
 62
2
  6
CONTINUOUS
 10
276.154196543
 20
91.9955206484
 11
276.154196543
 21
68.7955206484
  0
LINE
  5
26D
100
AcDbEntity
  8
0
100
AcDbLine
 62
2
  6
CONTINUOUS
 10
246.154196543
 20
70.2955206484
 11
261.154196543
 21
70.2955206484
  0
LINE
  5
26E
100
AcDbEntity
  8
0
100
AcDbLine
 62
2
  6
CONTINUOUS
 10
276.154196543
 20
70.2955206484
 11
261.154196543
 21
70.2955206484
  0
INSERT
  5
26F
100
AcDbEntity
  8
0
100
AcDbBlockReference
 62
2
  6
CONTINUOUS
  2
_FILLED
 10
246.154196543
 20
70.2955206484
 41
3.5
 42
3.5
 43
3.5
 50
180.0
  0
INSERT
  5
270
100
AcDbEntity
  8
0
100
AcDbBlockReference
 62
2
  6
CONTINUOUS
  2
_FILLED
 10
276.154196543
 20
70.2955206484
 41
3.5
 42
3.5
 43
3.5
  0
ENDBLK
  5
271
100
AcDbEntity
  8
0
  6
BYBLOCK
 62
0
100
AcDbBlockEnd
  0
BLOCK
  5
272
100
AcDbEntity
  8
0
100
AcDbBlockBegin
 62
2
  6
CONTINUOUS
  2
*D7
 70
65
 10
0.0
 20
0.0
  3
*D7
  1

  0
MTEXT
  5
273
100
AcDbEntity
  8
0
100
AcDbMText
 62
2
  6
CONTINUOUS
  7
STANDARD
 71
2
 72
1
 10
268.654196543
 20
84.6705206484
 30
0.0
 11
1.0
 21
0.0
 31
0.0
 73
2
 44
0.9
  1
15
 40
3.5
 41
5.95
  0
LINE
  5
274
100
AcDbEntity
  8
0
100
AcDbLine
 62
2
  6
CONTINUOUS
 10
276.154196543
 20
91.9955206484
 11
276.154196543
 21
78.7955206484
  0
LINE
  5
275
100
AcDbEntity
  8
0
100
AcDbLine
 62
2
  6
CONTINUOUS
 10
261.154196543
 20
91.4955206484
 11
261.154196543
 21
78.7955206484
  0
LINE
  5
276
100
AcDbEntity
  8
0
100
AcDbLine
 62
2
  6
CONTINUOUS
 10
276.154196543
 20
80.2955206484
 11
281.154196543
 21
80.2955206484
  0
LINE
  5
277
100
AcDbEntity
  8
0
100
AcDbLine
 62
2
  6
CONTINUOUS
 10
281.154196543
 20
80.2955206484
 11
268.654196543
 21
80.2955206484
  0
LINE
  5
278
100
AcDbEntity
  8
0
100
AcDbLine
 62
2
  6
CONTINUOUS
 10
261.154196543
 20
80.2955206484
 11
256.154196543
 21
80.2955206484
  0
LINE
  5
279
100
AcDbEntity
  8
0
100
AcDbLine
 62
2
  6
CONTINUOUS
 10
256.154196543
 20
80.2955206484
 11
268.654196543
 21
80.2955206484
  0
INSERT
  5
27A
100
AcDbEntity
  8
0
100
AcDbBlockReference
 62
2
  6
CONTINUOUS
  2
_FILLED
 10
276.154196543
 20
80.2955206484
 41
3.5
 42
3.5
 43
3.5
 50
180.0
  0
INSERT
  5
27B
100
AcDbEntity
  8
0
100
AcDbBlockReference
 62
2
  6
CONTINUOUS
  2
_FILLED
 10
261.154196543
 20
80.2955206484
 41
3.5
 42
3.5
 43
3.5
  0
ENDBLK
  5
27C
100
AcDbEntity
  8
0
  6
BYBLOCK
 62
0
100
AcDbBlockEnd
  0
BLOCK
  5
27D
100
AcDbEntity
  8
0
100
AcDbBlockBegin
 62
2
  6
CONTINUOUS
  2
*D8
 70
65
 10
0.0
 20
0.0
  3
*D8
  1

  0
MTEXT
  5
27E
100
AcDbEntity
  8
0
100
AcDbMText
 62
2
  6
CONTINUOUS
  7
STANDARD
 71
2
 72
1
 10
351.0364475369
 20
74.6705206484
 30
0.0
 11
1.0
 21
0.0
 31
0.0
 73
2
 44
0.9
  1
30
 40
3.5
 41
5.95
  0
LINE
  5
27F
100
AcDbEntity
  8
0
100
AcDbLine
 62
2
  6
CONTINUOUS
 10
336.0364475369
 20
125.9955206484
 11
336.0364475369
 21
68.7955206484
  0
LINE
  5
280
100
AcDbEntity
  8
0
100
AcDbLine
 62
2
  6
CONTINUOUS
 10
366.0364475369
 20
125.9955206484
 11
366.0364475369
 21
68.7955206484
  0
LINE
  5
281
100
AcDbEntity
  8
0
100
AcDbLine
 62
2
  6
CONTINUOUS
 10
336.0364475369
 20
70.2955206484
 11
351.0364475369
 21
70.2955206484
  0
LINE
  5
282
100
AcDbEntity
  8
0
100
AcDbLine
 62
2
  6
CONTINUOUS
 10
366.0364475369
 20
70.2955206484
 11
351.0364475369
 21
70.2955206484
  0
INSERT
  5
283
100
AcDbEntity
  8
0
100
AcDbBlockReference
 62
2
  6
CONTINUOUS
  2
_FILLED
 10
336.0364475369
 20
70.2955206484
 41
3.5
 42
3.5
 43
3.5
 50
180.0
  0
INSERT
  5
284
100
AcDbEntity
  8
0
100
AcDbBlockReference
 62
2
  6
CONTINUOUS
  2
_FILLED
 10
366.0364475369
 20
70.2955206484
 41
3.5
 42
3.5
 43
3.5
  0
ENDBLK
  5
285
100
AcDbEntity
  8
0
  6
BYBLOCK
 62
0
100
AcDbBlockEnd
  0
BLOCK
  5
286
100
AcDbEntity
  8
0
100
AcDbBlockBegin
 62
2
  6
CONTINUOUS
  2
*D9
 70
65
 10
0.0
 20
0.0
  3
*D9
  1

  0
MTEXT
  5
287
100
AcDbEntity
  8
0
100
AcDbMText
 62
2
  6
CONTINUOUS
  7
STANDARD
 71
2
 72
1
 10
358.5364475369
 20
84.6705206484
 30
0.0
 11
1.0
 21
0.0
 31
0.0
 73
2
 44
0.9
  1
15
 40
3.5
 41
5.95
  0
LINE
  5
288
100
AcDbEntity
  8
0
100
AcDbLine
 62
2
  6
CONTINUOUS
 10
366.0364475369
 20
125.9955206484
 11
366.0364475369
 21
78.7955206484
  0
LINE
  5
289
100
AcDbEntity
  8
0
100
AcDbLine
 62
2
  6
CONTINUOUS
 10
351.0364475369
 20
125.4955206484
 11
351.0364475369
 21
78.7955206484
  0
LINE
  5
28A
100
AcDbEntity
  8
0
100
AcDbLine
 62
2
  6
CONTINUOUS
 10
366.0364475369
 20
80.2955206484
 11
371.0364475369
 21
80.2955206484
  0
LINE
  5
28B
100
AcDbEntity
  8
0
100
AcDbLine
 62
2
  6
CONTINUOUS
 10
371.0364475369
 20
80.2955206484
 11
358.5364475369
 21
80.2955206484
  0
LINE
  5
28C
100
AcDbEntity
  8
0
100
AcDbLine
 62
2
  6
CONTINUOUS
 10
351.0364475369
 20
80.2955206484
 11
346.0364475369
 21
80.2955206484
  0
LINE
  5
28D
100
AcDbEntity
  8
0
100
AcDbLine
 62
2
  6
CONTINUOUS
 10
346.0364475369
 20
80.2955206484
 11
358.5364475369
 21
80.2955206484
  0
INSERT
  5
28E
100
AcDbEntity
  8
0
100
AcDbBlockReference
 62
2
  6
CONTINUOUS
  2
_FILLED
 10
366.0364475369
 20
80.2955206484
 41
3.5
 42
3.5
 43
3.5
 50
180.0
  0
INSERT
  5
28F
100
AcDbEntity
  8
0
100
AcDbBlockReference
 62
2
  6
CONTINUOUS
  2
_FILLED
 10
351.0364475369
 20
80.2955206484
 41
3.5
 42
3.5
 43
3.5
  0
ENDBLK
  5
290
100
AcDbEntity
  8
0
  6
BYBLOCK
 62
0
100
AcDbBlockEnd
  0
BLOCK
  5
291
100
AcDbEntity
  8
0
100
AcDbBlockBegin
 62
2
  6
CONTINUOUS
  2
*D10
 70
65
 10
0.0
 20
0.0
  3
*D10
  1

  0
MTEXT
  5
292
100
AcDbEntity
  8
0
100
AcDbMText
 62
2
  6
CONTINUOUS
  7
STANDARD
 71
2
 72
1
 10
412.3614475369
 20
158.9955206484
 30
0.0
 11
0.0
 21
1.0
 31
0.0
 73
2
 44
0.9
  1
64
 40
3.5
 41
5.95
  0
LINE
  5
293
100
AcDbEntity
  8
0
100
AcDbLine
 62
2
  6
CONTINUOUS
 10
367.0364475369
 20
126.9955206484
 11
418.2364475369
 21
126.9955206484
  0
LINE
  5
294
100
AcDbEntity
  8
0
100
AcDbLine
 62
2
  6
CONTINUOUS
 10
367.0364475369
 20
190.9955206484
 11
418.2364475369
 21
190.9955206484
  0
LINE
  5
295
100
AcDbEntity
  8
0
100
AcDbLine
 62
2
  6
CONTINUOUS
 10
416.7364475369
 20
126.9955206484
 11
416.7364475369
 21
158.9955206484
  0
LINE
  5
296
100
AcDbEntity
  8
0
100
AcDbLine
 62
2
  6
CONTINUOUS
 10
416.7364475369
 20
190.9955206484
 11
416.7364475369
 21
158.9955206484
  0
INSERT
  5
297
100
AcDbEntity
  8
0
100
AcDbBlockReference
 62
2
  6
CONTINUOUS
  2
_FILLED
 10
416.7364475369
 20
126.9955206484
 41
3.5
 42
3.5
 43
3.5
 50
270.0
  0
INSERT
  5
298
100
AcDbEntity
  8
0
100
AcDbBlockReference
 62
2
  6
CONTINUOUS
  2
_FILLED
 10
416.7364475369
 20
190.9955206484
 41
3.5
 42
3.5
 43
3.5
 50
90.0
  0
ENDBLK
  5
299
100
AcDbEntity
  8
0
  6
BYBLOCK
 62
0
100
AcDbBlockEnd
  0
BLOCK
  5
29A
100
AcDbEntity
  8
0
100
AcDbBlockBegin
 62
2
  6
CONTINUOUS
  2
*D11
 70
65
 10
0.0
 20
0.0
  3
*D11
  1

  0
MTEXT
  5
29B
100
AcDbEntity
  8
0
100
AcDbMText
 62
2
  6
CONTINUOUS
  7
STANDARD
 71
2
 72
1
 10
402.3614475369
 20
158.9955206484
 30
0.0
 11
0.0
 21
1.0
 31
0.0
 73
2
 44
0.9
  1
50
 40
3.5
 41
5.95
  0
LINE
  5
29C
100
AcDbEntity
  8
0
100
AcDbLine
 62
2
  6
CONTINUOUS
 10
359.5364475369
 20
183.9955206484
 11
408.2364475369
 21
183.9955206484
  0
LINE
  5
29D
100
AcDbEntity
  8
0
100
AcDbLine
 62
2
  6
CONTINUOUS
 10
359.5364475369
 20
133.9955206484
 11
408.2364475369
 21
133.9955206484
  0
LINE
  5
29E
100
AcDbEntity
  8
0
100
AcDbLine
 62
2
  6
CONTINUOUS
 10
406.7364475369
 20
183.9955206484
 11
406.7364475369
 21
158.9955206484
  0
LINE
  5
29F
100
AcDbEntity
  8
0
100
AcDbLine
 62
2
  6
CONTINUOUS
 10
406.7364475369
 20
133.9955206484
 11
406.7364475369
 21
158.9955206484
  0
INSERT
  5
2A0
100
AcDbEntity
  8
0
100
AcDbBlockReference
 62
2
  6
CONTINUOUS
  2
_FILLED
 10
406.7364475369
 20
183.9955206484
 41
3.5
 42
3.5
 43
3.5
 50
90.0
  0
INSERT
  5
2A1
100
AcDbEntity
  8
0
100
AcDbBlockReference
 62
2
  6
CONTINUOUS
  2
_FILLED
 10
406.7364475369
 20
133.9955206484
 41
3.5
 42
3.5
 43
3.5
 50
270.0
  0
ENDBLK
  5
2A2
100
AcDbEntity
  8
0
  6
BYBLOCK
 62
0
100
AcDbBlockEnd
  0
BLOCK
  5
2A3
100
AcDbEntity
  8
0
100
AcDbBlockBegin
 62
2
  6
CONTINUOUS
  2
*D12
 70
65
 10
0.0
 20
0.0
  3
*D12
  1

  0
MTEXT
  5
2A4
100
AcDbEntity
  8
0
100
AcDbMText
 62
2
  6
CONTINUOUS
  7
STANDARD
 71
2
 72
1
 10
198.47675829
 20
124.9955206484
 30
0.0
 11
0.0
 21
1.0
 31
0.0
 73
2
 44
0.9
  1
50
 40
3.5
 41
5.95
  0
LINE
  5
2A5
100
AcDbEntity
  8
0
100
AcDbLine
 62
2
  6
CONTINUOUS
 10
252.654196543
 20
149.9955206484
 11
201.35175829
 21
149.9955206484
  0
LINE
  5
2A6
100
AcDbEntity
  8
0
100
AcDbLine
 62
2
  6
CONTINUOUS
 10
252.654196543
 20
99.9955206484
 11
201.35175829
 21
99.9955206484
  0
LINE
  5
2A7
100
AcDbEntity
  8
0
100
AcDbLine
 62
2
  6
CONTINUOUS
 10
202.85175829
 20
149.9955206484
 11
202.85175829
 21
124.9955206484
  0
LINE
  5
2A8
100
AcDbEntity
  8
0
100
AcDbLine
 62
2
  6
CONTINUOUS
 10
202.85175829
 20
99.9955206484
 11
202.85175829
 21
124.9955206484
  0
INSERT
  5
2A9
100
AcDbEntity
  8
0
100
AcDbBlockReference
 62
2
  6
CONTINUOUS
  2
_FILLED
 10
202.85175829
 20
149.9955206484
 41
3.5
 42
3.5
 43
3.5
 50
90.0
  0
INSERT
  5
2AA
100
AcDbEntity
  8
0
100
AcDbBlockReference
 62
2
  6
CONTINUOUS
  2
_FILLED
 10
202.85175829
 20
99.9955206484
 41
3.5
 42
3.5
 43
3.5
 50
270.0
  0
ENDBLK
  5
2AB
100
AcDbEntity
  8
0
  6
BYBLOCK
 62
0
100
AcDbBlockEnd
  0
BLOCK
  5
2AC
100
AcDbEntity
  8
0
100
AcDbBlockBegin
 62
2
  6
CONTINUOUS
  2
*D13
 70
65
 10
0.0
 20
0.0
  3
*D13
  1

  0
MTEXT
  5
2AD
100
AcDbEntity
  8
0
100
AcDbMText
 62
2
  6
CONTINUOUS
  7
STANDARD
 71
2
 72
1
 10
191.5691440769
 20
124.9955206484
 30
0.0
 11
0.0
 21
1.0
 31
0.0
 73
2
 44
0.9
  1
64
 40
3.5
 41
5.95
  0
LINE
  5
2AE
100
AcDbEntity
  8
0
100
AcDbLine
 62
2
  6
CONTINUOUS
 10
245.154196543
 20
92.9955206484
 11
194.4441440769
 21
92.9955206484
  0
LINE
  5
2AF
100
AcDbEntity
  8
0
100
AcDbLine
 62
2
  6
CONTINUOUS
 10
245.154196543
 20
156.9955206484
 11
194.4441440769
 21
156.9955206484
  0
LINE
  5
2B0
100
AcDbEntity
  8
0
100
AcDbLine
 62
2
  6
CONTINUOUS
 10
195.9441440769
 20
92.9955206484
 11
195.9441440769
 21
124.9955206484
  0
LINE
  5
2B1
100
AcDbEntity
  8
0
100
AcDbLine
 62
2
  6
CONTINUOUS
 10
195.9441440769
 20
156.9955206484
 11
195.9441440769
 21
124.9955206484
  0
INSERT
  5
2B2
100
AcDbEntity
  8
0
100
AcDbBlockReference
 62
2
  6
CONTINUOUS
  2
_FILLED
 10
195.9441440769
 20
92.9955206484
 41
3.5
 42
3.5
 43
3.5
 50
270.0
  0
INSERT
  5
2B3
100
AcDbEntity
  8
0
100
AcDbBlockReference
 62
2
  6
CONTINUOUS
  2
_FILLED
 10
195.9441440769
 20
156.9955206484
 41
3.5
 42
3.5
 43
3.5
 50
90.0
  0
ENDBLK
  5
2B4
100
AcDbEntity
  8
0
  6
BYBLOCK
 62
0
100
AcDbBlockEnd
  0
BLOCK
  5
2B5
100
AcDbEntity
  8
0
100
AcDbBlockBegin
 62
2
  6
CONTINUOUS
  2
*D14
 70
65
 10
0.0
 20
0.0
  3
*D14
  1

  0
MTEXT
  5
2B6
100
AcDbEntity
  8
0
100
AcDbMText
 62
2
  6
CONTINUOUS
  7
STANDARD
 71
1
 72
1
 10
262.549148545
 20
169.8205626484
 30
0.0
 11
0.0
 21
1.0
 31
0.0
 73
2
 44
0.9
  1
3/8" UNF
 40
3.5
 41
23.8
  0
LINE
  5
2B7
100
AcDbEntity
  8
0
100
AcDbLine
 62
2
  6
CONTINUOUS
 10
274.8753287868
 20
154.2955206484
 11
266.049148545
 21
154.2955206484
  0
LINE
  5
2B8
100
AcDbEntity
  8
0
100
AcDbLine
 62
2
  6
CONTINUOUS
 10
266.049148545
 20
154.2955206484
 11
265.424148545
 21
154.2955206484
  0
LINE
  5
2B9
100
AcDbEntity
  8
0
100
AcDbLine
 62
2
  6
CONTINUOUS
 10
274.8753287868
 20
163.6955206484
 11
266.049148545
 21
163.6955206484
  0
LINE
  5
2BA
100
AcDbEntity
  8
0
100
AcDbLine
 62
2
  6
CONTINUOUS
 10
266.049148545
 20
163.6955206484
 11
265.424148545
 21
163.6955206484
  0
LINE
  5
2BB
100
AcDbEntity
  8
0
100
AcDbLine
 62
2
  6
CONTINUOUS
 10
266.924148545
 20
154.2955206484
 11
266.924148545
 21
149.2955206484
  0
LINE
  5
2BC
100
AcDbEntity
  8
0
100
AcDbLine
 62
2
  6
CONTINUOUS
 10
266.924148545
 20
149.2955206484
 11
266.924148545
 21
158.9955206484
  0
LINE
  5
2BD
100
AcDbEntity
  8
0
100
AcDbLine
 62
2
  6
CONTINUOUS
 10
266.924148545
 20
163.6955206484
 11
266.924148545
 21
193.6205626484
  0
LINE
  5
2BE
100
AcDbEntity
  8
0
100
AcDbLine
 62
2
  6
CONTINUOUS
 10
266.924148545
 20
193.6205626484
 11
266.924148545
 21
158.9955206484
  0
INSERT
  5
2BF
100
AcDbEntity
  8
0
100
AcDbBlockReference
 62
2
  6
CONTINUOUS
  2
_FILLED
 10
266.924148545
 20
154.2955206484
 41
3.5
 42
3.5
 43
3.5
 50
90.0
  0
INSERT
  5
2C0
100
AcDbEntity
  8
0
100
AcDbBlockReference
 62
2
  6
CONTINUOUS
  2
_FILLED
 10
266.924148545
 20
163.6955206484
 41
3.5
 42
3.5
 43
3.5
 50
270.0
  0
ENDBLK
  5
2C1
100
AcDbEntity
  8
0
  6
BYBLOCK
 62
0
100
AcDbBlockEnd
  0
BLOCK
  5
2C2
100
AcDbEntity
  8
0
100
AcDbBlockBegin
 62
2
  6
CONTINUOUS
  2
*D15
 70
65
 10
0.0
 20
0.0
  3
*D15
  1

  0
MTEXT
  5
2C3
100
AcDbEntity
  8
0
100
AcDbMText
 62
2
  6
CONTINUOUS
  7
STANDARD
 71
1
 72
1
 10
291.9936702792
 20
179.9589461588
 30
0.0
 11
1.0
 21
0.0
 31
0.0
 73
2
 44
0.9
  1
7
 40
3.5
 41
2.975
  0
LINE
  5
2C4
100
AcDbEntity
  8
0
100
AcDbLine
 62
2
  6
CONTINUOUS
 10
275.8753287868
 20
164.6955206484
 11
275.8753287868
 21
177.0839461588
  0
LINE
  5
2C5
100
AcDbEntity
  8
0
100
AcDbLine
 62
2
  6
CONTINUOUS
 10
282.8753287868
 20
164.6955206484
 11
282.8753287868
 21
177.0839461588
  0
LINE
  5
2C6
100
AcDbEntity
  8
0
100
AcDbLine
 62
2
  6
CONTINUOUS
 10
275.8753287868
 20
175.5839461588
 11
270.8753287868
 21
175.5839461588
  0
LINE
  5
2C7
100
AcDbEntity
  8
0
100
AcDbLine
 62
2
  6
CONTINUOUS
 10
270.8753287868
 20
175.5839461588
 11
279.3753287868
 21
175.5839461588
  0
LINE
  5
2C8
100
AcDbEntity
  8
0
100
AcDbLine
 62
2
  6
CONTINUOUS
 10
282.8753287868
 20
175.5839461588
 11
294.9686702792
 21
175.5839461588
  0
LINE
  5
2C9
100
AcDbEntity
  8
0
100
AcDbLine
 62
2
  6
CONTINUOUS
 10
294.9686702792
 20
175.5839461588
 11
279.3753287868
 21
175.5839461588
  0
INSERT
  5
2CA
100
AcDbEntity
  8
0
100
AcDbBlockReference
 62
2
  6
CONTINUOUS
  2
_FILLED
 10
275.8753287868
 20
175.5839461588
 41
3.5
 42
3.5
 43
3.5
  0
INSERT
  5
2CB
100
AcDbEntity
  8
0
100
AcDbBlockReference
 62
2
  6
CONTINUOUS
  2
_FILLED
 10
282.8753287868
 20
175.5839461588
 41
3.5
 42
3.5
 43
3.5
 50
180.0
  0
ENDBLK
  5
2CC
100
AcDbEntity
  8
0
  6
BYBLOCK
 62
0
100
AcDbBlockEnd
  0
BLOCK
  5
2CD
100
AcDbEntity
  8
0
100
AcDbBlockBegin
 62
2
  6
CONTINUOUS
  2
*D16
 70
65
 10
0.0
 20
0.0
  3
*D16
  1

  0
MTEXT
  5
2CE
100
AcDbEntity
  8
0
100
AcDbMText
 62
2
  6
CONTINUOUS
  7
STANDARD
 71
3
 72
1
 10
394.0750803205
 20
146.5060573286
 30
0.0
 11
0.0
 21
1.0
 31
0.0
 73
2
 44
0.9
  1
M14
 40
3.5
 41
8.925
  0
LINE
  5
2CF
100
AcDbEntity
  8
0
100
AcDbLine
 62
2
  6
CONTINUOUS
 10
387.1364475369
 20
165.9955206484
 11
399.9500803205
 21
165.9955206484
  0
LINE
  5
2D0
100
AcDbEntity
  8
0
100
AcDbLine
 62
2
  6
CONTINUOUS
 10
387.1364475369
 20
151.9955206484
 11
399.9500803205
 21
151.9955206484
  0
LINE
  5
2D1
100
AcDbEntity
  8
0
100
AcDbLine
 62
2
  6
CONTINUOUS
 10
398.4500803205
 20
165.9955206484
 11
398.4500803205
 21
158.9955206484
  0
LINE
  5
2D2
100
AcDbEntity
  8
0
100
AcDbLine
 62
2
  6
CONTINUOUS
 10
398.4500803205
 20
151.9955206484
 11
398.4500803205
 21
158.9955206484
  0
LINE
  5
2D3
100
AcDbEntity
  8
0
100
AcDbLine
 62
2
  6
CONTINUOUS
 10
398.4500803205
 20
158.9955206484
 11
398.4500803205
 21
137.5810573286
  0
INSERT
  5
2D4
100
AcDbEntity
  8
0
100
AcDbBlockReference
 62
2
  6
CONTINUOUS
  2
_FILLED
 10
398.4500803205
 20
165.9955206484
 41
3.5
 42
3.5
 43
3.5
 50
90.0
  0
INSERT
  5
2D5
100
AcDbEntity
  8
0
100
AcDbBlockReference
 62
2
  6
CONTINUOUS
  2
_FILLED
 10
398.4500803205
 20
151.9955206484
 41
3.5
 42
3.5
 43
3.5
 50
270.0
  0
ENDBLK
  5
2D6
100
AcDbEntity
  8
0
  6
BYBLOCK
 62
0
100
AcDbBlockEnd
  0
BLOCK
  5
2D7
100
AcDbEntity
  8
0
100
AcDbBlockBegin
 62
2
  6
CONTINUOUS
  2
*D17
 70
65
 10
0.0
 20
0.0
  3
*D17
  1

  0
MTEXT
  5
2D8
100
AcDbEntity
  8
0
100
AcDbMText
 62
2
  6
CONTINUOUS
  7
STANDARD
 71
1
 72
1
 10
392.4614895369
 20
178.7655557812
 30
0.0
 11
1.0
 21
0.0
 31
0.0
 73
2
 44
0.9
  1
7,1
 40
3.5
 41
8.925
  0
LINE
  5
2D9
100
AcDbEntity
  8
0
100
AcDbLine
 62
2
  6
CONTINUOUS
 10
386.3364475369
 20
166.7955206484
 11
386.3364475369
 21
175.8905557812
  0
LINE
  5
2DA
100
AcDbEntity
  8
0
100
AcDbLine
 62
2
  6
CONTINUOUS
 10
379.2364475369
 20
167.7455206484
 11
379.2364475369
 21
175.8905557812
  0
LINE
  5
2DB
100
AcDbEntity
  8
0
100
AcDbLine
 62
2
  6
CONTINUOUS
 10
386.3364475369
 20
174.3905557812
 11
401.3864895369
 21
174.3905557812
  0
LINE
  5
2DC
100
AcDbEntity
  8
0
100
AcDbLine
 62
2
  6
CONTINUOUS
 10
401.3864895369
 20
174.3905557812
 11
382.7864475369
 21
174.3905557812
  0
LINE
  5
2DD
100
AcDbEntity
  8
0
100
AcDbLine
 62
2
  6
CONTINUOUS
 10
379.2364475369
 20
174.3905557812
 11
374.2364475369
 21
174.3905557812
  0
LINE
  5
2DE
100
AcDbEntity
  8
0
100
AcDbLine
 62
2
  6
CONTINUOUS
 10
374.2364475369
 20
174.3905557812
 11
382.7864475369
 21
174.3905557812
  0
INSERT
  5
2DF
100
AcDbEntity
  8
0
100
AcDbBlockReference
 62
2
  6
CONTINUOUS
  2
_FILLED
 10
386.3364475369
 20
174.3905557812
 41
3.5
 42
3.5
 43
3.5
 50
180.0
  0
INSERT
  5
2E0
100
AcDbEntity
  8
0
100
AcDbBlockReference
 62
2
  6
CONTINUOUS
  2
_FILLED
 10
379.2364475369
 20
174.3905557812
 41
3.5
 42
3.5
 43
3.5
  0
ENDBLK
  5
2E1
100
AcDbEntity
  8
0
  6
BYBLOCK
 62
0
100
AcDbBlockEnd
  0
ENDSEC
  0
SECTION
  2
ENTITIES
  0
DIMENSION
  5
2E2
100
AcDbEntity
  8
0
100
AcDbDimension
 62
2
  6
CONTINUOUS
  2
*D0
 10
7.2987595189
 20
251.7491294682
 11
7.2987595189
 21
234.8420981407
 70
160
 71
2
 72
2
 41
0.9
 42
34.0
  3
DIMSTYLE_1
100
AcDbAlignedDimension
 13
18.2678239067
 23
217.7491294682
 14
72.6867071554
 24
251.7491294682
 50
90.0
100
AcDbRotatedDimension
  0
DIMENSION
  5
2E3
100
AcDbEntity
  8
0
100
AcDbDimension
 62
2
  6
CONTINUOUS
  2
*D1
 10
77.7198917627
 20
173.0491294682
 11
136.8004511378
 21
173.0491294682
 70
160
 71
2
 72
2
 41
0.9
 42
118.1611187501
  1
(<>)
  3
DIMSTYLE_1
100
AcDbAlignedDimension
 13
195.8810105128
 23
247.7491294682
 14
77.7198917627
 24
247.0491294682
 50
180.0
100
AcDbRotatedDimension
  0
DIMENSION
  5
2E4
100
AcDbEntity
  8
0
100
AcDbDimension
 62
2
  6
CONTINUOUS
  2
*D2
 10
195.8810105128
 20
163.0491294682
 11
108.4047294617
 21
163.0491294682
 70
160
 71
2
 72
2
 41
0.9
 42
175.8822509939
  3
DIMSTYLE_1
100
AcDbAlignedDimension
 13
19.9987595189
 23
214.3491294682
 14
195.8810105128
 24
247.7491294682
100
AcDbRotatedDimension
  0
DIMENSION
  5
2E5
100
AcDbEntity
  8
0
100
AcDbDimension
 62
2
  6
CONTINUOUS
  2
*D3
 10
208.5810105128
 20
71.6530429581
 11
208.5810105128
 21
79.9749206288
 70
160
 71
2
 72
2
 41
0.9
 42
15.9
  3
DIMSTYLE_1
100
AcDbAlignedDimension
 13
167.8810105128
 23
87.5530429581
 14
197.2072464955
 24
71.6530429581
 50
270.0
100
AcDbRotatedDimension
  0
DIMENSION
  5
2E6
100
AcDbEntity
  8
0
100
AcDbDimension
 62
2
  6
CONTINUOUS
  2
*D4
 10
211.7001469638
 20
117.9955206484
 11
211.7001469638
 21
109.1027248413
 70
160
 71
3
 72
2
 41
0.9
 42
14.0
  1
M<>
  3
DIMSTYLE_1
100
AcDbAlignedDimension
 13
226.054196543
 23
131.9955206484
 14
226.054196543
 24
117.9955206484
 50
270.0
100
AcDbRotatedDimension
  0
DIMENSION
  5
2E7
100
AcDbEntity
  8
0
100
AcDbDimension
 62
2
  6
CONTINUOUS
  2
*D5
 10
232.954196543
 20
140.5332709221
 11
214.2040182495
 21
140.5332709221
 70
160
 71
3
 72
2
 41
0.9
 42
7.1
  3
DIMSTYLE_1
100
AcDbAlignedDimension
 13
225.854196543
 23
131.7955206484
 14
232.954196543
 24
132.7455206484
100
AcDbRotatedDimension
  0
DIMENSION
  5
2E8
100
AcDbEntity
  8
0
100
AcDbDimension
 62
2
  6
CONTINUOUS
  2
*D6
 10
276.154196543
 20
70.2955206484
 11
261.1542004395
 21
70.2955206484
 70
160
 71
2
 72
2
 41
0.9
 42
30.0
  3
DIMSTYLE_1
100
AcDbAlignedDimension
 13
246.154196543
 23
92.9955206484
 14
276.154196543
 24
92.9955206484
100
AcDbRotatedDimension
  0
DIMENSION
  5
2E9
100
AcDbEntity
  8
0
100
AcDbDimension
 62
2
  6
CONTINUOUS
  2
*D7
 10
261.154196543
 20
80.2955206484
 11
269.119050293
 21
80.2955206484
 70
160
 71
2
 72
2
 41
0.9
 42
15.0
  3
DIMSTYLE_1
100
AcDbAlignedDimension
 13
276.154196543
 23
92.9955206484
 14
261.154196543
 24
92.4955206484
 50
180.0
100
AcDbRotatedDimension
  0
DIMENSION
  5
2EA
100
AcDbEntity
  8
0
100
AcDbDimension
 62
2
  6
CONTINUOUS
  2
*D8
 10
366.0364475369
 20
70.2955206484
 11
351.0364562988
 21
70.2955206484
 70
160
 71
2
 72
2
 41
0.9
 42
30.0
  3
DIMSTYLE_1
100
AcDbAlignedDimension
 13
336.0364475369
 23
126.9955206484
 14
366.0364475369
 24
126.9955206484
100
AcDbRotatedDimension
  0
DIMENSION
  5
2EB
100
AcDbEntity
  8
0
100
AcDbDimension
 62
2
  6
CONTINUOUS
  2
*D9
 10
351.0364475369
 20
80.2955206484
 11
359.0012805176
 21
80.2955206484
 70
160
 71
2
 72
2
 41
0.9
 42
15.0
  3
DIMSTYLE_1
100
AcDbAlignedDimension
 13
366.0364475369
 23
126.9955206484
 14
351.0364475369
 24
126.4955206484
 50
180.0
100
AcDbRotatedDimension
  0
DIMENSION
  5
2EC
100
AcDbEntity
  8
0
100
AcDbDimension
 62
2
  6
CONTINUOUS
  2
*D10
 10
416.7364475369
 20
190.9955206484
 11
416.7364475369
 21
159.0884883947
 70
160
 71
2
 72
2
 41
0.9
 42
64.0
  3
DIMSTYLE_1
100
AcDbAlignedDimension
 13
366.0364475369
 23
126.9955206484
 14
366.0364475369
 24
190.9955206484
 50
90.0
100
AcDbRotatedDimension
  0
DIMENSION
  5
2ED
100
AcDbEntity
  8
0
100
AcDbDimension
 62
2
  6
CONTINUOUS
  2
*D11
 10
406.7364475369
 20
133.9955206484
 11
406.7364475369
 21
158.9955172033
 70
160
 71
2
 72
2
 41
0.9
 42
50.0
  3
DIMSTYLE_1
100
AcDbAlignedDimension
 13
358.5364475369
 23
183.9955206484
 14
358.5364475369
 24
133.9955206484
 50
270.0
100
AcDbRotatedDimension
  0
DIMENSION
  5
2EE
100
AcDbEntity
  8
0
100
AcDbDimension
 62
2
  6
CONTINUOUS
  2
*D12
 10
202.85175829
 20
99.9955206484
 11
202.85175829
 21
124.9955207812
 70
160
 71
2
 72
2
 41
0.9
 42
50.0
  3
DIMSTYLE_1
100
AcDbAlignedDimension
 13
253.654196543
 23
149.9955206484
 14
253.654196543
 24
99.9955206484
 50
270.0
100
AcDbRotatedDimension
  0
DIMENSION
  5
2EF
100
AcDbEntity
  8
0
100
AcDbDimension
 62
2
  6
CONTINUOUS
  2
*D13
 10
195.9441440769
 20
156.9955206484
 11
195.9441440769
 21
125.0884914397
 70
160
 71
2
 72
2
 41
0.9
 42
64.0
  3
DIMSTYLE_1
100
AcDbAlignedDimension
 13
246.154196543
 23
92.9955206484
 14
246.154196543
 24
156.9955206484
 50
90.0
100
AcDbRotatedDimension
  0
DIMENSION
  5
2F0
100
AcDbEntity
  8
0
100
AcDbDimension
 62
2
  6
CONTINUOUS
  2
*D14
 10
266.924148545
 20
163.6955206484
 11
266.924148545
 21
181.7205644941
 70
160
 71
1
 72
2
 41
0.9
 42
9.4
  1
3/8" UNF
  3
DIMSTYLE_1
100
AcDbAlignedDimension
 13
275.8753287868
 23
154.2955206484
 14
275.8753287868
 24
163.6955206484
 50
90.0
100
AcDbRotatedDimension
  0
DIMENSION
  5
2F1
100
AcDbEntity
  8
0
100
AcDbDimension
 62
2
  6
CONTINUOUS
  2
*D15
 10
282.8753287868
 20
175.5839461588
 11
293.4811651611
 21
175.5839461588
 70
160
 71
1
 72
2
 41
0.9
 42
7.0
  3
DIMSTYLE_1
100
AcDbAlignedDimension
 13
275.8753287868
 23
163.6955206484
 14
282.8753287868
 24
163.6955206484
100
AcDbRotatedDimension
  0
DIMENSION
  5
2F2
100
AcDbEntity
  8
0
100
AcDbDimension
 62
2
  6
CONTINUOUS
  2
*D16
 10
398.4500803205
 20
151.9955206484
 11
398.4500803205
 21
142.0435573286
 70
160
 71
3
 72
2
 41
0.9
 42
14.0
  1
M<>
  3
DIMSTYLE_1
100
AcDbAlignedDimension
 13
386.1364475369
 23
165.9955206484
 14
386.1364475369
 24
151.9955206484
 50
270.0
100
AcDbRotatedDimension
  0
DIMENSION
  5
2F3
100
AcDbEntity
  8
0
100
AcDbDimension
 62
2
  6
CONTINUOUS
  2
*D17
 10
379.2364475369
 20
174.3905557812
 11
396.5521105957
 21
174.3905557812
 70
160
 71
1
 72
2
 41
0.9
 42
7.1
  3
DIMSTYLE_1
100
AcDbAlignedDimension
 13
386.3364475369
 23
165.7955206484
 14
379.2364475369
 24
166.7455206484
 50
180.0
100
AcDbRotatedDimension
  0
MTEXT
  5
2F4
100
AcDbEntity
  8
0
100
AcDbMText
 62
2
  6
CONTINUOUS
  7
STANDARD
 71
1
 72
1
 10
330.9731916244
 20
40.407241434
 30
0.0
 11
1.0
 21
0.0
 31
0.0
 73
2
 44
0.9
  1
Sensoradapter Ø12 / Etage\PWerkstoff: 1.4435\P \PBlattmaßstab 1:1\P \PIndex: A vom 24.11.2017
 40
3.5
 41
74.375
  0
MTEXT
  5
2F5
100
AcDbEntity
  8
0
100
AcDbMText
 62
2
  6
CONTINUOUS
  7
STANDARD
 71
3
 72
1
 10
216.2960025381
 20
11.6626597318
 30
0.0
 11
1.0
 21
0.0
 31
0.0
 73
2
 44
0.9
  1
MASSSTAB 0,500
 40
3.5
 41
41.65
  0
LINE
  5
2F6
100
AcDbEntity
  8
0
100
AcDbLine
 62
7
  6
CONTINUOUS
 10
0.0
 20
0.0
 11
0.0
 21
297.0
  0
LINE
  5
2F7
100
AcDbEntity
  8
0
100
AcDbLine
 62
7
  6
CONTINUOUS
 10
0.0
 20
0.0
 11
420.0
 21
0.0
  0
LINE
  5
2F8
100
AcDbEntity
  8
0
100
AcDbLine
 62
7
  6
CONTINUOUS
 10
0.0
 20
297.0
 11
420.0
 21
297.0
  0
LINE
  5
2F9
100
AcDbEntity
  8
0
100
AcDbLine
 62
7
  6
CONTINUOUS
 10
420.0
 20
0.0
 11
420.0
 21
297.0
  0
LINE
  5
2FA
100
AcDbEntity
  8
02___PRT_ALL_AXES
100
AcDbLine
 62
7
  6
CONTINUOUS
 10
19.9987595189
 20
213.7491294682
 11
19.9987595189
 21
221.7491294682
  0
LINE
  5
2FB
100
AcDbEntity
  8
02___PRT_ALL_AXES
100
AcDbLine
 62
7
  6
CONTINUOUS
 10
23.4987595189
 20
213.1241294682
 11
23.4987595189
 21
222.3741294682
  0
LINE
  5
2FC
100
AcDbEntity
  8
0
100
AcDbLine
 62
7
  6
CONTINUOUS
 10
27.6987595189
 20
224.5491294682
 11
27.6987595189
 21
210.9491294682
  0
LINE
  5
2FD
100
AcDbEntity
  8
0
100
AcDbLine
 62
7
  6
CONTINUOUS
 10
27.8987595189
 20
224.7491294682
 11
27.8987595189
 21
210.7491294682
  0
LINE
  5
2FE
100
AcDbEntity
  8
0
100
AcDbLine
 62
7
  6
CONTINUOUS
 10
34.7987595189
 20
225.4991294682
 11
34.7987595189
 21
209.9991294682
  0
LINE
  5
2FF
100
AcDbEntity
  8
0
100
AcDbLine
 62
7
  6
CONTINUOUS
 10
34.9987595189
 20
225.6991294682
 11
34.9987595189
 21
209.7991294682
  0
LINE
  5
300
100
AcDbEntity
  8
0
100
AcDbLine
 62
7
  6
CONTINUOUS
 10
27.6987595188
 20
210.9491294683
 11
27.8987595188
 21
210.7491294683
  0
LINE
  5
301
100
AcDbEntity
  8
0
100
AcDbLine
 62
7
  6
CONTINUOUS
 10
34.7987595188
 20
209.9991294683
 11
34.9987595188
 21
209.7991294683
  0
LINE
  5
302
100
AcDbEntity
  8
0
100
AcDbLine
 62
7
  6
CONTINUOUS
 10
48.5987595189
 20
199.7491294682
 11
47.9987595189
 21
200.3491294682
  0
LINE
  5
303
100
AcDbEntity
  8
0
100
AcDbLine
 62
7
  6
CONTINUOUS
 10
45.7987595189
 20
225.6991294682
 11
45.7987595189
 21
209.7991294682
  0
LINE
  5
304
100
AcDbEntity
  8
0
100
AcDbLine
 62
7
  6
CONTINUOUS
 10
45.9987595189
 20
225.4991294682
 11
45.9987595189
 21
209.9991294682
  0
LINE
  5
305
100
AcDbEntity
  8
0
100
AcDbLine
 62
7
  6
CONTINUOUS
 10
47.9987595189
 20
235.1491294682
 11
47.9987595189
 21
200.3491294682
  0
LINE
  5
306
100
AcDbEntity
  8
02___PRT_ALL_AXES
100
AcDbLine
 62
7
  6
CONTINUOUS
 10
47.9987595189
 20
185.7491294682
 11
47.9987595189
 21
200.3491294682
  0
LINE
  5
307
100
AcDbEntity
  8
02___PRT_ALL_AXES
100
AcDbLine
 62
7
  6
CONTINUOUS
 10
47.9987595189
 20
235.1491294682
 11
47.9987595189
 21
249.7491294682
  0
LINE
  5
308
100
AcDbEntity
  8
0
100
AcDbLine
 62
7
  6
CONTINUOUS
 10
48.5987595189
 20
235.1491294682
 11
48.5987595189
 21
200.3491294682
  0
LINE
  5
309
100
AcDbEntity
  8
0
100
AcDbLine
 62
7
  6
CONTINUOUS
 10
27.6987595188
 20
224.5491294681
 11
27.8987595188
 21
224.7491294681
  0
LINE
  5
30A
100
AcDbEntity
  8
02___PRT_ALL_AXES
100
AcDbLine
 62
7
  6
CONTINUOUS
 10
77.9987595189
 20
185.7491294682
 11
47.9987595189
 21
185.7491294682
  0
LINE
  5
30B
100
AcDbEntity
  8
0
100
AcDbLine
 62
7
  6
CONTINUOUS
 10
45.9987595191
 20
225.499129468
 11
45.7987595191
 21
225.699129468
  0
LINE
  5
30C
100
AcDbEntity
  8
02___PRT_ALL_AXES
100
AcDbLine
 62
7
  6
CENTER
 10
62.9987595189
 20
242.7491294682
 11
62.9987595189
 21
235.2491294682
  0
LINE
  5
30D
100
AcDbEntity
  8
02___PRT_ALL_AXES
100
AcDbLine
 62
7
  6
CENTER
 10
62.9987595189
 20
227.7991294682
 11
62.9987595189
 21
223.7991044682
  0
LINE
  5
30E
100
AcDbEntity
  8
02___PRT_ALL_AXES
100
AcDbLine
 62
7
  6
CENTER
 10
62.9987595189
 20
207.6991294682
 11
62.9987595189
 21
203.6991044682
  0
LINE
  5
30F
100
AcDbEntity
  8
02___PRT_ALL_AXES
100
AcDbLine
 62
7
  6
CENTER
 10
62.9987595189
 20
192.7491294682
 11
62.9987595189
 21
185.2491294682
  0
LINE
  5
310
100
AcDbEntity
  8
02___PRT_ALL_AXES
100
AcDbLine
 62
7
  6
CENTER
 10
62.9987595189
 20
192.7491294682
 11
62.9987595189
 21
200.2491294682
  0
LINE
  5
311
100
AcDbEntity
  8
02___PRT_ALL_AXES
100
AcDbLine
 62
7
  6
CENTER
 10
62.9987595189
 20
207.6991294682
 11
62.9987595189
 21
211.6991544682
  0
LINE
  5
312
100
AcDbEntity
  8
02___PRT_ALL_AXES
100
AcDbLine
 62
7
  6
CENTER
 10
62.9987595189
 20
227.7991294682
 11
62.9987595189
 21
231.7991544682
  0
LINE
  5
313
100
AcDbEntity
  8
02___PRT_ALL_AXES
100
AcDbLine
 62
7
  6
CENTER
 10
62.9987595189
 20
242.7491294682
 11
62.9987595189
 21
250.2491294682
  0
LINE
  5
314
100
AcDbEntity
  8
0
100
AcDbLine
 62
7
  6
CONTINUOUS
 10
34.7987595188
 20
225.4991294681
 11
34.9987595188
 21
225.6991294681
  0
LINE
  5
315
100
AcDbEntity
  8
0
100
AcDbLine
 62
7
  6
CONTINUOUS
 10
47.9987595189
 20
235.1491294682
 11
48.5987595189
 21
235.7491294682
  0
LINE
  5
316
100
AcDbEntity
  8
02___PRT_ALL_AXES
100
AcDbLine
 62
7
  6
CENTER
 10
62.9987595189
 20
192.7491294682
 11
55.4987595189
 21
192.7491294682
  0
LINE
  5
317
100
AcDbEntity
  8
02___PRT_ALL_AXES
100
AcDbLine
 62
7
  6
CENTER
 10
62.9987595189
 20
192.7491294682
 11
70.4987595189
 21
192.7491294682
  0
LINE
  5
318
100
AcDbEntity
  8
0
100
AcDbLine
 62
7
  6
CONTINUOUS
 10
77.3987595189
 20
200.3491294682
 11
77.6987595189
 21
200.0491294682
  0
LINE
  5
319
100
AcDbEntity
  8
0
100
AcDbLine
 62
7
  6
CONTINUOUS
 10
48.5987595189
 20
235.1491294682
 11
48.2987595189
 21
235.4491294682
  0
LINE
  5
31A
100
AcDbEntity
  8
0
100
AcDbLine
 62
7
  6
CONTINUOUS
 10
48.5987595189
 20
199.7491294682
 11
77.3987595189
 21
199.7491294682
  0
LINE
  5
31B
100
AcDbEntity
  8
0
100
AcDbLine
 62
7
  6
CONTINUOUS
 10
48.5987595189
 20
200.3491294682
 11
77.3987595189
 21
200.3491294682
  0
LINE
  5
31C
100
AcDbEntity
  8
02___PRT_ALL_AXES
100
AcDbLine
 62
7
  6
CONTINUOUS
 10
19.9987595189
 20
213.7491294682
 11
23.4987595189
 21
213.1241294682
  0
LINE
  5
31D
100
AcDbEntity
  8
0
100
AcDbLine
 62
7
  6
CONTINUOUS
 10
77.3987595189
 20
200.3491294682
 11
77.3987595189
 21
235.1491294682
  0
LINE
  5
31E
100
AcDbEntity
  8
02___PRT_ALL_AXES
100
AcDbLine
 62
7
  6
CONTINUOUS
 10
77.7198917627
 20
256.4491294682
 11
77.7198917627
 21
247.0491294682
  0
LINE
  5
31F
100
AcDbEntity
  8
02___PRT_ALL_AXES
100
AcDbLine
 62
7
  6
CONTINUOUS
 10
77.9987595189
 20
247.0491294682
 11
77.9987595189
 21
235.1491294682
  0
LINE
  5
320
100
AcDbEntity
  8
02___PRT_ALL_AXES
100
AcDbLine
 62
7
  6
CONTINUOUS
 10
77.9987595189
 20
200.3491294682
 11
77.9987595189
 21
185.7491294682
  0
LINE
  5
321
100
AcDbEntity
  8
0
100
AcDbLine
 62
7
  6
CONTINUOUS
 10
77.9987595189
 20
200.3491294682
 11
77.9987595189
 21
235.1491294682
  0
LINE
  5
322
100
AcDbEntity
  8
0
100
AcDbLine
 62
7
  6
CONTINUOUS
 10
80.9987595189
 20
223.7491294682
 11
80.9987595189
 21
211.7491294682
  0
LINE
  5
323
100
AcDbEntity
  8
0
100
AcDbLine
 62
7
  6
CONTINUOUS
 10
45.998759519
 20
209.9991294683
 11
45.798759519
 21
209.7991294683
  0
LINE
  5
324
100
AcDbEntity
  8
02___PRT_ALL_AXES
100
AcDbLine
 62
7
  6
CENTER
 10
62.9987595189
 20
207.6991294682
 11
58.9987345189
 21
207.6991294682
  0
LINE
  5
325
100
AcDbEntity
  8
02___PRT_ALL_AXES
100
AcDbLine
 62
7
  6
CENTER
 10
62.9987595189
 20
207.6991294682
 11
66.9987845189
 21
207.6991294682
  0
LINE
  5
326
100
AcDbEntity
  8
02___PRT_ALL_AXES
100
AcDbLine
 62
7
  6
CONTINUOUS
 10
84.7198917627
 20
256.4491294682
 11
84.7198917627
 21
247.0491294682
  0
LINE
  5
327
100
AcDbEntity
  8
0
100
AcDbLine
 62
7
  6
CONTINUOUS
 10
77.3987595189
 20
235.1491294682
 11
77.6987595189
 21
235.4491294682
  0
LINE
  5
328
100
AcDbEntity
  8
0
100
AcDbLine
 62
7
  6
CONTINUOUS
 10
34.9987595189
 20
209.7991294682
 11
45.7987595189
 21
209.7991294682
  0
LINE
  5
329
100
AcDbEntity
  8
02___PRT_ALL_AXES
100
AcDbLine
 62
7
  6
CONTINUOUS
 10
34.9987595189
 20
209.7991294682
 11
45.7987595189
 21
209.7991294682
  0
LINE
  5
32A
100
AcDbEntity
  8
0
100
AcDbLine
 62
7
  6
CONTINUOUS
 10
27.8987595189
 20
210.7491294682
 11
34.7987595189
 21
210.7491294682
  0
LINE
  5
32B
100
AcDbEntity
  8
02___PRT_ALL_AXES
100
AcDbLine
 62
7
  6
CONTINUOUS
 10
27.8987595189
 20
210.7491294682
 11
34.7987595189
 21
210.7491294682
  0
LINE
  5
32C
100
AcDbEntity
  8
0
100
AcDbLine
 62
7
  6
CONTINUOUS
 10
45.9987595189
 20
211.7491294682
 11
47.9987595189
 21
211.7491294682
  0
LINE
  5
32D
100
AcDbEntity
  8
0
100
AcDbLine
 62
7
  6
CONTINUOUS
 10
77.9987595189
 20
211.7491294682
 11
80.9987595189
 21
211.7491294682
  0
LINE
  5
32E
100
AcDbEntity
  8
02___PRT_ALL_AXES
100
AcDbLine
 62
7
  6
CONTINUOUS
 10
23.4987595189
 20
213.4991294682
 11
27.6987595189
 21
213.4991294682
  0
LINE
  5
32F
100
AcDbEntity
  8
0
100
AcDbLine
 62
7
  6
CONTINUOUS
 10
77.3987595189
 20
235.7491294682
 11
77.9987595189
 21
235.1491294682
  0
LINE
  5
330
100
AcDbEntity
  8
0
100
AcDbLine
 62
7
  6
CONTINUOUS
 10
48.2987595189
 20
200.0491294682
 11
48.5987595189
 21
200.3491294682
  0
LINE
  5
331
100
AcDbEntity
  8
02___PRT_ALL_AXES
100
AcDbLine
 62
7
  6
CENTER
 10
85.9987595189
 20
217.7491294682
 11
18.2678239067
 21
217.7491294682
  0
LINE
  5
332
100
AcDbEntity
  8
02___PRT_ALL_AXES
100
AcDbLine
 62
7
  6
CONTINUOUS
 10
167.8810105128
 20
219.7491294682
 11
137.8810105128
 21
219.7491294682
  0
LINE
  5
333
100
AcDbEntity
  8
02___PRT_ALL_AXES
100
AcDbLine
 62
7
  6
CONTINUOUS
 10
23.4987595189
 20
221.9991294682
 11
27.6987595189
 21
221.9991294682
  0
LINE
  5
334
100
AcDbEntity
  8
0
100
AcDbLine
 62
7
  6
CONTINUOUS
 10
93.7266815803
 20
229.0212074068
 11
102.2119629545
 21
220.5359260326
  0
LINE
  5
335
100
AcDbEntity
  8
0
100
AcDbLine
 62
7
  6
CONTINUOUS
 10
93.7266815803
 20
229.0212074068
 11
111.6840134684
 21
246.978539295
  0
LINE
  5
336
100
AcDbEntity
  8
0
100
AcDbLine
 62
7
  6
CONTINUOUS
 10
111.6840134684
 20
246.978539295
 11
127.4065944787
 21
256.8030983012
  0
LINE
  5
337
100
AcDbEntity
  8
0
100
AcDbLine
 62
7
  6
CONTINUOUS
 10
45.9987595189
 20
223.7491294682
 11
47.9987595189
 21
223.7491294682
  0
LINE
  5
338
100
AcDbEntity
  8
0
100
AcDbLine
 62
7
  6
CONTINUOUS
 10
77.9987595189
 20
223.7491294682
 11
80.9987595189
 21
223.7491294682
  0
LINE
  5
339
100
AcDbEntity
  8
0
100
AcDbLine
 62
7
  6
CONTINUOUS
 10
27.8987595189
 20
224.7491294682
 11
34.7987595189
 21
224.7491294682
  0
LINE
  5
33A
100
AcDbEntity
  8
02___PRT_ALL_AXES
100
AcDbLine
 62
7
  6
CONTINUOUS
 10
27.8987595189
 20
224.7491294682
 11
34.7987595189
 21
224.7491294682
  0
LINE
  5
33B
100
AcDbEntity
  8
0
100
AcDbLine
 62
7
  6
CONTINUOUS
 10
34.9987595189
 20
225.6991294682
 11
45.7987595189
 21
225.6991294682
  0
LINE
  5
33C
100
AcDbEntity
  8
02___PRT_ALL_AXES
100
AcDbLine
 62
7
  6
CONTINUOUS
 10
34.9987595189
 20
225.6991294682
 11
45.7987595189
 21
225.6991294682
  0
LINE
  5
33D
100
AcDbEntity
  8
02___PRT_ALL_AXES
100
AcDbLine
 62
7
  6
CENTER
 10
152.8810105128
 20
226.7491294682
 11
145.3810105128
 21
226.7491294682
  0
LINE
  5
33E
100
AcDbEntity
  8
02___PRT_ALL_AXES
100
AcDbLine
 62
7
  6
CENTER
 10
152.8810105128
 20
226.7491294682
 11
160.3810105128
 21
226.7491294682
  0
LINE
  5
33F
100
AcDbEntity
  8
02___PRT_ALL_AXES
100
AcDbLine
 62
7
  6
CENTER
 10
62.9987595189
 20
227.7991294682
 11
58.9987345189
 21
227.7991294682
  0
LINE
  5
340
100
AcDbEntity
  8
02___PRT_ALL_AXES
100
AcDbLine
 62
7
  6
CENTER
 10
62.9987595189
 20
227.7991294682
 11
66.9987845189
 21
227.7991294682
  0
LINE
  5
341
100
AcDbEntity
  8
0
100
AcDbLine
 62
7
  6
CONTINUOUS
 10
137.8810105128
 20
269.1491294682
 11
138.4810105128
 21
269.7491294682
  0
LINE
  5
342
100
AcDbEntity
  8
02___PRT_ALL_AXES
100
AcDbLine
 62
7
  6
CONTINUOUS
 10
195.8810105128
 20
247.7491294682
 11
192.3810105128
 21
247.1241294682
  0
LINE
  5
343
100
AcDbEntity
  8
0
100
AcDbLine
 62
7
  6
CONTINUOUS
 10
138.4810105128
 20
233.7491294682
 11
167.2810105128
 21
233.7491294682
  0
LINE
  5
344
100
AcDbEntity
  8
0
100
AcDbLine
 62
7
  6
CONTINUOUS
 10
138.4810105128
 20
234.3491294682
 11
167.2810105128
 21
234.3491294682
  0
LINE
  5
345
100
AcDbEntity
  8
0
100
AcDbLine
 62
7
  6
CONTINUOUS
 10
77.3987595189
 20
235.1491294682
 11
48.5987595189
 21
235.1491294682
  0
LINE
  5
346
100
AcDbEntity
  8
0
100
AcDbLine
 62
7
  6
CONTINUOUS
 10
77.9987595189
 20
200.3491294682
 11
77.3987595189
 21
199.7491294682
  0
LINE
  5
347
100
AcDbEntity
  8
0
100
AcDbLine
 62
7
  6
CONTINUOUS
 10
102.2119629545
 20
220.5359260326
 11
122.1530884515
 21
240.4770515296
  0
LINE
  5
348
100
AcDbEntity
  8
02___PRT_ALL_AXES
100
AcDbLine
 62
7
  6
CONTINUOUS
 10
19.9987595189
 20
221.7491294682
 11
23.4987595189
 21
222.3741294682
  0
LINE
  5
349
100
AcDbEntity
  8
0
100
AcDbLine
 62
7
  6
CONTINUOUS
 10
77.3987595189
 20
235.7491294682
 11
48.5987595189
 21
235.7491294682
  0
LINE
  5
34A
100
AcDbEntity
  8
02___PRT_ALL_AXES
100
AcDbLine
 62
7
  6
CENTER
 10
152.8810105128
 20
241.6991294682
 11
148.8809855128
 21
241.6991294682
  0
LINE
  5
34B
100
AcDbEntity
  8
02___PRT_ALL_AXES
100
AcDbLine
 62
7
  6
CENTER
 10
152.8810105128
 20
241.6991294682
 11
156.8810355128
 21
241.6991294682
  0
LINE
  5
34C
100
AcDbEntity
  8
02___PRT_ALL_AXES
100
AcDbLine
 62
7
  6
CENTER
 10
62.9987595189
 20
242.7491294682
 11
55.4987595189
 21
242.7491294682
  0
LINE
  5
34D
100
AcDbEntity
  8
02___PRT_ALL_AXES
100
AcDbLine
 62
7
  6
CENTER
 10
62.9987595189
 20
242.7491294682
 11
70.4987595189
 21
242.7491294682
  0
LINE
  5
34E
100
AcDbEntity
  8
0
100
AcDbLine
 62
7
  6
CONTINUOUS
 10
180.8810105128
 20
243.7991294682
 11
170.0810105128
 21
243.7991294682
  0
LINE
  5
34F
100
AcDbEntity
  8
02___PRT_ALL_AXES
100
AcDbLine
 62
7
  6
CONTINUOUS
 10
180.8810105128
 20
243.7991294682
 11
170.0810105128
 21
243.7991294682
  0
LINE
  5
350
100
AcDbEntity
  8
0
100
AcDbLine
 62
7
  6
CONTINUOUS
 10
187.9810105128
 20
244.7491294682
 11
181.0810105128
 21
244.7491294682
  0
LINE
  5
351
100
AcDbEntity
  8
02___PRT_ALL_AXES
100
AcDbLine
 62
7
  6
CONTINUOUS
 10
187.9810105128
 20
244.7491294682
 11
181.0810105128
 21
244.7491294682
  0
LINE
  5
352
100
AcDbEntity
  8
0
100
AcDbLine
 62
7
  6
CONTINUOUS
 10
134.8810105128
 20
245.7491294682
 11
137.8810105128
 21
245.7491294682
  0
LINE
  5
353
100
AcDbEntity
  8
0
100
AcDbLine
 62
7
  6
CONTINUOUS
 10
167.8810105128
 20
245.7491294682
 11
169.8810105128
 21
245.7491294682
  0
LINE
  5
354
100
AcDbEntity
  8
02___PRT_ALL_AXES
100
AcDbLine
 62
7
  6
CONTINUOUS
 10
84.7198917627
 20
247.0491294682
 11
77.7198917627
 21
247.0491294682
  0
LINE
  5
355
100
AcDbEntity
  8
02___PRT_ALL_AXES
100
AcDbLine
 62
7
  6
CONTINUOUS
 10
192.3810105128
 20
247.4991294682
 11
188.1810105128
 21
247.4991294682
  0
LINE
  5
356
100
AcDbEntity
  8
02___PRT_ALL_AXES
100
AcDbLine
 62
7
  6
CONTINUOUS
 10
112.9172155304
 20
247.7491294682
 11
84.7198917627
 21
247.7491294682
  0
LINE
  5
357
100
AcDbEntity
  8
0
100
AcDbLine
 62
7
  6
CONTINUOUS
 10
112.9172155304
 20
247.7491294682
 11
84.7198917627
 21
247.7491294682
  0
LINE
  5
358
100
AcDbEntity
  8
0
100
AcDbLine
 62
7
  6
CONTINUOUS
 10
114.1258019193
 20
248.5043380618
 11
122.1530884515
 21
240.4770515296
  0
LINE
  5
359
100
AcDbEntity
  8
0
100
AcDbLine
 62
7
  6
CONTINUOUS
 10
167.2810105128
 20
269.1491294682
 11
167.5810105128
 21
269.4491294682
  0
LINE
  5
35A
100
AcDbEntity
  8
02___PRT_ALL_AXES
100
AcDbLine
 62
7
  6
CONTINUOUS
 10
47.9987595189
 20
249.7491294682
 11
77.7198917627
 21
249.7491294682
  0
LINE
  5
35B
100
AcDbEntity
  8
02___PRT_ALL_AXES
100
AcDbLine
 62
7
  6
CENTER
 10
182.8810105128
 20
251.7491294682
 11
72.6867071554
 21
251.7491294682
  0
LINE
  5
35C
100
AcDbEntity
  8
02___PRT_ALL_AXES
100
AcDbLine
 62
7
  6
CONTINUOUS
 10
125.7198917627
 20
255.7491294682
 11
84.7198917627
 21
255.7491294682
  0
LINE
  5
35D
100
AcDbEntity
  8
0
100
AcDbLine
 62
7
  6
CONTINUOUS
 10
125.7198917627
 20
255.7491294682
 11
84.7198917627
 21
255.7491294682
  0
LINE
  5
35E
100
AcDbEntity
  8
0
100
AcDbLine
 62
7
  6
CONTINUOUS
 10
138.4810105128
 20
233.7491294682
 11
137.8810105128
 21
234.3491294682
  0
LINE
  5
35F
100
AcDbEntity
  8
0
100
AcDbLine
 62
7
  6
CONTINUOUS
 10
134.8810105128
 20
257.7491294682
 11
134.8810105128
 21
245.7491294682
  0
LINE
  5
360
100
AcDbEntity
  8
0
100
AcDbLine
 62
7
  6
CONTINUOUS
 10
138.1810105128
 20
234.0491294682
 11
138.4810105128
 21
234.3491294682
  0
LINE
  5
361
100
AcDbEntity
  8
0
100
AcDbLine
 62
7
  6
CONTINUOUS
 10
169.8810105127
 20
259.4991294681
 11
170.0810105127
 21
259.6991294681
  0
LINE
  5
362
100
AcDbEntity
  8
02___PRT_ALL_AXES
100
AcDbLine
 62
7
  6
CONTINUOUS
 10
192.3810105128
 20
255.9991294682
 11
188.1810105128
 21
255.9991294682
  0
LINE
  5
363
100
AcDbEntity
  8
02___PRT_ALL_AXES
100
AcDbLine
 62
7
  6
CONTINUOUS
 10
84.7198917627
 20
256.4491294682
 11
77.7198917627
 21
256.4491294682
  0
LINE
  5
364
100
AcDbEntity
  8
0
100
AcDbLine
 62
7
  6
CONTINUOUS
 10
134.8810105128
 20
257.7491294682
 11
137.8810105128
 21
257.7491294682
  0
LINE
  5
365
100
AcDbEntity
  8
0
100
AcDbLine
 62
7
  6
CONTINUOUS
 10
167.8810105128
 20
257.7491294682
 11
169.8810105128
 21
257.7491294682
  0
LINE
  5
366
100
AcDbEntity
  8
0
100
AcDbLine
 62
7
  6
CONTINUOUS
 10
187.9810105128
 20
258.7491294682
 11
181.0810105128
 21
258.7491294682
  0
LINE
  5
367
100
AcDbEntity
  8
02___PRT_ALL_AXES
100
AcDbLine
 62
7
  6
CONTINUOUS
 10
187.9810105128
 20
258.7491294682
 11
181.0810105128
 21
258.7491294682
  0
LINE
  5
368
100
AcDbEntity
  8
0
100
AcDbLine
 62
7
  6
CONTINUOUS
 10
180.8810105128
 20
259.6991294682
 11
170.0810105128
 21
259.6991294682
  0
LINE
  5
369
100
AcDbEntity
  8
02___PRT_ALL_AXES
100
AcDbLine
 62
7
  6
CONTINUOUS
 10
180.8810105128
 20
259.6991294682
 11
170.0810105128
 21
259.6991294682
  0
LINE
  5
36A
100
AcDbEntity
  8
02___PRT_ALL_AXES
100
AcDbLine
 62
7
  6
CENTER
 10
152.8810105128
 20
261.7991294682
 11
148.8809855128
 21
261.7991294682
  0
LINE
  5
36B
100
AcDbEntity
  8
02___PRT_ALL_AXES
100
AcDbLine
 62
7
  6
CENTER
 10
152.8810105128
 20
261.7991294682
 11
156.8810355128
 21
261.7991294682
  0
LINE
  5
36C
100
AcDbEntity
  8
0
100
AcDbLine
 62
7
  6
CONTINUOUS
 10
137.8810105128
 20
269.1491294682
 11
137.8810105128
 21
234.3491294682
  0
LINE
  5
36D
100
AcDbEntity
  8
02___PRT_ALL_AXES
100
AcDbLine
 62
7
  6
CONTINUOUS
 10
137.8810105128
 20
219.7491294682
 11
137.8810105128
 21
234.3491294682
  0
LINE
  5
36E
100
AcDbEntity
  8
02___PRT_ALL_AXES
100
AcDbLine
 62
7
  6
CONTINUOUS
 10
137.8810105128
 20
269.1491294682
 11
137.8810105128
 21
283.7491294682
  0
LINE
  5
36F
100
AcDbEntity
  8
0
100
AcDbLine
 62
7
  6
CONTINUOUS
 10
138.4810105128
 20
269.1491294682
 11
138.4810105128
 21
234.3491294682
  0
LINE
  5
370
100
AcDbEntity
  8
0
100
AcDbLine
 62
7
  6
CONTINUOUS
 10
167.2810105128
 20
269.1491294682
 11
138.4810105128
 21
269.1491294682
  0
LINE
  5
371
100
AcDbEntity
  8
0
100
AcDbLine
 62
7
  6
CONTINUOUS
 10
167.2810105128
 20
269.7491294682
 11
138.4810105128
 21
269.7491294682
  0
LINE
  5
372
100
AcDbEntity
  8
02___PRT_ALL_AXES
100
AcDbLine
 62
7
  6
CONTINUOUS
 10
195.8810105128
 20
255.7491294682
 11
192.3810105128
 21
256.3741294682
  0
LINE
  5
373
100
AcDbEntity
  8
02___PRT_ALL_AXES
100
AcDbLine
 62
7
  6
CENTER
 10
152.8810105128
 20
276.7491294682
 11
152.8810105128
 21
269.2491294682
  0
LINE
  5
374
100
AcDbEntity
  8
02___PRT_ALL_AXES
100
AcDbLine
 62
7
  6
CENTER
 10
152.8810105128
 20
261.7991294682
 11
152.8810105128
 21
257.7991044682
  0
LINE
  5
375
100
AcDbEntity
  8
02___PRT_ALL_AXES
100
AcDbLine
 62
7
  6
CENTER
 10
152.8810105128
 20
241.6991294682
 11
152.8810105128
 21
237.6991044682
  0
LINE
  5
376
100
AcDbEntity
  8
02___PRT_ALL_AXES
100
AcDbLine
 62
7
  6
CENTER
 10
152.8810105128
 20
226.7491294682
 11
152.8810105128
 21
219.2491294682
  0
LINE
  5
377
100
AcDbEntity
  8
02___PRT_ALL_AXES
100
AcDbLine
 62
7
  6
CENTER
 10
152.8810105128
 20
226.7491294682
 11
152.8810105128
 21
234.2491294682
  0
LINE
  5
378
100
AcDbEntity
  8
02___PRT_ALL_AXES
100
AcDbLine
 62
7
  6
CENTER
 10
152.8810105128
 20
241.6991294682
 11
152.8810105128
 21
245.6991544682
  0
LINE
  5
379
100
AcDbEntity
  8
02___PRT_ALL_AXES
100
AcDbLine
 62
7
  6
CENTER
 10
152.8810105128
 20
261.7991294682
 11
152.8810105128
 21
265.7991544682
  0
LINE
  5
37A
100
AcDbEntity
  8
02___PRT_ALL_AXES
100
AcDbLine
 62
7
  6
CENTER
 10
152.8810105128
 20
276.7491294682
 11
152.8810105128
 21
284.2491294682
  0
LINE
  5
37B
100
AcDbEntity
  8
0
100
AcDbLine
 62
7
  6
CONTINUOUS
 10
167.8810105128
 20
234.3491294682
 11
167.2810105128
 21
233.7491294682
  0
LINE
  5
37C
100
AcDbEntity
  8
0
100
AcDbLine
 62
7
  6
CONTINUOUS
 10
181.0810105129
 20
243.9991294683
 11
180.8810105129
 21
243.7991294683
  0
LINE
  5
37D
100
AcDbEntity
  8
02___PRT_ALL_AXES
100
AcDbLine
 62
7
  6
CENTER
 10
152.8810105128
 20
276.7491294682
 11
145.3810105128
 21
276.7491294682
  0
LINE
  5
37E
100
AcDbEntity
  8
02___PRT_ALL_AXES
100
AcDbLine
 62
7
  6
CENTER
 10
152.8810105128
 20
276.7491294682
 11
160.3810105128
 21
276.7491294682
  0
LINE
  5
37F
100
AcDbEntity
  8
0
100
AcDbLine
 62
7
  6
CONTINUOUS
 10
167.2810105128
 20
234.3491294682
 11
167.5810105128
 21
234.0491294682
  0
LINE
  5
380
100
AcDbEntity
  8
0
100
AcDbLine
 62
7
  6
CONTINUOUS
 10
138.4810105128
 20
269.1491294682
 11
138.1810105128
 21
269.4491294682
  0
LINE
  5
381
100
AcDbEntity
  8
0
100
AcDbLine
 62
7
  6
CONTINUOUS
 10
188.1810105129
 20
244.9491294683
 11
187.9810105129
 21
244.7491294683
  0
LINE
  5
382
100
AcDbEntity
  8
02___PRT_ALL_AXES
100
AcDbLine
 62
7
  6
CONTINUOUS
 10
137.8810105128
 20
283.7491294682
 11
167.8810105128
 21
283.7491294682
  0
LINE
  5
383
100
AcDbEntity
  8
0
100
AcDbLine
 62
7
  6
CONTINUOUS
 10
169.8810105126
 20
243.9991294684
 11
170.0810105126
 21
243.7991294684
  0
LINE
  5
384
100
AcDbEntity
  8
0
100
AcDbLine
 62
7
  6
CONTINUOUS
 10
167.2810105128
 20
234.3491294682
 11
167.2810105128
 21
269.1491294682
  0
LINE
  5
385
100
AcDbEntity
  8
02___PRT_ALL_AXES
100
AcDbLine
 62
7
  6
CONTINUOUS
 10
167.8810105128
 20
283.7491294682
 11
167.8810105128
 21
269.1491294682
  0
LINE
  5
386
100
AcDbEntity
  8
02___PRT_ALL_AXES
100
AcDbLine
 62
7
  6
CONTINUOUS
 10
167.8810105128
 20
234.3491294682
 11
167.8810105128
 21
219.7491294682
  0
LINE
  5
387
100
AcDbEntity
  8
0
100
AcDbLine
 62
7
  6
CONTINUOUS
 10
167.8810105128
 20
234.3491294682
 11
167.8810105128
 21
269.1491294682
  0
LINE
  5
388
100
AcDbEntity
  8
0
100
AcDbLine
 62
7
  6
CONTINUOUS
 10
169.8810105128
 20
243.9991294682
 11
169.8810105128
 21
259.4991294682
  0
LINE
  5
389
100
AcDbEntity
  8
0
100
AcDbLine
 62
7
  6
CONTINUOUS
 10
170.0810105128
 20
243.7991294682
 11
170.0810105128
 21
259.6991294682
  0
LINE
  5
38A
100
AcDbEntity
  8
0
100
AcDbLine
 62
7
  6
CONTINUOUS
 10
167.2810105128
 20
269.7491294682
 11
167.8810105128
 21
269.1491294682
  0
LINE
  5
38B
100
AcDbEntity
  8
0
100
AcDbLine
 62
7
  6
CONTINUOUS
 10
180.8810105128
 20
243.7991294682
 11
180.8810105128
 21
259.6991294682
  0
LINE
  5
38C
100
AcDbEntity
  8
0
100
AcDbLine
 62
7
  6
CONTINUOUS
 10
181.0810105128
 20
243.9991294682
 11
181.0810105128
 21
259.4991294682
  0
LINE
  5
38D
100
AcDbEntity
  8
0
100
AcDbLine
 62
7
  6
CONTINUOUS
 10
181.0810105129
 20
259.4991294681
 11
180.8810105129
 21
259.6991294681
  0
LINE
  5
38E
100
AcDbEntity
  8
0
100
AcDbLine
 62
7
  6
CONTINUOUS
 10
188.1810105129
 20
258.5491294681
 11
187.9810105129
 21
258.7491294681
  0
LINE
  5
38F
100
AcDbEntity
  8
0
100
AcDbLine
 62
7
  6
CONTINUOUS
 10
187.9810105128
 20
244.7491294682
 11
187.9810105128
 21
258.7491294682
  0
LINE
  5
390
100
AcDbEntity
  8
0
100
AcDbLine
 62
7
  6
CONTINUOUS
 10
188.1810105128
 20
244.9491294682
 11
188.1810105128
 21
258.5491294682
  0
LINE
  5
391
100
AcDbEntity
  8
02___PRT_ALL_AXES
100
AcDbLine
 62
7
  6
CONTINUOUS
 10
192.3810105128
 20
256.3741294682
 11
192.3810105128
 21
247.1241294682
  0
LINE
  5
392
100
AcDbEntity
  8
02___PRT_ALL_AXES
100
AcDbLine
 62
7
  6
CONTINUOUS
 10
195.8810105128
 20
255.7491294682
 11
195.8810105128
 21
247.7491294682
  0
LINE
  5
393
100
AcDbEntity
  8
02___PRT_ALL_AXES
100
AcDbLine
 62
7
  6
CONTINUOUS
 10
222.0231299143
 20
185.7491294682
 11
219.0231299143
 21
185.7491294682
  0
LINE
  5
394
100
AcDbEntity
  8
02___PRT_ALL_AXES
100
AcDbLine
 62
7
  6
CENTER
 10
214.0231299143
 20
192.7491294682
 11
227.0231299143
 21
192.7491294682
  0
LINE
  5
395
100
AcDbEntity
  8
0
100
AcDbLine
 62
7
  6
CONTINUOUS
 10
247.2231299143
 20
199.7491294682
 11
236.0231299143
 21
199.7491294682
  0
LINE
  5
396
100
AcDbEntity
  8
0
100
AcDbLine
 62
7
  6
CONTINUOUS
 10
222.6231299143
 20
199.7491294682
 11
233.8231299143
 21
199.7491294682
  0
LINE
  5
397
100
AcDbEntity
  8
0
100
AcDbLine
 62
7
  6
CONTINUOUS
 10
247.2231299143
 20
200.3491294682
 11
236.0231299143
 21
200.3491294682
  0
LINE
  5
398
100
AcDbEntity
  8
0
100
AcDbLine
 62
7
  6
CONTINUOUS
 10
222.6231299143
 20
200.3491294682
 11
233.8231299143
 21
200.3491294682
  0
LINE
  5
399
100
AcDbEntity
  8
0
100
AcDbLine
 62
7
  6
CONTINUOUS
 10
222.6231299143
 20
269.7491294682
 11
222.0231299143
 21
269.1491294682
  0
LINE
  5
39A
100
AcDbEntity
  8
0
100
AcDbLine
 62
7
  6
CONTINUOUS
 10
222.0231299143
 20
200.3491294682
 11
222.6231299143
 21
199.7491294682
  0
LINE
  5
39B
100
AcDbEntity
  8
02___PRT_ALL_AXES
100
AcDbLine
 62
7
  6
CENTER
 10
217.0231299143
 20
207.6991294682
 11
239.4231317747
 21
207.6991294682
  0
LINE
  5
39C
100
AcDbEntity
  8
0
100
AcDbLine
 62
7
  6
CONTINUOUS
 10
233.8231299143
 20
269.1491294682
 11
234.1231299143
 21
269.4491294682
  0
LINE
  5
39D
100
AcDbEntity
  8
0
100
AcDbLine
 62
7
  6
CONTINUOUS
 10
233.8231299143
 20
200.3491294682
 11
234.1231299143
 21
200.0491294682
  0
LINE
  5
39E
100
AcDbEntity
  8
0
100
AcDbLine
 62
7
  6
CONTINUOUS
 10
236.0231299143
 20
269.7491294682
 11
235.4231299143
 21
269.1491294682
  0
LINE
  5
39F
100
AcDbEntity
  8
0
100
AcDbLine
 62
7
  6
CONTINUOUS
 10
235.4231299143
 20
200.3491294682
 11
236.0231299143
 21
199.7491294682
  0
LINE
  5
3A0
100
AcDbEntity
  8
02___PRT_ALL_AXES
100
AcDbLine
 62
7
  6
CENTER
 10
234.9231299143
 20
217.7491294682
 11
222.9731299143
 21
217.7491294682
  0
LINE
  5
3A1
100
AcDbEntity
  8
02___PRT_ALL_AXES
100
AcDbLine
 62
7
  6
CENTER
 10
234.9231299143
 20
217.7491294682
 11
246.8731299143
 21
217.7491294682
  0
LINE
  5
3A2
100
AcDbEntity
  8
02___PRT_ALL_AXES
100
AcDbLine
 62
7
  6
CONTINUOUS
 10
219.0231299143
 20
185.7491294682
 11
219.0231299143
 21
283.7491294682
  0
LINE
  5
3A3
100
AcDbEntity
  8
0
100
AcDbLine
 62
7
  6
CONTINUOUS
 10
247.2231299143
 20
269.1491294682
 11
247.5231299143
 21
269.4491294682
  0
LINE
  5
3A4
100
AcDbEntity
  8
0
100
AcDbLine
 62
7
  6
CONTINUOUS
 10
247.2231299143
 20
200.3491294682
 11
247.5231299143
 21
200.0491294682
  0
LINE
  5
3A5
100
AcDbEntity
  8
02___PRT_ALL_AXES
100
AcDbLine
 62
7
  6
CONTINUOUS
 10
222.0231299143
 20
185.7491294682
 11
222.0231299143
 21
283.7491294682
  0
LINE
  5
3A6
100
AcDbEntity
  8
0
100
AcDbLine
 62
7
  6
CONTINUOUS
 10
222.6231299143
 20
200.3491294682
 11
222.6231299143
 21
235.1491294682
  0
LINE
  5
3A7
100
AcDbEntity
  8
0
100
AcDbLine
 62
7
  6
CONTINUOUS
 10
222.6231299143
 20
235.7491294682
 11
222.6231299143
 21
269.1491294682
  0
LINE
  5
3A8
100
AcDbEntity
  8
0
100
AcDbLine
 62
7
  6
CONTINUOUS
 10
222.6231299143
 20
235.7491294682
 11
222.0231299143
 21
235.1491294682
  0
LINE
  5
3A9
100
AcDbEntity
  8
02___PRT_ALL_AXES
100
AcDbLine
 62
7
  6
CENTER
 10
214.0231299143
 20
226.7491294682
 11
227.0231299143
 21
226.7491294682
  0
LINE
  5
3AA
100
AcDbEntity
  8
02___PRT_ALL_AXES
100
AcDbLine
 62
7
  6
CENTER
 10
217.0231299143
 20
227.7991294682
 11
239.4231317747
 21
227.7991294682
  0
LINE
  5
3AB
100
AcDbEntity
  8
0
100
AcDbLine
 62
7
  6
CONTINUOUS
 10
222.6231299143
 20
235.1491294682
 11
222.3231299143
 21
235.4491294682
  0
LINE
  5
3AC
100
AcDbEntity
  8
0
100
AcDbLine
 62
7
  6
CONTINUOUS
 10
228.9231299143
 20
235.7491294682
 11
228.9231299143
 21
251.7491294682
  0
LINE
  5
3AD
100
AcDbEntity
  8
0
100
AcDbLine
 62
7
  6
CONTINUOUS
 10
233.8231299143
 20
269.1491294682
 11
233.8231299143
 21
258.2568172296
  0
LINE
  5
3AE
100
AcDbEntity
  8
0
100
AcDbLine
 62
7
  6
CONTINUOUS
 10
233.8231299143
 20
235.1491294682
 11
233.8231299143
 21
225.6167011574
  0
LINE
  5
3AF
100
AcDbEntity
  8
0
100
AcDbLine
 62
7
  6
CONTINUOUS
 10
233.8231299143
 20
209.8815577917
 11
233.8231299143
 21
200.3491294682
  0
LINE
  5
3B0
100
AcDbEntity
  8
0
100
AcDbLine
 62
7
  6
CONTINUOUS
 10
233.8231299143
 20
235.1491294682
 11
234.1231299143
 21
235.4491294682
  0
LINE
  5
3B1
100
AcDbEntity
  8
0
100
AcDbLine
 62
7
  6
CONTINUOUS
 10
247.2231299143
 20
235.1491294682
 11
236.0231299143
 21
235.1491294682
  0
LINE
  5
3B2
100
AcDbEntity
  8
0
100
AcDbLine
 62
7
  6
CONTINUOUS
 10
222.6231299143
 20
235.1491294682
 11
233.8231299143
 21
235.1491294682
  0
LINE
  5
3B3
100
AcDbEntity
  8
0
100
AcDbLine
 62
7
  6
CONTINUOUS
 10
234.4231299143
 20
269.1491294682
 11
234.4231299143
 21
257.7282598398
  0
LINE
  5
3B4
100
AcDbEntity
  8
0
100
AcDbLine
 62
7
  6
CONTINUOUS
 10
234.4231299143
 20
235.1491294682
 11
234.4231299143
 21
225.6616620542
  0
LINE
  5
3B5
100
AcDbEntity
  8
0
100
AcDbLine
 62
7
  6
CONTINUOUS
 10
234.4231299143
 20
209.836596888
 11
234.4231299143
 21
200.3491294682
  0
LINE
  5
3B6
100
AcDbEntity
  8
02___PRT_ALL_AXES
100
AcDbLine
 62
7
  6
CENTER
 10
234.9231299143
 20
251.7491294682
 11
234.9231299143
 21
243.0491294682
  0
LINE
  5
3B7
100
AcDbEntity
  8
03___PRT_ALL_CURVES
100
AcDbLine
 62
4
  6
CONTINUOUS
 10
234.9231299143
 20
251.7491294682
 11
234.9231299143
 21
249.3754223368
  0
LINE
  5
3B8
100
AcDbEntity
  8
02___PRT_ALL_AXES
100
AcDbLine
 62
7
  6
CENTER
 10
234.9231299143
 20
217.7491294682
 11
234.9231299143
 21
205.7991294682
  0
LINE
  5
3B9
100
AcDbEntity
  8
03___PRT_ALL_CURVES
100
AcDbLine
 62
4
  6
CONTINUOUS
 10
234.9231299143
 20
217.7491294682
 11
234.9231299143
 21
221.148839273
  0
LINE
  5
3BA
100
AcDbEntity
  8
02___PRT_ALL_AXES
100
AcDbLine
 62
7
  6
CENTER
 10
234.9231299143
 20
217.7491294682
 11
234.9231299143
 21
229.6991294682
  0
LINE
  5
3BB
100
AcDbEntity
  8
02___PRT_ALL_AXES
100
AcDbLine
 62
7
  6
CENTER
 10
234.9231299143
 20
251.7491294682
 11
234.9231299143
 21
260.4491294682
  0
LINE
  5
3BC
100
AcDbEntity
  8
0
100
AcDbLine
 62
7
  6
CONTINUOUS
 10
235.4231299143
 20
200.3491294682
 11
235.4231299143
 21
209.8365968822
  0
LINE
  5
3BD
100
AcDbEntity
  8
0
100
AcDbLine
 62
7
  6
CONTINUOUS
 10
235.4231299143
 20
225.6616620484
 11
235.4231299143
 21
235.1491294682
  0
LINE
  5
3BE
100
AcDbEntity
  8
0
100
AcDbLine
 62
7
  6
CONTINUOUS
 10
235.4231299143
 20
257.7282598398
 11
235.4231299143
 21
269.1491294682
  0
LINE
  5
3BF
100
AcDbEntity
  8
0
100
AcDbLine
 62
7
  6
CONTINUOUS
 10
236.0231299143
 20
200.3491294682
 11
236.0231299143
 21
209.881557779
  0
LINE
  5
3C0
100
AcDbEntity
  8
0
100
AcDbLine
 62
7
  6
CONTINUOUS
 10
236.0231299143
 20
225.6167011447
 11
236.0231299143
 21
235.1491294682
  0
LINE
  5
3C1
100
AcDbEntity
  8
0
100
AcDbLine
 62
7
  6
CONTINUOUS
 10
236.0231299143
 20
258.2568172296
 11
236.0231299143
 21
269.1491294682
  0
LINE
  5
3C2
100
AcDbEntity
  8
0
100
AcDbLine
 62
7
  6
CONTINUOUS
 10
236.0231299143
 20
235.7491294682
 11
235.4231299143
 21
235.1491294682
  0
LINE
  5
3C3
100
AcDbEntity
  8
0
100
AcDbLine
 62
7
  6
CONTINUOUS
 10
247.2231299143
 20
235.7491294682
 11
236.0231299143
 21
235.7491294682
  0
LINE
  5
3C4
100
AcDbEntity
  8
0
100
AcDbLine
 62
7
  6
CONTINUOUS
 10
222.6231299143
 20
235.7491294682
 11
233.8231299143
 21
235.7491294682
  0
LINE
  5
3C5
100
AcDbEntity
  8
0
100
AcDbLine
 62
7
  6
CONTINUOUS
 10
234.4231299143
 20
235.1491294682
 11
233.8231299143
 21
235.7491294682
  0
LINE
  5
3C6
100
AcDbEntity
  8
0
100
AcDbLine
 62
7
  6
CONTINUOUS
 10
236.0231299143
 20
235.1491294682
 11
235.7231299143
 21
235.4491294682
  0
LINE
  5
3C7
100
AcDbEntity
  8
02___PRT_ALL_AXES
100
AcDbLine
 62
7
  6
CENTER
 10
217.0231299143
 20
241.6991294682
 11
239.4231317747
 21
241.6991294682
  0
LINE
  5
3C8
100
AcDbEntity
  8
0
100
AcDbLine
 62
7
  6
CONTINUOUS
 10
240.9231299143
 20
235.7491294682
 11
240.9231299143
 21
251.7491294682
  0
LINE
  5
3C9
100
AcDbEntity
  8
0
100
AcDbLine
 62
7
  6
CONTINUOUS
 10
247.2231299143
 20
235.1491294682
 11
247.5231299143
 21
235.4491294682
  0
LINE
  5
3CA
100
AcDbEntity
  8
02___PRT_ALL_AXES
100
AcDbLine
 62
7
  6
CENTER
 10
214.0231299143
 20
242.7491294682
 11
227.0231299143
 21
242.7491294682
  0
LINE
  5
3CB
100
AcDbEntity
  8
0
100
AcDbLine
 62
7
  6
CONTINUOUS
 10
247.8231299143
 20
235.1491294682
 11
247.2231299143
 21
235.7491294682
  0
LINE
  5
3CC
100
AcDbEntity
  8
0
100
AcDbLine
 62
7
  6
CONTINUOUS
 10
247.2231299143
 20
269.1491294682
 11
247.2231299143
 21
235.7491294682
  0
LINE
  5
3CD
100
AcDbEntity
  8
0
100
AcDbLine
 62
7
  6
CONTINUOUS
 10
247.2231299143
 20
235.1491294682
 11
247.2231299143
 21
200.3491294682
  0
LINE
  5
3CE
100
AcDbEntity
  8
0
100
AcDbLine
 62
7
  6
CONTINUOUS
 10
247.8231299143
 20
269.1491294682
 11
247.8231299143
 21
200.3491294682
  0
LINE
  5
3CF
100
AcDbEntity
  8
0
100
AcDbLine
 62
7
  6
CONTINUOUS
 10
222.6231299143
 20
200.3491294682
 11
222.3231299143
 21
200.0491294682
  0
LINE
  5
3D0
100
AcDbEntity
  8
02___PRT_ALL_AXES
100
AcDbLine
 62
7
  6
CONTINUOUS
 10
222.0231299143
 20
249.7491294682
 11
219.0231299143
 21
249.7491294682
  0
LINE
  5
3D1
100
AcDbEntity
  8
02___PRT_ALL_AXES
100
AcDbLine
 62
7
  6
CENTER
 10
234.9231299143
 20
251.7491294682
 11
226.2231299143
 21
251.7491294682
  0
LINE
  5
3D2
100
AcDbEntity
  8
02___PRT_ALL_AXES
100
AcDbLine
 62
7
  6
CENTER
 10
234.9231299143
 20
251.7491294682
 11
243.6231299143
 21
251.7491294682
  0
LINE
  5
3D3
100
AcDbEntity
  8
0
100
AcDbLine
 62
7
  6
CONTINUOUS
 10
222.6231299143
 20
269.1491294682
 11
222.3231299143
 21
269.4491294682
  0
LINE
  5
3D4
100
AcDbEntity
  8
0
100
AcDbLine
 62
7
  6
CONTINUOUS
 10
233.8231299143
 20
199.7491294682
 11
234.4231299143
 21
200.3491294682
  0
LINE
  5
3D5
100
AcDbEntity
  8
0
100
AcDbLine
 62
7
  6
CONTINUOUS
 10
236.0231299143
 20
200.3491294682
 11
235.7231299143
 21
200.0491294682
  0
LINE
  5
3D6
100
AcDbEntity
  8
02___PRT_ALL_AXES
100
AcDbLine
 62
7
  6
CENTER
 10
217.0231299143
 20
261.7991294682
 11
239.4231317747
 21
261.7991294682
  0
LINE
  5
3D7
100
AcDbEntity
  8
0
100
AcDbLine
 62
7
  6
CONTINUOUS
 10
234.4231299143
 20
269.1491294682
 11
233.8231299143
 21
269.7491294682
  0
LINE
  5
3D8
100
AcDbEntity
  8
0
100
AcDbLine
 62
7
  6
CONTINUOUS
 10
236.0231299143
 20
269.1491294682
 11
235.7231299143
 21
269.4491294682
  0
LINE
  5
3D9
100
AcDbEntity
  8
0
100
AcDbLine
 62
7
  6
CONTINUOUS
 10
247.2231299143
 20
269.1491294682
 11
236.0231299143
 21
269.1491294682
  0
LINE
  5
3DA
100
AcDbEntity
  8
0
100
AcDbLine
 62
7
  6
CONTINUOUS
 10
222.6231299143
 20
269.1491294682
 11
233.8231299143
 21
269.1491294682
  0
LINE
  5
3DB
100
AcDbEntity
  8
0
100
AcDbLine
 62
7
  6
CONTINUOUS
 10
247.2231299143
 20
199.7491294682
 11
247.8231299143
 21
200.3491294682
  0
LINE
  5
3DC
100
AcDbEntity
  8
0
100
AcDbLine
 62
7
  6
CONTINUOUS
 10
247.2231299143
 20
269.7491294682
 11
236.0231299143
 21
269.7491294682
  0
LINE
  5
3DD
100
AcDbEntity
  8
0
100
AcDbLine
 62
7
  6
CONTINUOUS
 10
222.6231299143
 20
269.7491294682
 11
233.8231299143
 21
269.7491294682
  0
LINE
  5
3DE
100
AcDbEntity
  8
0
100
AcDbLine
 62
7
  6
CONTINUOUS
 10
247.8231299143
 20
269.1491294682
 11
247.2231299143
 21
269.7491294682
  0
LINE
  5
3DF
100
AcDbEntity
  8
02___PRT_ALL_AXES
100
AcDbLine
 62
7
  6
CENTER
 10
214.0231299143
 20
276.7491294682
 11
227.0231299143
 21
276.7491294682
  0
LINE
  5
3E0
100
AcDbEntity
  8
02___PRT_ALL_AXES
100
AcDbLine
 62
7
  6
CONTINUOUS
 10
222.0231299143
 20
283.7491294682
 11
219.0231299143
 21
283.7491294682
  0
LINE
  5
3E1
100
AcDbEntity
  8
02___PRT_ALL_AXES
100
AcDbLine
 62
7
  6
CONTINUOUS
 10
19.9987595189
 20
67.6531519863
 11
19.9987595189
 21
75.6529339298
  0
LINE
  5
3E2
100
AcDbEntity
  8
02___PRT_ALL_AXES
100
AcDbLine
 62
7
  6
CONTINUOUS
 10
23.4987595189
 20
67.0280429581
 11
23.4987595189
 21
76.2780429581
  0
LINE
  5
3E3
100
AcDbEntity
  8
0
100
AcDbLine
 62
7
  6
CONTINUOUS
 10
27.6987595189
 20
78.4530429581
 11
27.6987595189
 21
64.8530429581
  0
LINE
  5
3E4
100
AcDbEntity
  8
0
100
AcDbLine
 62
7
  6
CONTINUOUS
 10
27.8987595189
 20
78.6530429581
 11
27.8987595189
 21
64.6530429581
  0
LINE
  5
3E5
100
AcDbEntity
  8
0
100
AcDbLine
 62
7
  6
CONTINUOUS
 10
34.7987595189
 20
79.4029521551
 11
34.7987595189
 21
63.903133761
  0
LINE
  5
3E6
100
AcDbEntity
  8
0
100
AcDbLine
 62
7
  6
CONTINUOUS
 10
34.9987595189
 20
79.6030429581
 11
34.9987595189
 21
63.7030429581
  0
LINE
  5
3E7
100
AcDbEntity
  8
0
100
AcDbLine
 62
7
  6
CONTINUOUS
 10
45.7987595189
 20
79.6030429581
 11
45.7987595189
 21
63.7030429581
  0
LINE
  5
3E8
100
AcDbEntity
  8
0
100
AcDbLine
 62
7
  6
CONTINUOUS
 10
45.9987595189
 20
79.4029521552
 11
45.9987595189
 21
63.9031337609
  0
LINE
  5
3E9
100
AcDbEntity
  8
0
100
AcDbLine
 62
7
  6
CONTINUOUS
 10
47.9987595189
 20
83.9530429581
 11
47.9987595189
 21
72.7530429581
  0
LINE
  5
3EA
100
AcDbEntity
  8
0
100
AcDbLine
 62
7
  6
CONTINUOUS
 10
47.9987595189
 20
59.3530429581
 11
47.9987595189
 21
70.5530429581
  0
LINE
  5
3EB
100
AcDbEntity
  8
02___PRT_ALL_AXES
100
AcDbLine
 62
7
  6
CONTINUOUS
 10
47.9987595189
 20
84.5530429581
 11
47.9987595189
 21
87.5530429581
  0
LINE
  5
3EC
100
AcDbEntity
  8
0
100
AcDbLine
 62
7
  6
CONTINUOUS
 10
48.5987595189
 20
83.9530429581
 11
48.5987595189
 21
72.7530429581
  0
LINE
  5
3ED
100
AcDbEntity
  8
0
100
AcDbLine
 62
7
  6
CONTINUOUS
 10
48.5987595189
 20
59.3530429581
 11
48.5987595189
 21
70.5530429581
  0
LINE
  5
3EE
100
AcDbEntity
  8
0
100
AcDbLine
 62
7
  6
CONTINUOUS
 10
27.6987595189
 20
78.4530429581
 11
27.8987595189
 21
78.6530429581
  0
LINE
  5
3EF
100
AcDbEntity
  8
0
100
AcDbLine
 62
7
  6
CONTINUOUS
 10
27.6987595189
 20
64.8530429581
 11
27.8987595189
 21
64.6530429581
  0
LINE
  5
3F0
100
AcDbEntity
  8
0
100
AcDbLine
 62
7
  6
CONTINUOUS
 10
34.7987595189
 20
79.4030429581
 11
34.9987595189
 21
79.6030429581
  0
LINE
  5
3F1
100
AcDbEntity
  8
0
100
AcDbLine
 62
7
  6
CONTINUOUS
 10
34.7987595189
 20
63.9030429581
 11
34.9987595189
 21
63.7030429581
  0
LINE
  5
3F2
100
AcDbEntity
  8
0
100
AcDbLine
 62
7
  6
CONTINUOUS
 10
47.9987595189
 20
83.9530429581
 11
48.5987595189
 21
84.5530429581
  0
LINE
  5
3F3
100
AcDbEntity
  8
0
100
AcDbLine
 62
7
  6
CONTINUOUS
 10
48.5987595189
 20
58.7530429581
 11
47.9987595189
 21
59.3530429581
  0
LINE
  5
3F4
100
AcDbEntity
  8
02___PRT_ALL_AXES
100
AcDbLine
 62
7
  6
CENTER
 10
62.9987595189
 20
92.5530429581
 11
62.9987595189
 21
79.5530429581
  0
LINE
  5
3F5
100
AcDbEntity
  8
02___PRT_ALL_AXES
100
AcDbLine
 62
7
  6
CENTER
 10
62.9987595189
 20
53.7530429581
 11
62.9987595189
 21
76.1530448184
  0
LINE
  5
3F6
100
AcDbEntity
  8
0
100
AcDbLine
 62
7
  6
CONTINUOUS
 10
48.2987595189
 20
72.4530429581
 11
48.5987595189
 21
72.7530429581
  0
LINE
  5
3F7
100
AcDbEntity
  8
0
100
AcDbLine
 62
7
  6
CONTINUOUS
 10
48.5987595189
 20
70.5530429581
 11
48.2987595189
 21
70.8530429581
  0
LINE
  5
3F8
100
AcDbEntity
  8
0
100
AcDbLine
 62
7
  6
CONTINUOUS
 10
48.5987595189
 20
72.1530429581
 11
47.9987595189
 21
72.7530429581
  0
LINE
  5
3F9
100
AcDbEntity
  8
0
100
AcDbLine
 62
7
  6
CONTINUOUS
 10
47.9987595189
 20
70.5530429581
 11
48.5987595189
 21
71.1530429581
  0
LINE
  5
3FA
100
AcDbEntity
  8
0
100
AcDbLine
 62
7
  6
CONTINUOUS
 10
45.9987595189
 20
63.9030429581
 11
45.7987595189
 21
63.7030429581
  0
LINE
  5
3FB
100
AcDbEntity
  8
0
100
AcDbLine
 62
7
  6
CONTINUOUS
 10
45.9987595189
 20
79.4030429581
 11
45.7987595189
 21
79.6030429581
  0
LINE
  5
3FC
100
AcDbEntity
  8
0
100
AcDbLine
 62
7
  6
CONTINUOUS
 10
77.3987595189
 20
83.9530429581
 11
77.3987595189
 21
72.7530429581
  0
LINE
  5
3FD
100
AcDbEntity
  8
0
100
AcDbLine
 62
7
  6
CONTINUOUS
 10
77.3987595189
 20
59.3530429581
 11
77.3987595189
 21
70.5530429581
  0
LINE
  5
3FE
100
AcDbEntity
  8
02___PRT_ALL_AXES
100
AcDbLine
 62
7
  6
CONTINUOUS
 10
77.7198917627
 20
66.9530429581
 11
77.7198917627
 21
76.3530429581
  0
LINE
  5
3FF
100
AcDbEntity
  8
0
100
AcDbLine
 62
7
  6
CONTINUOUS
 10
77.9987595189
 20
83.9530429581
 11
77.9987595189
 21
76.3530429581
  0
LINE
  5
400
100
AcDbEntity
  8
0
100
AcDbLine
 62
7
  6
CONTINUOUS
 10
77.9987595189
 20
59.3530429581
 11
77.9987595189
 21
66.9530429581
  0
LINE
  5
401
100
AcDbEntity
  8
02___PRT_ALL_AXES
100
AcDbLine
 62
7
  6
CONTINUOUS
 10
77.9987595189
 20
84.5530429581
 11
77.9987595189
 21
87.5530429581
  0
LINE
  5
402
100
AcDbEntity
  8
0
100
AcDbLine
 62
7
  6
CONTINUOUS
 10
48.2987595189
 20
59.0530429581
 11
48.5987595189
 21
59.3530429581
  0
LINE
  5
403
100
AcDbEntity
  8
0
100
AcDbLine
 62
7
  6
CONTINUOUS
 10
77.6987595189
 20
84.2530429581
 11
77.3987595189
 21
83.9530429581
  0
LINE
  5
404
100
AcDbEntity
  8
0
100
AcDbLine
 62
7
  6
CONTINUOUS
 10
48.5987595189
 20
83.9530429581
 11
48.2987595189
 21
84.2530429581
  0
LINE
  5
405
100
AcDbEntity
  8
0
100
AcDbLine
 62
7
  6
CONTINUOUS
 10
77.3987595189
 20
59.3530429581
 11
77.6987595189
 21
59.0530429581
  0
LINE
  5
406
100
AcDbEntity
  8
0
100
AcDbLine
 62
7
  6
CONTINUOUS
 10
80.9987595189
 20
77.6530429581
 11
80.9987595189
 21
76.3530429581
  0
LINE
  5
407
100
AcDbEntity
  8
0
100
AcDbLine
 62
7
  6
CONTINUOUS
 10
80.9987595189
 20
66.9530429581
 11
80.9987595189
 21
65.6530429581
  0
LINE
  5
408
100
AcDbEntity
  8
02___PRT_ALL_AXES
100
AcDbLine
 62
7
  6
CONTINUOUS
 10
84.7198917627
 20
66.9530429581
 11
84.7198917627
 21
76.3530429581
  0
LINE
  5
409
100
AcDbEntity
  8
0
100
AcDbLine
 62
7
  6
CONTINUOUS
 10
77.7198917627
 20
70.8319107143
 11
77.3987595189
 21
71.1530429581
  0
LINE
  5
40A
100
AcDbEntity
  8
0
100
AcDbLine
 62
7
  6
CONTINUOUS
 10
77.7198917627
 20
72.4741752018
 11
77.3987595189
 21
72.1530429581
  0
LINE
  5
40B
100
AcDbEntity
  8
0
100
AcDbLine
 62
7
  6
CONTINUOUS
 10
77.3987595189
 20
70.5530429581
 11
77.6987595189
 21
70.8530429581
  0
LINE
  5
40C
100
AcDbEntity
  8
02___PRT_ALL_AXES
100
AcDbLine
 62
7
  6
CONTINUOUS
 10
195.8810105128
 20
67.6530429581
 11
192.3810105128
 21
67.0280429581
  0
LINE
  5
40D
100
AcDbEntity
  8
02___PRT_ALL_AXES
100
AcDbLine
 62
7
  6
CONTINUOUS
 10
19.9987595189
 20
67.6530429581
 11
23.4987595189
 21
67.0280429581
  0
LINE
  5
40E
100
AcDbEntity
  8
0
100
AcDbLine
 62
7
  6
CONTINUOUS
 10
77.3987595189
 20
72.7530429581
 11
77.6987595189
 21
72.4530429581
  0
LINE
  5
40F
100
AcDbEntity
  8
0
100
AcDbLine
 62
7
  6
CONTINUOUS
 10
77.3987595189
 20
58.7530429581
 11
77.9987595189
 21
59.3530429581
  0
LINE
  5
410
100
AcDbEntity
  8
0
100
AcDbLine
 62
7
  6
CONTINUOUS
 10
167.2810105128
 20
58.7530429581
 11
138.4810105128
 21
58.7530429581
  0
LINE
  5
411
100
AcDbEntity
  8
0
100
AcDbLine
 62
7
  6
CONTINUOUS
 10
77.3987595189
 20
58.7530429581
 11
48.5987595189
 21
58.7530429581
  0
LINE
  5
412
100
AcDbEntity
  8
0
100
AcDbLine
 62
7
  6
CONTINUOUS
 10
167.2810105128
 20
59.3530429581
 11
138.4810105128
 21
59.3530429581
  0
LINE
  5
413
100
AcDbEntity
  8
0
100
AcDbLine
 62
7
  6
CONTINUOUS
 10
77.3987595189
 20
59.3530429581
 11
48.5987595189
 21
59.3530429581
  0
LINE
  5
414
100
AcDbEntity
  8
0
100
AcDbLine
 62
7
  6
CONTINUOUS
 10
77.9987595189
 20
83.9530429581
 11
77.3987595189
 21
84.5530429581
  0
LINE
  5
415
100
AcDbEntity
  8
02___PRT_ALL_AXES
100
AcDbLine
 62
7
  6
CONTINUOUS
 10
180.8810105128
 20
63.7030429581
 11
170.0810105128
 21
63.7030429581
  0
LINE
  5
416
100
AcDbEntity
  8
02___PRT_ALL_AXES
100
AcDbLine
 62
7
  6
CONTINUOUS
 10
34.9987595189
 20
63.7030429581
 11
45.7987595189
 21
63.7030429581
  0
LINE
  5
417
100
AcDbEntity
  8
02___PRT_ALL_AXES
100
AcDbLine
 62
7
  6
CONTINUOUS
 10
187.9810105128
 20
64.6530429581
 11
181.0810105128
 21
64.6530429581
  0
LINE
  5
418
100
AcDbEntity
  8
02___PRT_ALL_AXES
100
AcDbLine
 62
7
  6
CONTINUOUS
 10
27.8987595189
 20
64.6530429581
 11
34.7987595189
 21
64.6530429581
  0
LINE
  5
419
100
AcDbEntity
  8
0
100
AcDbLine
 62
7
  6
CONTINUOUS
 10
45.9987595189
 20
65.6530429581
 11
47.9987595189
 21
65.6530429581
  0
LINE
  5
41A
100
AcDbEntity
  8
0
100
AcDbLine
 62
7
  6
CONTINUOUS
 10
77.9987595189
 20
65.6530429581
 11
137.8810105128
 21
65.6530429581
  0
LINE
  5
41B
100
AcDbEntity
  8
0
100
AcDbLine
 62
7
  6
CONTINUOUS
 10
167.8810105128
 20
65.6530429581
 11
169.8810105128
 21
65.6530429581
  0
LINE
  5
41C
100
AcDbEntity
  8
02___PRT_ALL_AXES
100
AcDbLine
 62
7
  6
CONTINUOUS
 10
84.7198917627
 20
66.9530429581
 11
77.7198917627
 21
66.9530429581
  0
LINE
  5
41D
100
AcDbEntity
  8
02___PRT_ALL_AXES
100
AcDbLine
 62
7
  6
CONTINUOUS
 10
192.3810105128
 20
67.4030429581
 11
188.1810105128
 21
67.4030429581
  0
LINE
  5
41E
100
AcDbEntity
  8
02___PRT_ALL_AXES
100
AcDbLine
 62
7
  6
CONTINUOUS
 10
23.4987595189
 20
67.4030429581
 11
27.6987595189
 21
67.4030429581
  0
LINE
  5
41F
100
AcDbEntity
  8
02___PRT_ALL_AXES
100
AcDbLine
 62
7
  6
CONTINUOUS
 10
119.3185525452
 20
67.6530429581
 11
84.7198917627
 21
67.6530429581
  0
LINE
  5
420
100
AcDbEntity
  8
0
100
AcDbLine
 62
7
  6
CONTINUOUS
 10
48.5987595189
 20
70.5530429581
 11
77.3987595189
 21
70.5530429581
  0
LINE
  5
421
100
AcDbEntity
  8
0
100
AcDbLine
 62
7
  6
CONTINUOUS
 10
138.4810105128
 20
70.5530429581
 11
167.2810105128
 21
70.5530429581
  0
LINE
  5
422
100
AcDbEntity
  8
0
100
AcDbLine
 62
7
  6
CONTINUOUS
 10
48.5987595189
 20
71.1530429581
 11
77.3987595189
 21
71.1530429581
  0
LINE
  5
423
100
AcDbEntity
  8
0
100
AcDbLine
 62
7
  6
CONTINUOUS
 10
138.4810105128
 20
71.1530429581
 11
167.2810105128
 21
71.1530429581
  0
LINE
  5
424
100
AcDbEntity
  8
02___PRT_ALL_AXES
100
AcDbLine
 62
7
  6
CENTER
 10
197.2072464955
 20
71.6530429581
 11
18.5302921808
 21
71.6530429581
  0
LINE
  5
425
100
AcDbEntity
  8
0
100
AcDbLine
 62
7
  6
CONTINUOUS
 10
167.2810105128
 20
72.1530429581
 11
138.4810105128
 21
72.1530429581
  0
LINE
  5
426
100
AcDbEntity
  8
0
100
AcDbLine
 62
7
  6
CONTINUOUS
 10
77.3987595189
 20
72.1530429581
 11
48.5987595189
 21
72.1530429581
  0
LINE
  5
427
100
AcDbEntity
  8
0
100
AcDbLine
 62
7
  6
CONTINUOUS
 10
167.2810105128
 20
72.7530429581
 11
138.4810105128
 21
72.7530429581
  0
LINE
  5
428
100
AcDbEntity
  8
0
100
AcDbLine
 62
7
  6
CONTINUOUS
 10
77.3987595189
 20
72.7530429581
 11
48.5987595189
 21
72.7530429581
  0
LINE
  5
429
100
AcDbEntity
  8
02___PRT_ALL_AXES
100
AcDbLine
 62
7
  6
CONTINUOUS
 10
119.3185547478
 20
75.6530429581
 11
84.7198917627
 21
75.6530429581
  0
LINE
  5
42A
100
AcDbEntity
  8
02___PRT_ALL_AXES
100
AcDbLine
 62
7
  6
CONTINUOUS
 10
192.3810105128
 20
75.9030429581
 11
188.1810105128
 21
75.9030429581
  0
LINE
  5
42B
100
AcDbEntity
  8
02___PRT_ALL_AXES
100
AcDbLine
 62
7
  6
CONTINUOUS
 10
23.4987595189
 20
75.9030429581
 11
27.6987595189
 21
75.9030429581
  0
LINE
  5
42C
100
AcDbEntity
  8
02___PRT_ALL_AXES
100
AcDbLine
 62
7
  6
CONTINUOUS
 10
84.7198917627
 20
76.3530429581
 11
77.7198917627
 21
76.3530429581
  0
LINE
  5
42D
100
AcDbEntity
  8
0
100
AcDbLine
 62
7
  6
CONTINUOUS
 10
45.9987595189
 20
77.6530429581
 11
47.9987595189
 21
77.6530429581
  0
LINE
  5
42E
100
AcDbEntity
  8
0
100
AcDbLine
 62
7
  6
CONTINUOUS
 10
77.9987595189
 20
77.6530429581
 11
137.8810105128
 21
77.6530429581
  0
LINE
  5
42F
100
AcDbEntity
  8
0
100
AcDbLine
 62
7
  6
CONTINUOUS
 10
167.8810105128
 20
77.6530429581
 11
169.8810105128
 21
77.6530429581
  0
LINE
  5
430
100
AcDbEntity
  8
02___PRT_ALL_AXES
100
AcDbLine
 62
7
  6
CONTINUOUS
 10
187.9810105128
 20
78.6530429581
 11
181.0810105128
 21
78.6530429581
  0
LINE
  5
431
100
AcDbEntity
  8
02___PRT_ALL_AXES
100
AcDbLine
 62
7
  6
CONTINUOUS
 10
27.8987595189
 20
78.6530429581
 11
34.7987595189
 21
78.6530429581
  0
LINE
  5
432
100
AcDbEntity
  8
02___PRT_ALL_AXES
100
AcDbLine
 62
7
  6
CONTINUOUS
 10
180.8810105128
 20
79.6030429581
 11
170.0810105128
 21
79.6030429581
  0
LINE
  5
433
100
AcDbEntity
  8
02___PRT_ALL_AXES
100
AcDbLine
 62
7
  6
CONTINUOUS
 10
34.9987595189
 20
79.6030429581
 11
45.7987595189
 21
79.6030429581
  0
LINE
  5
434
100
AcDbEntity
  8
0
100
AcDbLine
 62
7
  6
CONTINUOUS
 10
48.5987595189
 20
83.9530429581
 11
77.3987595189
 21
83.9530429581
  0
LINE
  5
435
100
AcDbEntity
  8
0
100
AcDbLine
 62
7
  6
CONTINUOUS
 10
138.4810105128
 20
83.9530429581
 11
167.2810105128
 21
83.9530429581
  0
LINE
  5
436
100
AcDbEntity
  8
02___PRT_ALL_AXES
100
AcDbLine
 62
7
  6
CONTINUOUS
 10
47.9987595189
 20
84.5530429581
 11
77.9987595189
 21
84.5530429581
  0
LINE
  5
437
100
AcDbEntity
  8
02___PRT_ALL_AXES
100
AcDbLine
 62
7
  6
CONTINUOUS
 10
137.8810105128
 20
84.5530429581
 11
167.8810105128
 21
84.5530429581
  0
LINE
  5
438
100
AcDbEntity
  8
0
100
AcDbLine
 62
7
  6
CONTINUOUS
 10
137.8810105128
 20
59.3530429581
 11
138.4810105128
 21
58.7530429581
  0
LINE
  5
439
100
AcDbEntity
  8
0
100
AcDbLine
 62
7
  6
CONTINUOUS
 10
137.8810105128
 20
83.9530429581
 11
138.4810105128
 21
84.5530429581
  0
LINE
  5
43A
100
AcDbEntity
  8
02___PRT_ALL_AXES
100
AcDbLine
 62
7
  6
CONTINUOUS
 10
19.9987595189
 20
75.6530429581
 11
23.4987595189
 21
76.2780429581
  0
LINE
  5
43B
100
AcDbEntity
  8
02___PRT_ALL_AXES
100
AcDbLine
 62
7
  6
CONTINUOUS
 10
47.9987595189
 20
87.5530429581
 11
77.9987595189
 21
87.5530429581
  0
LINE
  5
43C
100
AcDbEntity
  8
02___PRT_ALL_AXES
100
AcDbLine
 62
7
  6
CONTINUOUS
 10
137.8810105128
 20
87.5530429581
 11
167.8810105128
 21
87.5530429581
  0
LINE
  5
43D
100
AcDbEntity
  8
02___PRT_ALL_AXES
100
AcDbLine
 62
7
  6
CONTINUOUS
 10
195.8810105128
 20
75.6530429581
 11
192.3810105128
 21
76.2780429581
  0
LINE
  5
43E
100
AcDbEntity
  8
0
100
AcDbLine
 62
7
  6
CONTINUOUS
 10
138.1810105128
 20
72.4530429581
 11
138.4810105128
 21
72.7530429581
  0
LINE
  5
43F
100
AcDbEntity
  8
0
100
AcDbLine
 62
7
  6
CONTINUOUS
 10
137.8810105128
 20
70.5530429581
 11
138.4810105128
 21
71.1530429581
  0
LINE
  5
440
100
AcDbEntity
  8
0
100
AcDbLine
 62
7
  6
CONTINUOUS
 10
138.4810105128
 20
70.5530429581
 11
138.1810105128
 21
70.8530429581
  0
LINE
  5
441
100
AcDbEntity
  8
0
100
AcDbLine
 62
7
  6
CONTINUOUS
 10
137.8810105128
 20
72.7530429581
 11
138.4810105128
 21
72.1530429581
  0
LINE
  5
442
100
AcDbEntity
  8
0
100
AcDbLine
 62
7
  6
CONTINUOUS
 10
134.8810105128
 20
77.6530429581
 11
134.8810105128
 21
65.6530429581
  0
LINE
  5
443
100
AcDbEntity
  8
0
100
AcDbLine
 62
7
  6
CONTINUOUS
 10
137.8810105128
 20
83.9530429581
 11
137.8810105128
 21
72.7530429581
  0
LINE
  5
444
100
AcDbEntity
  8
0
100
AcDbLine
 62
7
  6
CONTINUOUS
 10
137.8810105128
 20
59.3530429581
 11
137.8810105128
 21
70.5530429581
  0
LINE
  5
445
100
AcDbEntity
  8
02___PRT_ALL_AXES
100
AcDbLine
 62
7
  6
CONTINUOUS
 10
137.8810105128
 20
84.5530429581
 11
137.8810105128
 21
87.5530429581
  0
LINE
  5
446
100
AcDbEntity
  8
0
100
AcDbLine
 62
7
  6
CONTINUOUS
 10
138.4810105128
 20
83.9530429581
 11
138.1810105128
 21
84.2530429581
  0
LINE
  5
447
100
AcDbEntity
  8
0
100
AcDbLine
 62
7
  6
CONTINUOUS
 10
138.4810105128
 20
83.9530429581
 11
138.4810105128
 21
72.7530429581
  0
LINE
  5
448
100
AcDbEntity
  8
0
100
AcDbLine
 62
7
  6
CONTINUOUS
 10
138.4810105128
 20
59.3530429581
 11
138.4810105128
 21
70.5530429581
  0
LINE
  5
449
100
AcDbEntity
  8
0
100
AcDbLine
 62
7
  6
CONTINUOUS
 10
138.1810105128
 20
59.0530429581
 11
138.4810105128
 21
59.3530429581
  0
LINE
  5
44A
100
AcDbEntity
  8
0
100
AcDbLine
 62
7
  6
CONTINUOUS
 10
167.5810105128
 20
84.2530429581
 11
167.2810105128
 21
83.9530429581
  0
LINE
  5
44B
100
AcDbEntity
  8
0
100
AcDbLine
 62
7
  6
CONTINUOUS
 10
167.2810105128
 20
59.3530429581
 11
167.5810105128
 21
59.0530429581
  0
LINE
  5
44C
100
AcDbEntity
  8
0
100
AcDbLine
 62
7
  6
CONTINUOUS
 10
169.8810105128
 20
79.4030429581
 11
170.0810105128
 21
79.6030429581
  0
LINE
  5
44D
100
AcDbEntity
  8
0
100
AcDbLine
 62
7
  6
CONTINUOUS
 10
169.8810105128
 20
63.9030429581
 11
170.0810105128
 21
63.7030429581
  0
LINE
  5
44E
100
AcDbEntity
  8
0
100
AcDbLine
 62
7
  6
CONTINUOUS
 10
167.8810105128
 20
70.5530429581
 11
167.2810105128
 21
71.1530429581
  0
LINE
  5
44F
100
AcDbEntity
  8
0
100
AcDbLine
 62
7
  6
CONTINUOUS
 10
167.2810105128
 20
72.7530429581
 11
167.5810105128
 21
72.4530429581
  0
LINE
  5
450
100
AcDbEntity
  8
02___PRT_ALL_AXES
100
AcDbLine
 62
7
  6
CENTER
 10
152.8810105128
 20
92.5530429581
 11
152.8810105128
 21
79.5530429581
  0
LINE
  5
451
100
AcDbEntity
  8
02___PRT_ALL_AXES
100
AcDbLine
 62
7
  6
CENTER
 10
152.8810105128
 20
53.7530429581
 11
152.8810105128
 21
76.1530448184
  0
LINE
  5
452
100
AcDbEntity
  8
0
100
AcDbLine
 62
7
  6
CONTINUOUS
 10
167.8810105128
 20
72.7530429581
 11
167.2810105128
 21
72.1530429581
  0
LINE
  5
453
100
AcDbEntity
  8
0
100
AcDbLine
 62
7
  6
CONTINUOUS
 10
167.2810105128
 20
70.5530429581
 11
167.5810105128
 21
70.8530429581
  0
LINE
  5
454
100
AcDbEntity
  8
0
100
AcDbLine
 62
7
  6
CONTINUOUS
 10
167.2810105128
 20
58.7530429581
 11
167.8810105128
 21
59.3530429581
  0
LINE
  5
455
100
AcDbEntity
  8
0
100
AcDbLine
 62
7
  6
CONTINUOUS
 10
167.2810105128
 20
84.5530429581
 11
167.8810105128
 21
83.9530429581
  0
LINE
  5
456
100
AcDbEntity
  8
0
100
AcDbLine
 62
7
  6
CONTINUOUS
 10
167.2810105128
 20
83.9530429581
 11
167.2810105128
 21
72.7530429581
  0
LINE
  5
457
100
AcDbEntity
  8
0
100
AcDbLine
 62
7
  6
CONTINUOUS
 10
167.2810105128
 20
59.3530429581
 11
167.2810105128
 21
70.5530429581
  0
LINE
  5
458
100
AcDbEntity
  8
0
100
AcDbLine
 62
7
  6
CONTINUOUS
 10
167.8810105128
 20
83.9530429581
 11
167.8810105128
 21
72.7530429581
  0
LINE
  5
459
100
AcDbEntity
  8
0
100
AcDbLine
 62
7
  6
CONTINUOUS
 10
167.8810105128
 20
59.3530429581
 11
167.8810105128
 21
70.5530429581
  0
LINE
  5
45A
100
AcDbEntity
  8
02___PRT_ALL_AXES
100
AcDbLine
 62
7
  6
CONTINUOUS
 10
167.8810105128
 20
84.5530429581
 11
167.8810105128
 21
87.5530429581
  0
LINE
  5
45B
100
AcDbEntity
  8
0
100
AcDbLine
 62
7
  6
CONTINUOUS
 10
181.0810105128
 20
63.9030429581
 11
180.8810105128
 21
63.7030429581
  0
LINE
  5
45C
100
AcDbEntity
  8
0
100
AcDbLine
 62
7
  6
CONTINUOUS
 10
181.0810105128
 20
79.4030429581
 11
180.8810105128
 21
79.6030429581
  0
LINE
  5
45D
100
AcDbEntity
  8
0
100
AcDbLine
 62
7
  6
CONTINUOUS
 10
169.8810105128
 20
63.9031337609
 11
169.8810105128
 21
79.4029521552
  0
LINE
  5
45E
100
AcDbEntity
  8
0
100
AcDbLine
 62
7
  6
CONTINUOUS
 10
170.0810105128
 20
63.7030429581
 11
170.0810105128
 21
79.6030429581
  0
LINE
  5
45F
100
AcDbEntity
  8
0
100
AcDbLine
 62
7
  6
CONTINUOUS
 10
188.1810105128
 20
64.8530429581
 11
187.9810105128
 21
64.6530429581
  0
LINE
  5
460
100
AcDbEntity
  8
0
100
AcDbLine
 62
7
  6
CONTINUOUS
 10
188.1810105128
 20
78.4530429581
 11
187.9810105128
 21
78.6530429581
  0
LINE
  5
461
100
AcDbEntity
  8
0
100
AcDbLine
 62
7
  6
CONTINUOUS
 10
180.8810105128
 20
63.7030429581
 11
180.8810105128
 21
79.6030429581
  0
LINE
  5
462
100
AcDbEntity
  8
0
100
AcDbLine
 62
7
  6
CONTINUOUS
 10
181.0810105128
 20
63.903133761
 11
181.0810105128
 21
79.4029521551
  0
LINE
  5
463
100
AcDbEntity
  8
0
100
AcDbLine
 62
7
  6
CONTINUOUS
 10
187.9810105128
 20
64.6530429581
 11
187.9810105128
 21
78.6530429581
  0
LINE
  5
464
100
AcDbEntity
  8
0
100
AcDbLine
 62
7
  6
CONTINUOUS
 10
188.1810105128
 20
64.8530429581
 11
188.1810105128
 21
78.4530429581
  0
LINE
  5
465
100
AcDbEntity
  8
02___PRT_ALL_AXES
100
AcDbLine
 62
7
  6
CONTINUOUS
 10
192.3810105128
 20
67.0280429581
 11
192.3810105128
 21
76.2780429581
  0
LINE
  5
466
100
AcDbEntity
  8
02___PRT_ALL_AXES
100
AcDbLine
 62
7
  6
CONTINUOUS
 10
195.8810105128
 20
67.6531519863
 11
195.8810105128
 21
75.6529339298
  0
LINE
  5
467
100
AcDbEntity
  8
02___PRT_ALL_AXES
100
AcDbLine
 62
7
  6
CONTINUOUS
 10
218.154196543
 20
120.9955206484
 11
218.154196543
 21
128.9955206484
  0
LINE
  5
468
100
AcDbEntity
  8
02___PRT_ALL_AXES
100
AcDbLine
 62
7
  6
CONTINUOUS
 10
221.654196543
 20
120.3705206484
 11
221.654196543
 21
129.6205206484
  0
LINE
  5
469
100
AcDbEntity
  8
0
100
AcDbLine
 62
7
  6
CONTINUOUS
 10
225.854196543
 20
131.7955206484
 11
225.854196543
 21
118.1955206484
  0
LINE
  5
46A
100
AcDbEntity
  8
0
100
AcDbLine
 62
7
  6
CONTINUOUS
 10
226.054196543
 20
131.9955206484
 11
226.054196543
 21
117.9955206484
  0
LINE
  5
46B
100
AcDbEntity
  8
0
100
AcDbLine
 62
7
  6
CONTINUOUS
 10
232.954196543
 20
132.7455206484
 11
232.954196543
 21
117.2455206484
  0
LINE
  5
46C
100
AcDbEntity
  8
0
100
AcDbLine
 62
7
  6
CONTINUOUS
 10
233.154196543
 20
132.9455206484
 11
233.154196543
 21
117.0455206484
  0
LINE
  5
46D
100
AcDbEntity
  8
0
100
AcDbLine
 62
7
  6
CONTINUOUS
 10
225.8541965429
 20
118.1955206485
 11
226.0541965429
 21
117.9955206485
  0
LINE
  5
46E
100
AcDbEntity
  8
0
100
AcDbLine
 62
7
  6
CONTINUOUS
 10
232.9541965429
 20
117.2455206485
 11
233.1541965429
 21
117.0455206485
  0
LINE
  5
46F
100
AcDbEntity
  8
0
100
AcDbLine
 62
7
  6
CONTINUOUS
 10
246.154196543
 20
107.5955206484
 11
246.754196543
 21
106.9955206484
  0
LINE
  5
470
100
AcDbEntity
  8
0
100
AcDbLine
 62
7
  6
CONTINUOUS
 10
243.954196543
 20
132.9455206484
 11
243.954196543
 21
117.0455206484
  0
LINE
  5
471
100
AcDbEntity
  8
0
100
AcDbLine
 62
7
  6
CONTINUOUS
 10
244.154196543
 20
132.7455206484
 11
244.154196543
 21
117.2455206484
  0
LINE
  5
472
100
AcDbEntity
  8
0
100
AcDbLine
 62
7
  6
CONTINUOUS
 10
246.154196543
 20
142.3955206484
 11
246.154196543
 21
107.5955206484
  0
LINE
  5
473
100
AcDbEntity
  8
02___PRT_ALL_AXES
100
AcDbLine
 62
7
  6
CONTINUOUS
 10
246.154196543
 20
92.9955206484
 11
246.154196543
 21
107.5955206484
  0
LINE
  5
474
100
AcDbEntity
  8
02___PRT_ALL_AXES
100
AcDbLine
 62
7
  6
CONTINUOUS
 10
246.154196543
 20
142.3955206484
 11
246.154196543
 21
156.9955206484
  0
LINE
  5
475
100
AcDbEntity
  8
0
100
AcDbLine
 62
7
  6
CONTINUOUS
 10
246.754196543
 20
142.3955206484
 11
246.754196543
 21
107.5955206484
  0
LINE
  5
476
100
AcDbEntity
  8
0
100
AcDbLine
 62
7
  6
CONTINUOUS
 10
225.8541965429
 20
131.7955206483
 11
226.0541965429
 21
131.9955206483
  0
LINE
  5
477
100
AcDbEntity
  8
02___PRT_ALL_AXES
100
AcDbLine
 62
7
  6
CONTINUOUS
 10
276.154196543
 20
92.9955206484
 11
246.154196543
 21
92.9955206484
  0
LINE
  5
478
100
AcDbEntity
  8
0
100
AcDbLine
 62
7
  6
CONTINUOUS
 10
244.1541965432
 20
132.7455206482
 11
243.9541965432
 21
132.9455206482
  0
LINE
  5
479
100
AcDbEntity
  8
02___PRT_ALL_AXES
100
AcDbLine
 62
7
  6
CENTER
 10
261.154196543
 20
149.9955206484
 11
261.154196543
 21
142.4955206484
  0
LINE
  5
47A
100
AcDbEntity
  8
02___PRT_ALL_AXES
100
AcDbLine
 62
7
  6
CENTER
 10
261.154196543
 20
135.0455206484
 11
261.154196543
 21
131.0454956484
  0
LINE
  5
47B
100
AcDbEntity
  8
02___PRT_ALL_AXES
100
AcDbLine
 62
7
  6
CENTER
 10
261.154196543
 20
114.9455206484
 11
261.154196543
 21
110.9454956484
  0
LINE
  5
47C
100
AcDbEntity
  8
02___PRT_ALL_AXES
100
AcDbLine
 62
7
  6
CENTER
 10
261.154196543
 20
99.9955206484
 11
261.154196543
 21
92.4955206484
  0
LINE
  5
47D
100
AcDbEntity
  8
02___PRT_ALL_AXES
100
AcDbLine
 62
7
  6
CENTER
 10
261.154196543
 20
99.9955206484
 11
261.154196543
 21
107.4955206484
  0
LINE
  5
47E
100
AcDbEntity
  8
02___PRT_ALL_AXES
100
AcDbLine
 62
7
  6
CENTER
 10
261.154196543
 20
114.9455206484
 11
261.154196543
 21
118.9455456484
  0
LINE
  5
47F
100
AcDbEntity
  8
02___PRT_ALL_AXES
100
AcDbLine
 62
7
  6
CENTER
 10
261.154196543
 20
135.0455206484
 11
261.154196543
 21
139.0455456484
  0
LINE
  5
480
100
AcDbEntity
  8
02___PRT_ALL_AXES
100
AcDbLine
 62
7
  6
CENTER
 10
261.154196543
 20
149.9955206484
 11
261.154196543
 21
157.4955206484
  0
LINE
  5
481
100
AcDbEntity
  8
0
100
AcDbLine
 62
7
  6
CONTINUOUS
 10
232.9541965429
 20
132.7455206483
 11
233.1541965429
 21
132.9455206483
  0
LINE
  5
482
100
AcDbEntity
  8
0
100
AcDbLine
 62
7
  6
CONTINUOUS
 10
246.154196543
 20
142.3955206484
 11
246.754196543
 21
142.9955206484
  0
LINE
  5
483
100
AcDbEntity
  8
02___PRT_ALL_AXES
100
AcDbLine
 62
7
  6
CENTER
 10
261.154196543
 20
99.9955206484
 11
253.654196543
 21
99.9955206484
  0
LINE
  5
484
100
AcDbEntity
  8
02___PRT_ALL_AXES
100
AcDbLine
 62
7
  6
CENTER
 10
261.154196543
 20
99.9955206484
 11
268.654196543
 21
99.9955206484
  0
LINE
  5
485
100
AcDbEntity
  8
0
100
AcDbLine
 62
7
  6
CONTINUOUS
 10
275.554196543
 20
107.5955206484
 11
275.854196543
 21
107.2955206484
  0
LINE
  5
486
100
AcDbEntity
  8
0
100
AcDbLine
 62
7
  6
CONTINUOUS
 10
246.754196543
 20
142.3955206484
 11
246.454196543
 21
142.6955206484
  0
LINE
  5
487
100
AcDbEntity
  8
0
100
AcDbLine
 62
7
  6
CONTINUOUS
 10
246.754196543
 20
106.9955206484
 11
275.554196543
 21
106.9955206484
  0
LINE
  5
488
100
AcDbEntity
  8
0
100
AcDbLine
 62
7
  6
CONTINUOUS
 10
246.754196543
 20
107.5955206484
 11
275.554196543
 21
107.5955206484
  0
LINE
  5
489
100
AcDbEntity
  8
02___PRT_ALL_AXES
100
AcDbLine
 62
7
  6
CONTINUOUS
 10
218.154196543
 20
120.9955206484
 11
221.654196543
 21
120.3705206484
  0
LINE
  5
48A
100
AcDbEntity
  8
0
100
AcDbLine
 62
7
  6
CONTINUOUS
 10
275.554196543
 20
107.5955206484
 11
275.554196543
 21
142.3955206484
  0
LINE
  5
48B
100
AcDbEntity
  8
02___PRT_ALL_AXES
100
AcDbLine
 62
7
  6
CONTINUOUS
 10
275.8753287868
 20
163.6955206484
 11
275.8753287868
 21
154.2955206484
  0
LINE
  5
48C
100
AcDbEntity
  8
02___PRT_ALL_AXES
100
AcDbLine
 62
7
  6
CONTINUOUS
 10
276.154196543
 20
154.2955206484
 11
276.154196543
 21
142.3955206484
  0
LINE
  5
48D
100
AcDbEntity
  8
02___PRT_ALL_AXES
100
AcDbLine
 62
7
  6
CONTINUOUS
 10
276.154196543
 20
107.5955206484
 11
276.154196543
 21
92.9955206484
  0
LINE
  5
48E
100
AcDbEntity
  8
0
100
AcDbLine
 62
7
  6
CONTINUOUS
 10
276.154196543
 20
107.5955206484
 11
276.154196543
 21
142.3955206484
  0
LINE
  5
48F
100
AcDbEntity
  8
0
100
AcDbLine
 62
7
  6
CONTINUOUS
 10
279.154196543
 20
130.9955206484
 11
279.154196543
 21
118.9955206484
  0
LINE
  5
490
100
AcDbEntity
  8
0
100
AcDbLine
 62
7
  6
CONTINUOUS
 10
244.1541965431
 20
117.2455206485
 11
243.9541965431
 21
117.0455206485
  0
LINE
  5
491
100
AcDbEntity
  8
02___PRT_ALL_AXES
100
AcDbLine
 62
7
  6
CENTER
 10
261.154196543
 20
114.9455206484
 11
257.154171543
 21
114.9455206484
  0
LINE
  5
492
100
AcDbEntity
  8
02___PRT_ALL_AXES
100
AcDbLine
 62
7
  6
CENTER
 10
261.154196543
 20
114.9455206484
 11
265.154221543
 21
114.9455206484
  0
LINE
  5
493
100
AcDbEntity
  8
02___PRT_ALL_AXES
100
AcDbLine
 62
7
  6
CONTINUOUS
 10
282.8753287868
 20
163.6955206484
 11
282.8753287868
 21
154.2955206484
  0
LINE
  5
494
100
AcDbEntity
  8
0
100
AcDbLine
 62
7
  6
CONTINUOUS
 10
275.554196543
 20
142.3955206484
 11
275.854196543
 21
142.6955206484
  0
LINE
  5
495
100
AcDbEntity
  8
0
100
AcDbLine
 62
7
  6
CONTINUOUS
 10
233.154196543
 20
117.0455206484
 11
243.954196543
 21
117.0455206484
  0
LINE
  5
496
100
AcDbEntity
  8
02___PRT_ALL_AXES
100
AcDbLine
 62
7
  6
CONTINUOUS
 10
233.154196543
 20
117.0455206484
 11
243.954196543
 21
117.0455206484
  0
LINE
  5
497
100
AcDbEntity
  8
0
100
AcDbLine
 62
7
  6
CONTINUOUS
 10
226.054196543
 20
117.9955206484
 11
232.954196543
 21
117.9955206484
  0
LINE
  5
498
100
AcDbEntity
  8
02___PRT_ALL_AXES
100
AcDbLine
 62
7
  6
CONTINUOUS
 10
226.054196543
 20
117.9955206484
 11
232.954196543
 21
117.9955206484
  0
LINE
  5
499
100
AcDbEntity
  8
0
100
AcDbLine
 62
7
  6
CONTINUOUS
 10
244.154196543
 20
118.9955206484
 11
246.154196543
 21
118.9955206484
  0
LINE
  5
49A
100
AcDbEntity
  8
0
100
AcDbLine
 62
7
  6
CONTINUOUS
 10
276.154196543
 20
118.9955206484
 11
279.154196543
 21
118.9955206484
  0
LINE
  5
49B
100
AcDbEntity
  8
02___PRT_ALL_AXES
100
AcDbLine
 62
7
  6
CONTINUOUS
 10
221.654196543
 20
120.7455206484
 11
225.854196543
 21
120.7455206484
  0
LINE
  5
49C
100
AcDbEntity
  8
0
100
AcDbLine
 62
7
  6
CONTINUOUS
 10
275.554196543
 20
142.9955206484
 11
276.154196543
 21
142.3955206484
  0
LINE
  5
49D
100
AcDbEntity
  8
0
100
AcDbLine
 62
7
  6
CONTINUOUS
 10
246.454196543
 20
107.2955206484
 11
246.754196543
 21
107.5955206484
  0
LINE
  5
49E
100
AcDbEntity
  8
02___PRT_ALL_AXES
100
AcDbLine
 62
7
  6
CENTER
 10
284.154196543
 20
124.9955206484
 11
214.8564375575
 21
124.9955206484
  0
LINE
  5
49F
100
AcDbEntity
  8
02___PRT_ALL_AXES
100
AcDbLine
 62
7
  6
CONTINUOUS
 10
366.0364475369
 20
126.9955206484
 11
336.0364475369
 21
126.9955206484
  0
LINE
  5
4A0
100
AcDbEntity
  8
02___PRT_ALL_AXES
100
AcDbLine
 62
7
  6
CONTINUOUS
 10
221.654196543
 20
129.2455206484
 11
225.854196543
 21
129.2455206484
  0
LINE
  5
4A1
100
AcDbEntity
  8
0
100
AcDbLine
 62
7
  6
CONTINUOUS
 10
291.8821186044
 20
136.2675985871
 11
300.3673999786
 21
127.7823172128
  0
LINE
  5
4A2
100
AcDbEntity
  8
0
100
AcDbLine
 62
7
  6
CONTINUOUS
 10
291.8821186044
 20
136.2675985871
 11
309.8394504925
 21
154.2249304752
  0
LINE
  5
4A3
100
AcDbEntity
  8
0
100
AcDbLine
 62
7
  6
CONTINUOUS
 10
309.8394504925
 20
154.2249304752
 11
325.5620315028
 21
164.0494894814
  0
LINE
  5
4A4
100
AcDbEntity
  8
0
100
AcDbLine
 62
7
  6
CONTINUOUS
 10
244.154196543
 20
130.9955206484
 11
246.154196543
 21
130.9955206484
  0
LINE
  5
4A5
100
AcDbEntity
  8
0
100
AcDbLine
 62
7
  6
CONTINUOUS
 10
276.154196543
 20
130.9955206484
 11
279.154196543
 21
130.9955206484
  0
LINE
  5
4A6
100
AcDbEntity
  8
0
100
AcDbLine
 62
7
  6
CONTINUOUS
 10
226.054196543
 20
131.9955206484
 11
232.954196543
 21
131.9955206484
  0
LINE
  5
4A7
100
AcDbEntity
  8
02___PRT_ALL_AXES
100
AcDbLine
 62
7
  6
CONTINUOUS
 10
226.054196543
 20
131.9955206484
 11
232.954196543
 21
131.9955206484
  0
LINE
  5
4A8
100
AcDbEntity
  8
0
100
AcDbLine
 62
7
  6
CONTINUOUS
 10
233.154196543
 20
132.9455206484
 11
243.954196543
 21
132.9455206484
  0
LINE
  5
4A9
100
AcDbEntity
  8
02___PRT_ALL_AXES
100
AcDbLine
 62
7
  6
CONTINUOUS
 10
233.154196543
 20
132.9455206484
 11
243.954196543
 21
132.9455206484
  0
LINE
  5
4AA
100
AcDbEntity
  8
02___PRT_ALL_AXES
100
AcDbLine
 62
7
  6
CENTER
 10
351.0364475369
 20
133.9955206484
 11
343.5364475369
 21
133.9955206484
  0
LINE
  5
4AB
100
AcDbEntity
  8
02___PRT_ALL_AXES
100
AcDbLine
 62
7
  6
CENTER
 10
351.0364475369
 20
133.9955206484
 11
358.5364475369
 21
133.9955206484
  0
LINE
  5
4AC
100
AcDbEntity
  8
02___PRT_ALL_AXES
100
AcDbLine
 62
7
  6
CENTER
 10
261.154196543
 20
135.0455206484
 11
257.154171543
 21
135.0455206484
  0
LINE
  5
4AD
100
AcDbEntity
  8
02___PRT_ALL_AXES
100
AcDbLine
 62
7
  6
CENTER
 10
261.154196543
 20
135.0455206484
 11
265.154221543
 21
135.0455206484
  0
LINE
  5
4AE
100
AcDbEntity
  8
0
100
AcDbLine
 62
7
  6
CONTINUOUS
 10
336.0364475369
 20
176.3955206484
 11
336.6364475369
 21
176.9955206484
  0
LINE
  5
4AF
100
AcDbEntity
  8
02___PRT_ALL_AXES
100
AcDbLine
 62
7
  6
CONTINUOUS
 10
394.0364475369
 20
154.9955206484
 11
390.5364475369
 21
154.3705206484
  0
LINE
  5
4B0
100
AcDbEntity
  8
0
100
AcDbLine
 62
7
  6
CONTINUOUS
 10
336.6364475369
 20
140.9955206484
 11
365.4364475369
 21
140.9955206484
  0
LINE
  5
4B1
100
AcDbEntity
  8
0
100
AcDbLine
 62
7
  6
CONTINUOUS
 10
336.6364475369
 20
141.5955206484
 11
365.4364475369
 21
141.5955206484
  0
LINE
  5
4B2
100
AcDbEntity
  8
0
100
AcDbLine
 62
7
  6
CONTINUOUS
 10
275.554196543
 20
142.3955206484
 11
246.754196543
 21
142.3955206484
  0
LINE
  5
4B3
100
AcDbEntity
  8
0
100
AcDbLine
 62
7
  6
CONTINUOUS
 10
276.154196543
 20
107.5955206484
 11
275.554196543
 21
106.9955206484
  0
LINE
  5
4B4
100
AcDbEntity
  8
0
100
AcDbLine
 62
7
  6
CONTINUOUS
 10
300.3673999786
 20
127.7823172128
 11
320.3085254756
 21
147.7234427098
  0
LINE
  5
4B5
100
AcDbEntity
  8
02___PRT_ALL_AXES
100
AcDbLine
 62
7
  6
CONTINUOUS
 10
218.154196543
 20
128.9955206484
 11
221.654196543
 21
129.6205206484
  0
LINE
  5
4B6
100
AcDbEntity
  8
0
100
AcDbLine
 62
7
  6
CONTINUOUS
 10
275.554196543
 20
142.9955206484
 11
246.754196543
 21
142.9955206484
  0
LINE
  5
4B7
100
AcDbEntity
  8
02___PRT_ALL_AXES
100
AcDbLine
 62
7
  6
CENTER
 10
351.0364475369
 20
148.9455206484
 11
347.0364225369
 21
148.9455206484
  0
LINE
  5
4B8
100
AcDbEntity
  8
02___PRT_ALL_AXES
100
AcDbLine
 62
7
  6
CENTER
 10
351.0364475369
 20
148.9455206484
 11
355.0364725369
 21
148.9455206484
  0
LINE
  5
4B9
100
AcDbEntity
  8
02___PRT_ALL_AXES
100
AcDbLine
 62
7
  6
CENTER
 10
261.154196543
 20
149.9955206484
 11
253.654196543
 21
149.9955206484
  0
LINE
  5
4BA
100
AcDbEntity
  8
02___PRT_ALL_AXES
100
AcDbLine
 62
7
  6
CENTER
 10
261.154196543
 20
149.9955206484
 11
268.654196543
 21
149.9955206484
  0
LINE
  5
4BB
100
AcDbEntity
  8
0
100
AcDbLine
 62
7
  6
CONTINUOUS
 10
379.0364475369
 20
151.0455206484
 11
368.2364475369
 21
151.0455206484
  0
LINE
  5
4BC
100
AcDbEntity
  8
02___PRT_ALL_AXES
100
AcDbLine
 62
7
  6
CONTINUOUS
 10
379.0364475369
 20
151.0455206484
 11
368.2364475369
 21
151.0455206484
  0
LINE
  5
4BD
100
AcDbEntity
  8
0
100
AcDbLine
 62
7
  6
CONTINUOUS
 10
386.1364475369
 20
151.9955206484
 11
379.2364475369
 21
151.9955206484
  0
LINE
  5
4BE
100
AcDbEntity
  8
02___PRT_ALL_AXES
100
AcDbLine
 62
7
  6
CONTINUOUS
 10
386.1364475369
 20
151.9955206484
 11
379.2364475369
 21
151.9955206484
  0
LINE
  5
4BF
100
AcDbEntity
  8
0
100
AcDbLine
 62
7
  6
CONTINUOUS
 10
333.0364475369
 20
152.9955206484
 11
336.0364475369
 21
152.9955206484
  0
LINE
  5
4C0
100
AcDbEntity
  8
0
100
AcDbLine
 62
7
  6
CONTINUOUS
 10
366.0364475369
 20
152.9955206484
 11
368.0364475369
 21
152.9955206484
  0
LINE
  5
4C1
100
AcDbEntity
  8
02___PRT_ALL_AXES
100
AcDbLine
 62
7
  6
CONTINUOUS
 10
282.8753287868
 20
154.2955206484
 11
275.8753287868
 21
154.2955206484
  0
LINE
  5
4C2
100
AcDbEntity
  8
02___PRT_ALL_AXES
100
AcDbLine
 62
7
  6
CONTINUOUS
 10
390.5364475369
 20
154.7455206484
 11
386.3364475369
 21
154.7455206484
  0
LINE
  5
4C3
100
AcDbEntity
  8
02___PRT_ALL_AXES
100
AcDbLine
 62
7
  6
CONTINUOUS
 10
311.0726525545
 20
154.9955206484
 11
282.8753287868
 21
154.9955206484
  0
LINE
  5
4C4
100
AcDbEntity
  8
0
100
AcDbLine
 62
7
  6
CONTINUOUS
 10
311.0726525545
 20
154.9955206484
 11
282.8753287868
 21
154.9955206484
  0
LINE
  5
4C5
100
AcDbEntity
  8
0
100
AcDbLine
 62
7
  6
CONTINUOUS
 10
312.2812389434
 20
155.750729242
 11
320.3085254756
 21
147.7234427098
  0
LINE
  5
4C6
100
AcDbEntity
  8
0
100
AcDbLine
 62
7
  6
CONTINUOUS
 10
365.4364475369
 20
176.3955206484
 11
365.7364475369
 21
176.6955206484
  0
LINE
  5
4C7
100
AcDbEntity
  8
02___PRT_ALL_AXES
100
AcDbLine
 62
7
  6
CONTINUOUS
 10
246.154196543
 20
156.9955206484
 11
275.8753287868
 21
156.9955206484
  0
LINE
  5
4C8
100
AcDbEntity
  8
02___PRT_ALL_AXES
100
AcDbLine
 62
7
  6
CENTER
 10
396.2548988519
 20
158.9955206484
 11
272.1337059585
 21
158.9955206484
  0
LINE
  5
4C9
100
AcDbEntity
  8
02___PRT_ALL_AXES
100
AcDbLine
 62
7
  6
CONTINUOUS
 10
323.8753287868
 20
162.9955206484
 11
282.8753287868
 21
162.9955206484
  0
LINE
  5
4CA
100
AcDbEntity
  8
0
100
AcDbLine
 62
7
  6
CONTINUOUS
 10
323.8753287868
 20
162.9955206484
 11
282.8753287868
 21
162.9955206484
  0
LINE
  5
4CB
100
AcDbEntity
  8
0
100
AcDbLine
 62
7
  6
CONTINUOUS
 10
336.0364475369
 20
141.5955206484
 11
336.6364475369
 21
140.9955206484
  0
LINE
  5
4CC
100
AcDbEntity
  8
0
100
AcDbLine
 62
7
  6
CONTINUOUS
 10
333.0364475369
 20
164.9955206484
 11
333.0364475369
 21
152.9955206484
  0
LINE
  5
4CD
100
AcDbEntity
  8
0
100
AcDbLine
 62
7
  6
CONTINUOUS
 10
336.3364475369
 20
141.2955206484
 11
336.6364475369
 21
141.5955206484
  0
LINE
  5
4CE
100
AcDbEntity
  8
0
100
AcDbLine
 62
7
  6
CONTINUOUS
 10
368.0364475368
 20
166.7455206483
 11
368.2364475368
 21
166.9455206483
  0
LINE
  5
4CF
100
AcDbEntity
  8
02___PRT_ALL_AXES
100
AcDbLine
 62
7
  6
CONTINUOUS
 10
390.5364475369
 20
163.2455206484
 11
386.3364475369
 21
163.2455206484
  0
LINE
  5
4D0
100
AcDbEntity
  8
02___PRT_ALL_AXES
100
AcDbLine
 62
7
  6
CONTINUOUS
 10
282.8753287868
 20
163.6955206484
 11
275.8753287868
 21
163.6955206484
  0
LINE
  5
4D1
100
AcDbEntity
  8
0
100
AcDbLine
 62
7
  6
CONTINUOUS
 10
333.0364475369
 20
164.9955206484
 11
336.0364475369
 21
164.9955206484
  0
LINE
  5
4D2
100
AcDbEntity
  8
0
100
AcDbLine
 62
7
  6
CONTINUOUS
 10
366.0364475369
 20
164.9955206484
 11
368.0364475369
 21
164.9955206484
  0
LINE
  5
4D3
100
AcDbEntity
  8
0
100
AcDbLine
 62
7
  6
CONTINUOUS
 10
386.1364475369
 20
165.9955206484
 11
379.2364475369
 21
165.9955206484
  0
LINE
  5
4D4
100
AcDbEntity
  8
02___PRT_ALL_AXES
100
AcDbLine
 62
7
  6
CONTINUOUS
 10
386.1364475369
 20
165.9955206484
 11
379.2364475369
 21
165.9955206484
  0
LINE
  5
4D5
100
AcDbEntity
  8
0
100
AcDbLine
 62
7
  6
CONTINUOUS
 10
379.0364475369
 20
166.9455206484
 11
368.2364475369
 21
166.9455206484
  0
LINE
  5
4D6
100
AcDbEntity
  8
02___PRT_ALL_AXES
100
AcDbLine
 62
7
  6
CONTINUOUS
 10
379.0364475369
 20
166.9455206484
 11
368.2364475369
 21
166.9455206484
  0
LINE
  5
4D7
100
AcDbEntity
  8
02___PRT_ALL_AXES
100
AcDbLine
 62
7
  6
CENTER
 10
351.0364475369
 20
169.0455206484
 11
347.0364225369
 21
169.0455206484
  0
LINE
  5
4D8
100
AcDbEntity
  8
02___PRT_ALL_AXES
100
AcDbLine
 62
7
  6
CENTER
 10
351.0364475369
 20
169.0455206484
 11
355.0364725369
 21
169.0455206484
  0
LINE
  5
4D9
100
AcDbEntity
  8
0
100
AcDbLine
 62
7
  6
CONTINUOUS
 10
336.0364475369
 20
176.3955206484
 11
336.0364475369
 21
141.5955206484
  0
LINE
  5
4DA
100
AcDbEntity
  8
02___PRT_ALL_AXES
100
AcDbLine
 62
7
  6
CONTINUOUS
 10
336.0364475369
 20
126.9955206484
 11
336.0364475369
 21
141.5955206484
  0
LINE
  5
4DB
100
AcDbEntity
  8
02___PRT_ALL_AXES
100
AcDbLine
 62
7
  6
CONTINUOUS
 10
336.0364475369
 20
176.3955206484
 11
336.0364475369
 21
190.9955206484
  0
LINE
  5
4DC
100
AcDbEntity
  8
0
100
AcDbLine
 62
7
  6
CONTINUOUS
 10
336.6364475369
 20
176.3955206484
 11
336.6364475369
 21
141.5955206484
  0
LINE
  5
4DD
100
AcDbEntity
  8
0
100
AcDbLine
 62
7
  6
CONTINUOUS
 10
365.4364475369
 20
176.3955206484
 11
336.6364475369
 21
176.3955206484
  0
LINE
  5
4DE
100
AcDbEntity
  8
0
100
AcDbLine
 62
7
  6
CONTINUOUS
 10
365.4364475369
 20
176.9955206484
 11
336.6364475369
 21
176.9955206484
  0
LINE
  5
4DF
100
AcDbEntity
  8
02___PRT_ALL_AXES
100
AcDbLine
 62
7
  6
CONTINUOUS
 10
394.0364475369
 20
162.9955206484
 11
390.5364475369
 21
163.6205206484
  0
LINE
  5
4E0
100
AcDbEntity
  8
02___PRT_ALL_AXES
100
AcDbLine
 62
7
  6
CENTER
 10
351.0364475369
 20
183.9955206484
 11
351.0364475369
 21
176.4955206484
  0
LINE
  5
4E1
100
AcDbEntity
  8
02___PRT_ALL_AXES
100
AcDbLine
 62
7
  6
CENTER
 10
351.0364475369
 20
169.0455206484
 11
351.0364475369
 21
165.0454956484
  0
LINE
  5
4E2
100
AcDbEntity
  8
02___PRT_ALL_AXES
100
AcDbLine
 62
7
  6
CENTER
 10
351.0364475369
 20
148.9455206484
 11
351.0364475369
 21
144.9454956484
  0
LINE
  5
4E3
100
AcDbEntity
  8
02___PRT_ALL_AXES
100
AcDbLine
 62
7
  6
CENTER
 10
351.0364475369
 20
133.9955206484
 11
351.0364475369
 21
126.4955206484
  0
LINE
  5
4E4
100
AcDbEntity
  8
02___PRT_ALL_AXES
100
AcDbLine
 62
7
  6
CENTER
 10
351.0364475369
 20
133.9955206484
 11
351.0364475369
 21
141.4955206484
  0
LINE
  5
4E5
100
AcDbEntity
  8
02___PRT_ALL_AXES
100
AcDbLine
 62
7
  6
CENTER
 10
351.0364475369
 20
148.9455206484
 11
351.0364475369
 21
152.9455456484
  0
LINE
  5
4E6
100
AcDbEntity
  8
02___PRT_ALL_AXES
100
AcDbLine
 62
7
  6
CENTER
 10
351.0364475369
 20
169.0455206484
 11
351.0364475369
 21
173.0455456484
  0
LINE
  5
4E7
100
AcDbEntity
  8
02___PRT_ALL_AXES
100
AcDbLine
 62
7
  6
CENTER
 10
351.0364475369
 20
183.9955206484
 11
351.0364475369
 21
191.4955206484
  0
LINE
  5
4E8
100
AcDbEntity
  8
0
100
AcDbLine
 62
7
  6
CONTINUOUS
 10
366.0364475369
 20
141.5955206484
 11
365.4364475369
 21
140.9955206484
  0
LINE
  5
4E9
100
AcDbEntity
  8
0
100
AcDbLine
 62
7
  6
CONTINUOUS
 10
379.236447537
 20
151.2455206485
 11
379.036447537
 21
151.0455206485
  0
LINE
  5
4EA
100
AcDbEntity
  8
02___PRT_ALL_AXES
100
AcDbLine
 62
7
  6
CENTER
 10
351.0364475369
 20
183.9955206484
 11
343.5364475369
 21
183.9955206484
  0
LINE
  5
4EB
100
AcDbEntity
  8
02___PRT_ALL_AXES
100
AcDbLine
 62
7
  6
CENTER
 10
351.0364475369
 20
183.9955206484
 11
358.5364475369
 21
183.9955206484
  0
LINE
  5
4EC
100
AcDbEntity
  8
0
100
AcDbLine
 62
7
  6
CONTINUOUS
 10
365.4364475369
 20
141.5955206484
 11
365.7364475369
 21
141.2955206484
  0
LINE
  5
4ED
100
AcDbEntity
  8
0
100
AcDbLine
 62
7
  6
CONTINUOUS
 10
336.6364475369
 20
176.3955206484
 11
336.3364475369
 21
176.6955206484
  0
LINE
  5
4EE
100
AcDbEntity
  8
0
100
AcDbLine
 62
7
  6
CONTINUOUS
 10
386.336447537
 20
152.1955206485
 11
386.136447537
 21
151.9955206485
  0
LINE
  5
4EF
100
AcDbEntity
  8
02___PRT_ALL_AXES
100
AcDbLine
 62
7
  6
CONTINUOUS
 10
336.0364475369
 20
190.9955206484
 11
366.0364475369
 21
190.9955206484
  0
LINE
  5
4F0
100
AcDbEntity
  8
0
100
AcDbLine
 62
7
  6
CONTINUOUS
 10
368.0364475368
 20
151.2455206486
 11
368.2364475368
 21
151.0455206486
  0
LINE
  5
4F1
100
AcDbEntity
  8
0
100
AcDbLine
 62
7
  6
CONTINUOUS
 10
365.4364475369
 20
141.5955206484
 11
365.4364475369
 21
176.3955206484
  0
LINE
  5
4F2
100
AcDbEntity
  8
02___PRT_ALL_AXES
100
AcDbLine
 62
7
  6
CONTINUOUS
 10
366.0364475369
 20
190.9955206484
 11
366.0364475369
 21
176.3955206484
  0
LINE
  5
4F3
100
AcDbEntity
  8
02___PRT_ALL_AXES
100
AcDbLine
 62
7
  6
CONTINUOUS
 10
366.0364475369
 20
141.5955206484
 11
366.0364475369
 21
126.9955206484
  0
LINE
  5
4F4
100
AcDbEntity
  8
0
100
AcDbLine
 62
7
  6
CONTINUOUS
 10
366.0364475369
 20
141.5955206484
 11
366.0364475369
 21
176.3955206484
  0
LINE
  5
4F5
100
AcDbEntity
  8
0
100
AcDbLine
 62
7
  6
CONTINUOUS
 10
368.0364475369
 20
151.2455206484
 11
368.0364475369
 21
166.7455206484
  0
LINE
  5
4F6
100
AcDbEntity
  8
0
100
AcDbLine
 62
7
  6
CONTINUOUS
 10
368.2364475369
 20
151.0455206484
 11
368.2364475369
 21
166.9455206484
  0
LINE
  5
4F7
100
AcDbEntity
  8
0
100
AcDbLine
 62
7
  6
CONTINUOUS
 10
365.4364475369
 20
176.9955206484
 11
366.0364475369
 21
176.3955206484
  0
LINE
  5
4F8
100
AcDbEntity
  8
0
100
AcDbLine
 62
7
  6
CONTINUOUS
 10
379.0364475369
 20
151.0455206484
 11
379.0364475369
 21
166.9455206484
  0
LINE
  5
4F9
100
AcDbEntity
  8
0
100
AcDbLine
 62
7
  6
CONTINUOUS
 10
379.2364475369
 20
151.2455206484
 11
379.2364475369
 21
166.7455206484
  0
LINE
  5
4FA
100
AcDbEntity
  8
0
100
AcDbLine
 62
7
  6
CONTINUOUS
 10
379.236447537
 20
166.7455206483
 11
379.036447537
 21
166.9455206483
  0
LINE
  5
4FB
100
AcDbEntity
  8
0
100
AcDbLine
 62
7
  6
CONTINUOUS
 10
386.336447537
 20
165.7955206483
 11
386.1364475371
 21
165.9955206483
  0
LINE
  5
4FC
100
AcDbEntity
  8
0
100
AcDbLine
 62
7
  6
CONTINUOUS
 10
386.1364475369
 20
151.9955206484
 11
386.1364475369
 21
165.9955206484
  0
LINE
  5
4FD
100
AcDbEntity
  8
0
100
AcDbLine
 62
7
  6
CONTINUOUS
 10
386.3364475369
 20
152.1955206484
 11
386.3364475369
 21
165.7955206484
  0
LINE
  5
4FE
100
AcDbEntity
  8
02___PRT_ALL_AXES
100
AcDbLine
 62
7
  6
CONTINUOUS
 10
390.5364475369
 20
163.6205206484
 11
390.5364475369
 21
154.3705206484
  0
LINE
  5
4FF
100
AcDbEntity
  8
02___PRT_ALL_AXES
100
AcDbLine
 62
7
  6
CONTINUOUS
 10
394.0364475369
 20
162.9955206484
 11
394.0364475369
 21
154.9955206484
  0
LINE
  5
500
100
AcDbEntity
  8
02___PRT_ALL_AXES
100
AcDbLine
 62
7
  6
CONTINUOUS
 10
193.8443395693
 20
15.5126597318
 11
192.6498558537
 21
15.8998862234
  0
LINE
  5
501
100
AcDbEntity
  8
0
100
AcDbLine
 62
7
  6
CONTINUOUS
 10
203.8342439546
 20
18.571312458
 11
199.3748380831
 21
20.0169580268
  0
LINE
  5
502
100
AcDbEntity
  8
0
100
AcDbLine
 62
7
  6
CONTINUOUS
 10
194.8020389409
 20
21.4993633084
 11
198.4988833583
 21
20.3009241206
  0
LINE
  5
503
100
AcDbEntity
  8
0
100
AcDbLine
 62
7
  6
CONTINUOUS
 10
203.6433972478
 20
18.7205892565
 11
199.1839913763
 21
20.1662348253
  0
LINE
  5
504
100
AcDbEntity
  8
0
100
AcDbLine
 62
7
  6
CONTINUOUS
 10
194.8925613822
 20
21.5574261484
 11
198.3080366516
 21
20.4502009191
  0
LINE
  5
505
100
AcDbEntity
  8
0
100
AcDbLine
 62
7
  6
CONTINUOUS
 10
198.3080366516
 20
20.4502009191
 11
198.5229083765
 21
20.3368398707
  0
LINE
  5
506
100
AcDbEntity
  8
0
100
AcDbLine
 62
7
  6
CONTINUOUS
 10
199.1599663582
 20
20.1303190752
 11
199.3748380831
 21
20.0169580268
  0
LINE
  5
507
100
AcDbEntity
  8
0
100
AcDbLine
 62
7
  6
CONTINUOUS
 10
203.6433972478
 20
18.7205892565
 11
203.8582689727
 21
18.6072282081
  0
LINE
  5
508
100
AcDbEntity
  8
02___PRT_ALL_AXES
100
AcDbLine
 62
7
  6
CONTINUOUS
 10
192.6498558537
 20
15.8998862234
 11
192.4633776231
 21
21.0351753284
  0
LINE
  5
509
100
AcDbEntity
  8
02___PRT_ALL_AXES
100
AcDbLine
 62
7
  6
CONTINUOUS
 10
192.1861971922
 20
28.6682467212
 11
191.6214480409
 21
44.220465092
  0
LINE
  5
50A
100
AcDbEntity
  8
02___PRT_ALL_AXES
100
AcDbLine
 62
7
  6
CONTINUOUS
 10
193.8443395693
 20
15.5126597318
 11
193.6476810366
 21
20.928296812
  0
LINE
  5
50B
100
AcDbEntity
  8
02___PRT_ALL_AXES
100
AcDbLine
 62
7
  6
CONTINUOUS
 10
193.3385515802
 20
29.4411893078
 11
192.8159317565
 21
43.8332386003
  0
LINE
  5
50C
100
AcDbEntity
  8
0
100
AcDbLine
 62
7
  6
CONTINUOUS
 10
193.5197569637
 20
29.5574179362
 11
193.2317426723
 21
37.4888351743
  0
LINE
  5
50D
100
AcDbEntity
  8
0
100
AcDbLine
 62
7
  6
CONTINUOUS
 10
193.5692623486
 20
29.589171645
 11
193.2894340319
 21
37.2951612476
  0
LINE
  5
50E
100
AcDbEntity
  8
0
100
AcDbLine
 62
7
  6
CONTINUOUS
 10
193.2894340319
 20
37.2951612476
 11
193.2557676905
 21
37.5247509244
  0
LINE
  5
50F
100
AcDbEntity
  8
02___PRT_ALL_AXES
100
AcDbLine
 62
7
  6
CONTINUOUS
 10
218.2203526615
 20
76.6772571989
 11
227.2806218374
 21
82.4886886185
  0
LINE
  5
510
100
AcDbEntity
  8
02___PRT_ALL_AXES
100
AcDbLine
 62
7
  6
CONTINUOUS
 10
219.4148363771
 20
76.2900307073
 11
228.4751055529
 21
82.1014621268
  0
LINE
  5
511
100
AcDbEntity
  8
0
100
AcDbLine
 62
7
  6
CONTINUOUS
 10
198.16894203
 20
35.888299009
 11
197.9540703051
 21
36.0016600574
  0
LINE
  5
512
100
AcDbEntity
  8
0
100
AcDbLine
 62
7
  6
CONTINUOUS
 10
199.1263000167
 20
20.359908752
 11
199.1599663582
 21
20.1303190752
  0
LINE
  5
513
100
AcDbEntity
  8
0
100
AcDbLine
 62
7
  6
CONTINUOUS
 10
197.9540703051
 20
36.0016600574
 11
197.9204039636
 21
36.2312497342
  0
LINE
  5
514
100
AcDbEntity
  8
0
100
AcDbLine
 62
7
  6
CONTINUOUS
 10
197.7488399034
 20
35.8495156789
 11
197.9238670753
 21
31.0295689943
  0
LINE
  5
515
100
AcDbEntity
  8
0
100
AcDbLine
 62
7
  6
CONTINUOUS
 10
198.2110284361
 20
23.1216399945
 11
198.3080366516
 21
20.4502009191
  0
LINE
  5
516
100
AcDbEntity
  8
0
100
AcDbLine
 62
7
  6
CONTINUOUS
 10
198.16894203
 20
35.888299009
 11
198.352462523
 21
30.8344608986
  0
LINE
  5
517
100
AcDbEntity
  8
0
100
AcDbLine
 62
7
  6
CONTINUOUS
 10
198.6229445881
 20
23.3858509602
 11
198.7281387782
 21
20.4889842492
  0
LINE
  5
518
100
AcDbEntity
  8
0
100
AcDbLine
 62
7
  6
CONTINUOUS
 10
199.1263000167
 20
20.359908752
 11
199.0074625355
 21
23.6324881889
  0
LINE
  5
519
100
AcDbEntity
  8
0
100
AcDbLine
 62
7
  6
CONTINUOUS
 10
198.7506237616
 20
30.7053854014
 11
198.5671032685
 21
35.7592235118
  0
LINE
  5
51A
100
AcDbEntity
  8
0
100
AcDbLine
 62
7
  6
CONTINUOUS
 10
199.1839913763
 20
20.1662348253
 11
199.0569679204
 21
23.6642418977
  0
LINE
  5
51B
100
AcDbEntity
  8
0
100
AcDbLine
 62
7
  6
CONTINUOUS
 10
198.7998218001
 20
30.7456029004
 11
198.6247946281
 21
35.565549585
  0
LINE
  5
51C
100
AcDbEntity
  8
0
100
AcDbLine
 62
7
  6
CONTINUOUS
 10
203.0842004996
 20
34.1199040163
 11
198.6247946281
 21
35.565549585
  0
LINE
  5
51D
100
AcDbEntity
  8
0
100
AcDbLine
 62
7
  6
CONTINUOUS
 10
193.2894340319
 20
37.2951612476
 11
197.7488399034
 21
35.8495156789
  0
LINE
  5
51E
100
AcDbEntity
  8
0
100
AcDbLine
 62
7
  6
CONTINUOUS
 10
203.2557645599
 20
34.5016380716
 11
198.7963586884
 21
35.9472836403
  0
LINE
  5
51F
100
AcDbEntity
  8
0
100
AcDbLine
 62
7
  6
CONTINUOUS
 10
193.4609980922
 20
37.6768953029
 11
197.9204039636
 21
36.2312497342
  0
LINE
  5
520
100
AcDbEntity
  8
0
100
AcDbLine
 62
7
  6
CONTINUOUS
 10
203.5043026262
 20
34.1586873464
 11
203.2894309013
 21
34.2720483948
  0
LINE
  5
521
100
AcDbEntity
  8
0
100
AcDbLine
 62
7
  6
CONTINUOUS
 10
198.6247946281
 20
35.565549585
 11
198.5911282867
 21
35.7951392618
  0
LINE
  5
522
100
AcDbEntity
  8
02___PRT_ALL_AXES
100
AcDbLine
 62
7
  6
CONTINUOUS
 10
201.8762009323
 20
49.6446700199
 11
202.1093511161
 21
43.2241157569
  0
LINE
  5
523
100
AcDbEntity
  8
0
100
AcDbLine
 62
7
  6
CONTINUOUS
 10
220.0599027128
 20
70.1336874098
 11
219.8546723111
 21
69.9815430313
  0
LINE
  5
524
100
AcDbEntity
  8
0
100
AcDbLine
 62
7
  6
CONTINUOUS
 10
220.0599027128
 20
70.1336874098
 11
228.7577611216
 21
75.7126615726
  0
LINE
  5
525
100
AcDbEntity
  8
02___PRT_ALL_AXES
100
AcDbLine
 62
7
  6
CONTINUOUS
 10
241.721584043
 20
73.4884214529
 11
240.5301375416
 21
73.0898461232
  0
LINE
  5
526
100
AcDbEntity
  8
0
100
AcDbLine
 62
7
  6
CONTINUOUS
 10
203.2894309013
 20
34.2720483948
 11
203.2557645599
 21
34.5016380716
  0
LINE
  5
527
100
AcDbEntity
  8
0
100
AcDbLine
 62
7
  6
CONTINUOUS
 10
203.0842004996
 20
34.1199040163
 11
203.6433972478
 21
18.7205892565
  0
LINE
  5
528
100
AcDbEntity
  8
0
100
AcDbLine
 62
7
  6
CONTINUOUS
 10
203.5043026262
 20
34.1586873464
 11
204.0634993744
 21
18.7593725866
  0
LINE
  5
529
100
AcDbEntity
  8
0
100
AcDbLine
 62
7
  6
CONTINUOUS
 10
193.2557676905
 20
37.5247509244
 11
193.2317426723
 21
37.4888351743
  0
LINE
  5
52A
100
AcDbEntity
  8
0
100
AcDbLine
 62
7
  6
CONTINUOUS
 10
233.217166993
 20
74.2670160039
 11
224.5193085842
 21
68.6880418411
  0
LINE
  5
52B
100
AcDbEntity
  8
0
100
AcDbLine
 62
7
  6
CONTINUOUS
 10
233.4657050594
 20
73.9240652787
 11
224.7678466506
 21
68.3450911159
  0
LINE
  5
52C
100
AcDbEntity
  8
0
100
AcDbLine
 62
7
  6
CONTINUOUS
 10
225.395263309
 20
68.4040757472
 11
234.0931217178
 21
73.98304991
  0
LINE
  5
52D
100
AcDbEntity
  8
02___PRT_ALL_AXES
100
AcDbLine
 62
7
  6
CONTINUOUS
 10
192.8159317565
 20
43.8332386003
 11
191.6214480409
 21
44.220465092
  0
LINE
  5
52E
100
AcDbEntity
  8
0
100
AcDbLine
 62
7
  6
CONTINUOUS
 10
206.8789883814
 20
41.1316382372
 11
206.8668004388
 21
41.4672731718
  0
LINE
  5
52F
100
AcDbEntity
  8
0
100
AcDbLine
 62
7
  6
CONTINUOUS
 10
219.8546723111
 20
69.9815430313
 11
219.8306472929
 21
69.9456272813
  0
LINE
  5
530
100
AcDbEntity
  8
0
100
AcDbLine
 62
7
  6
CONTINUOUS
 10
224.347744524
 20
68.3063077858
 11
224.5529749257
 21
68.4584521643
  0
LINE
  5
531
100
AcDbEntity
  8
0
100
AcDbLine
 62
7
  6
CONTINUOUS
 10
225.395263309
 20
68.4040757472
 11
225.1900329073
 21
68.2519313687
  0
LINE
  5
532
100
AcDbEntity
  8
02___PRT_ALL_AXES
100
AcDbLine
 62
7
  6
CONTINUOUS
 10
191.6214480409
 20
44.220465092
 11
200.6817172168
 21
50.0318965116
  0
LINE
  5
533
100
AcDbEntity
  8
02___PRT_ALL_AXES
100
AcDbLine
 62
7
  6
CONTINUOUS
 10
238.3063165003
 20
73.1158078067
 11
237.7899661352
 21
72.7846107223
  0
LINE
  5
534
100
AcDbEntity
  8
02___PRT_ALL_AXES
100
AcDbLine
 62
7
  6
CONTINUOUS
 10
192.8159317565
 20
43.8332386003
 11
201.8762009323
 21
49.6446700199
  0
LINE
  5
535
100
AcDbEntity
  8
0
100
AcDbLine
 62
7
  6
CONTINUOUS
 10
211.9536229687
 20
40.0806122344
 11
207.4942170972
 21
41.5262578031
  0
LINE
  5
536
100
AcDbEntity
  8
0
100
AcDbLine
 62
7
  6
CONTINUOUS
 10
202.158856501
 20
43.2558694657
 11
206.6182623724
 21
41.810223897
  0
LINE
  5
537
100
AcDbEntity
  8
0
100
AcDbLine
 62
7
  6
CONTINUOUS
 10
206.6182623724
 20
41.810223897
 11
206.8331340974
 21
41.6968628486
  0
LINE
  5
538
100
AcDbEntity
  8
0
100
AcDbLine
 62
7
  6
CONTINUOUS
 10
211.9536229687
 20
40.0806122344
 11
212.1684946936
 21
39.967251186
  0
LINE
  5
539
100
AcDbEntity
  8
0
100
AcDbLine
 62
7
  6
CONTINUOUS
 10
206.8331340974
 20
41.6968628486
 11
206.8668004388
 21
41.4672731718
  0
LINE
  5
53A
100
AcDbEntity
  8
0
100
AcDbLine
 62
7
  6
CONTINUOUS
 10
198.5911282867
 20
35.7951392618
 11
198.5671032685
 21
35.7592235118
  0
LINE
  5
53B
100
AcDbEntity
  8
0
100
AcDbLine
 62
7
  6
CONTINUOUS
 10
229.6831051202
 20
66.5766961232
 11
229.8883355219
 21
66.7288405017
  0
LINE
  5
53C
100
AcDbEntity
  8
0
100
AcDbLine
 62
7
  6
CONTINUOUS
 10
222.5395905282
 20
62.4087099116
 11
223.6268226894
 21
63.1060815922
  0
LINE
  5
53D
100
AcDbEntity
  8
0
100
AcDbLine
 62
7
  6
CONTINUOUS
 10
238.5525275893
 20
72.5374043413
 11
229.8546691805
 21
66.9584301785
  0
LINE
  5
53E
100
AcDbEntity
  8
0
100
AcDbLine
 62
7
  6
CONTINUOUS
 10
238.8010656556
 20
72.1944536161
 11
230.1032072468
 21
66.6154794533
  0
LINE
  5
53F
100
AcDbEntity
  8
0
100
AcDbLine
 62
7
  6
CONTINUOUS
 10
224.9513671437
 20
63.2912530056
 11
225.335885091
 21
63.5378902343
  0
LINE
  5
540
100
AcDbEntity
  8
02___PRT_ALL_AXES
100
AcDbLine
 62
7
  6
CONTINUOUS
 10
207.7414182035
 20
52.1446562929
 11
205.6273553958
 21
50.7886556283
  0
LINE
  5
541
100
AcDbEntity
  8
02___PRT_ALL_AXES
100
AcDbLine
 62
7
  6
CONTINUOUS
 10
219.852284899
 20
59.4969888024
 11
208.6454786728
 21
52.3087271126
  0
LINE
  5
542
100
AcDbEntity
  8
0
100
AcDbLine
 62
7
  6
CONTINUOUS
 10
212.7613577832
 20
24.3383467494
 11
212.202161035
 21
39.7376615092
  0
LINE
  5
543
100
AcDbEntity
  8
0
100
AcDbLine
 62
7
  6
CONTINUOUS
 10
225.1900329073
 20
68.2519313687
 11
225.1660078891
 21
68.2160156187
  0
LINE
  5
544
100
AcDbEntity
  8
02___PRT_ALL_AXES
100
AcDbLine
 62
7
  6
CONTINUOUS
 10
188.7434992127
 20
24.1115143121
 11
189.6026141796
 21
25.0282086629
  0
LINE
  5
545
100
AcDbEntity
  8
0
100
AcDbLine
 62
7
  6
CONTINUOUS
 10
193.4609980922
 20
37.6768953029
 11
193.2557676905
 21
37.5247509244
  0
LINE
  5
546
100
AcDbEntity
  8
02___PRT_ALL_AXES
100
AcDbLine
 62
7
  6
CONTINUOUS
 10
219.0662985704
 20
54.240716245
 11
210.8015751874
 21
48.9395632428
  0
LINE
  5
547
100
AcDbEntity
  8
0
100
AcDbLine
 62
7
  6
CONTINUOUS
 10
193.4609980922
 20
37.6768953029
 11
202.158856501
 21
43.2558694657
  0
LINE
  5
548
100
AcDbEntity
  8
02___PRT_ALL_AXES
100
AcDbLine
 62
7
  6
CONTINUOUS
 10
210.2789526131
 20
48.1885320381
 11
208.1648898054
 21
46.8325313735
  0
LINE
  5
549
100
AcDbEntity
  8
02___PRT_ALL_AXES
100
AcDbLine
 62
7
  6
CONTINUOUS
 10
201.8762009323
 20
49.6446700199
 11
200.6817172168
 21
50.0318965116
  0
LINE
  5
54A
100
AcDbEntity
  8
0
100
AcDbLine
 62
7
  6
CONTINUOUS
 10
212.202161035
 20
39.7376615092
 11
212.1684946936
 21
39.967251186
  0
LINE
  5
54B
100
AcDbEntity
  8
0
100
AcDbLine
 62
7
  6
CONTINUOUS
 10
210.7086744859
 20
42.0282861548
 11
215.0353168428
 21
51.6551668084
  0
LINE
  5
54C
100
AcDbEntity
  8
0
100
AcDbLine
 62
7
  6
CONTINUOUS
 10
197.7488399034
 20
35.8495156789
 11
197.9540703051
 21
36.0016600574
  0
LINE
  5
54D
100
AcDbEntity
  8
0
100
AcDbLine
 62
7
  6
CONTINUOUS
 10
198.7963586884
 20
35.9472836403
 11
198.5911282867
 21
35.7951392618
  0
LINE
  5
54E
100
AcDbEntity
  8
0
100
AcDbLine
 62
7
  6
CONTINUOUS
 10
225.7789961575
 20
57.3583385224
 11
226.8662273254
 21
58.0557095659
  0
LINE
  5
54F
100
AcDbEntity
  8
02___PRT_ALL_AXES
100
AcDbLine
 62
7
  6
CONTINUOUS
 10
242.0856230679
 20
67.2237078527
 11
241.045674984
 21
66.5566650913
  0
LINE
  5
550
100
AcDbEntity
  8
02___PRT_ALL_AXES
100
AcDbLine
 62
7
  6
CONTINUOUS
 10
240.1978123086
 20
65.4485146817
 11
239.0722481125
 21
64.7265560945
  0
LINE
  5
551
100
AcDbEntity
  8
02___PRT_ALL_AXES
100
AcDbLine
 62
7
  6
CONTINUOUS
 10
220.4432441899
 20
47.9694518387
 11
220.0187937646
 21
48.1070497372
  0
LINE
  5
552
100
AcDbEntity
  8
02___PRT_ALL_AXES
100
AcDbLine
 62
7
  6
CONTINUOUS
 10
218.8672038753
 20
58.864089515
 11
218.2203526615
 21
76.6772571989
  0
LINE
  5
553
100
AcDbEntity
  8
0
100
AcDbLine
 62
7
  6
CONTINUOUS
 10
198.4988833583
 20
20.3009241206
 11
198.5229083765
 21
20.3368398707
  0
LINE
  5
554
100
AcDbEntity
  8
0
100
AcDbLine
 62
7
  6
CONTINUOUS
 10
199.1839913763
 20
20.1662348253
 11
199.1599663582
 21
20.1303190752
  0
LINE
  5
555
100
AcDbEntity
  8
0
100
AcDbLine
 62
7
  6
CONTINUOUS
 10
225.1218129971
 20
52.7936319776
 11
225.3270433988
 21
52.9457763561
  0
LINE
  5
556
100
AcDbEntity
  8
0
100
AcDbLine
 62
7
  6
CONTINUOUS
 10
206.6182623724
 20
41.810223897
 11
197.9204039636
 21
36.2312497342
  0
LINE
  5
557
100
AcDbEntity
  8
0
100
AcDbLine
 62
7
  6
CONTINUOUS
 10
206.8668004388
 20
41.4672731718
 11
198.16894203
 21
35.888299009
  0
LINE
  5
558
100
AcDbEntity
  8
0
100
AcDbLine
 62
7
  6
CONTINUOUS
 10
198.7963586884
 20
35.9472836403
 11
207.4942170972
 21
41.5262578031
  0
LINE
  5
559
100
AcDbEntity
  8
0
100
AcDbLine
 62
7
  6
CONTINUOUS
 10
225.3270433988
 20
52.9457763561
 11
225.7115613462
 21
53.1924135848
  0
LINE
  5
55A
100
AcDbEntity
  8
0
100
AcDbLine
 62
7
  6
CONTINUOUS
 10
225.0977879789
 20
52.7577162275
 11
225.7130166948
 21
53.1523357934
  0
LINE
  5
55B
100
AcDbEntity
  8
02___PRT_ALL_AXES
100
AcDbLine
 62
7
  6
CONTINUOUS
 10
226.9647654858
 20
52.1524813963
 11
220.4432441899
 21
47.9694518387
  0
LINE
  5
55C
100
AcDbEntity
  8
02___PRT_ALL_AXES
100
AcDbLine
 62
7
  6
CONTINUOUS
 10
220.4432441899
 20
47.9694518387
 11
220.4068903568
 21
48.9705737512
  0
LINE
  5
55D
100
AcDbEntity
  8
02___PRT_ALL_AXES
100
AcDbLine
 62
7
  6
CONTINUOUS
 10
219.9982568695
 20
60.2236357792
 11
219.4148363771
 21
76.2900307073
  0
LINE
  5
55E
100
AcDbEntity
  8
0
100
AcDbLine
 62
7
  6
CONTINUOUS
 10
220.1771806673
 20
60.4026953462
 11
219.8306472929
 21
69.9456272813
  0
LINE
  5
55F
100
AcDbEntity
  8
0
100
AcDbLine
 62
7
  6
CONTINUOUS
 10
220.226062722
 20
60.4516144931
 11
219.8883386525
 21
69.7519533545
  0
LINE
  5
560
100
AcDbEntity
  8
0
100
AcDbLine
 62
7
  6
CONTINUOUS
 10
216.1813631625
 20
39.5686767043
 11
221.8833305902
 21
52.2556878758
  0
LINE
  5
561
100
AcDbEntity
  8
0
100
AcDbLine
 62
7
  6
CONTINUOUS
 10
225.0977879789
 20
52.7577162275
 11
225.1218129971
 21
52.7936319776
  0
LINE
  5
562
100
AcDbEntity
  8
0
100
AcDbLine
 62
7
  6
CONTINUOUS
 10
225.7828959969
 20
52.6230269322
 11
225.7588709788
 21
52.5871111821
  0
LINE
  5
563
100
AcDbEntity
  8
02___PRT_ALL_AXES
100
AcDbLine
 62
7
  6
CONTINUOUS
 10
243.8485058634
 20
70.1724597186
 11
242.9893908965
 21
69.2557653678
  0
LINE
  5
564
100
AcDbEntity
  8
0
100
AcDbLine
 62
7
  6
CONTINUOUS
 10
203.0842004996
 20
34.1199040163
 11
203.2894309013
 21
34.2720483948
  0
LINE
  5
565
100
AcDbEntity
  8
02___PRT_ALL_AXES
100
AcDbLine
 62
7
  6
CONTINUOUS
 10
192.3941927675
 20
28.8354593489
 11
195.6558896708
 21
30.92757466
  0
LINE
  5
566
100
AcDbEntity
  8
02___PRT_ALL_AXES
100
AcDbLine
 62
7
  6
CONTINUOUS
 10
190.5063820083
 20
27.060266178
 11
192.5902439187
 21
28.3968954045
  0
LINE
  5
567
100
AcDbEntity
  8
0
100
AcDbLine
 62
7
  6
CONTINUOUS
 10
211.9536229687
 20
40.0806122344
 11
203.2557645599
 21
34.5016380716
  0
LINE
  5
568
100
AcDbEntity
  8
0
100
AcDbLine
 62
7
  6
CONTINUOUS
 10
212.202161035
 20
39.7376615092
 11
203.5043026262
 21
34.1586873464
  0
LINE
  5
569
100
AcDbEntity
  8
0
100
AcDbLine
 62
7
  6
CONTINUOUS
 10
198.352462523
 20
30.8344608986
 11
198.7369804704
 21
31.0810981274
  0
LINE
  5
56A
100
AcDbEntity
  8
0
100
AcDbLine
 62
7
  6
CONTINUOUS
 10
230.662403995
 20
51.2161646935
 11
239.3602624038
 21
56.7951388563
  0
LINE
  5
56B
100
AcDbEntity
  8
02___PRT_ALL_AXES
100
AcDbLine
 62
7
  6
CONTINUOUS
 10
190.4447176677
 20
25.3871702488
 11
191.1883440038
 21
25.8641465251
  0
LINE
  5
56C
100
AcDbEntity
  8
0
100
AcDbLine
 62
7
  6
CONTINUOUS
 10
230.4331485752
 20
51.0281045649
 11
239.131006984
 21
56.6070787277
  0
LINE
  5
56D
100
AcDbEntity
  8
0
100
AcDbLine
 62
7
  6
CONTINUOUS
 10
224.347744524
 20
68.3063077858
 11
224.5227716959
 21
63.4863611012
  0
LINE
  5
56E
100
AcDbEntity
  8
0
100
AcDbLine
 62
7
  6
CONTINUOUS
 10
224.7750313138
 20
56.5395659551
 11
224.9069412722
 21
52.906993026
  0
LINE
  5
56F
100
AcDbEntity
  8
0
100
AcDbLine
 62
7
  6
CONTINUOUS
 10
203.8342439546
 20
18.571312458
 11
203.8582689727
 21
18.6072282081
  0
LINE
  5
570
100
AcDbEntity
  8
0
100
AcDbLine
 62
7
  6
CONTINUOUS
 10
230.4571735933
 20
51.064020315
 11
230.662403995
 21
51.2161646935
  0
LINE
  5
571
100
AcDbEntity
  8
0
100
AcDbLine
 62
7
  6
CONTINUOUS
 10
239.3362373857
 20
56.7592231062
 11
239.131006984
 21
56.6070787277
  0
LINE
  5
572
100
AcDbEntity
  8
0
100
AcDbLine
 62
7
  6
CONTINUOUS
 10
230.4331485752
 20
51.0281045649
 11
225.9737427037
 21
52.4737501337
  0
LINE
  5
573
100
AcDbEntity
  8
0
100
AcDbLine
 62
7
  6
CONTINUOUS
 10
222.5542059606
 20
53.5822920072
 11
225.0977879789
 21
52.7577162275
  0
LINE
  5
574
100
AcDbEntity
  8
0
100
AcDbLine
 62
7
  6
CONTINUOUS
 10
230.2423018684
 20
51.1773813634
 11
225.7828959969
 21
52.6230269322
  0
LINE
  5
575
100
AcDbEntity
  8
0
100
AcDbLine
 62
7
  6
CONTINUOUS
 10
222.5980633251
 20
53.6554826834
 11
224.9069412722
 21
52.906993026
  0
LINE
  5
576
100
AcDbEntity
  8
0
100
AcDbLine
 62
7
  6
CONTINUOUS
 10
224.9069412722
 20
52.906993026
 11
225.1218129971
 21
52.7936319776
  0
LINE
  5
577
100
AcDbEntity
  8
0
100
AcDbLine
 62
7
  6
CONTINUOUS
 10
225.7588709788
 20
52.5871111821
 11
225.9737427037
 21
52.4737501337
  0
LINE
  5
578
100
AcDbEntity
  8
0
100
AcDbLine
 62
7
  6
CONTINUOUS
 10
230.2423018684
 20
51.1773813634
 11
230.4571735933
 21
51.064020315
  0
LINE
  5
579
100
AcDbEntity
  8
0
100
AcDbLine
 62
7
  6
CONTINUOUS
 10
219.8883386525
 20
69.7519533545
 11
219.8546723111
 21
69.9815430313
  0
LINE
  5
57A
100
AcDbEntity
  8
0
100
AcDbLine
 62
7
  6
CONTINUOUS
 10
224.7678466506
 20
68.3450911159
 11
224.9513671437
 21
63.2912530056
  0
LINE
  5
57B
100
AcDbEntity
  8
0
100
AcDbLine
 62
7
  6
CONTINUOUS
 10
225.1828020391
 20
56.9179348263
 11
225.3270433988
 21
52.9457763561
  0
LINE
  5
57C
100
AcDbEntity
  8
0
100
AcDbLine
 62
7
  6
CONTINUOUS
 10
225.7252046373
 20
52.8167008589
 11
225.5659972485
 21
57.2009979786
  0
LINE
  5
57D
100
AcDbEntity
  8
0
100
AcDbLine
 62
7
  6
CONTINUOUS
 10
225.3495283822
 20
63.1621775083
 11
225.1660078891
 21
68.2160156187
  0
LINE
  5
57E
100
AcDbEntity
  8
0
100
AcDbLine
 62
7
  6
CONTINUOUS
 10
225.7828959969
 20
52.6230269322
 11
225.6153323354
 21
57.2374414019
  0
LINE
  5
57F
100
AcDbEntity
  8
0
100
AcDbLine
 62
7
  6
CONTINUOUS
 10
225.3987264207
 20
63.2023950073
 11
225.2236992487
 21
68.0223416919
  0
LINE
  5
580
100
AcDbEntity
  8
0
100
AcDbLine
 62
7
  6
CONTINUOUS
 10
230.4331485752
 20
51.0281045649
 11
230.4571735933
 21
51.064020315
  0
LINE
  5
581
100
AcDbEntity
  8
0
100
AcDbLine
 62
7
  6
CONTINUOUS
 10
212.7613577832
 20
24.3383467494
 11
212.7373327651
 21
24.3024309993
  0
LINE
  5
582
100
AcDbEntity
  8
02___PRT_ALL_AXES
100
AcDbLine
 62
7
  6
CONTINUOUS
 10
192.7378810263
 20
21.8089158365
 11
193.4829229913
 21
22.2868001245
  0
LINE
  5
583
100
AcDbEntity
  8
02___PRT_ALL_AXES
100
AcDbLine
 62
7
  6
CONTINUOUS
 10
194.2856885758
 20
21.1681662239
 11
196.3695504863
 21
22.5047954504
  0
LINE
  5
584
100
AcDbEntity
  8
0
100
AcDbLine
 62
7
  6
CONTINUOUS
 10
225.7252046373
 20
52.8167008589
 11
225.7588709788
 21
52.5871111821
  0
LINE
  5
585
100
AcDbEntity
  8
0
100
AcDbLine
 62
7
  6
CONTINUOUS
 10
224.5529749257
 20
68.4584521643
 11
224.5193085842
 21
68.6880418411
  0
LINE
  5
586
100
AcDbEntity
  8
0
100
AcDbLine
 62
7
  6
CONTINUOUS
 10
225.2236992487
 20
68.0223416919
 11
225.1900329073
 21
68.2519313687
  0
LINE
  5
587
100
AcDbEntity
  8
02___PRT_ALL_AXES
100
AcDbLine
 62
7
  6
CONTINUOUS
 10
228.4751055529
 20
82.1014621268
 11
228.7082557367
 21
75.6809078638
  0
LINE
  5
588
100
AcDbEntity
  8
0
100
AcDbLine
 62
7
  6
CONTINUOUS
 10
229.6831051202
 20
66.5766961232
 11
230.2423018684
 21
51.1773813634
  0
LINE
  5
589
100
AcDbEntity
  8
0
100
AcDbLine
 62
7
  6
CONTINUOUS
 10
230.1032072468
 20
66.6154794533
 11
230.662403995
 21
51.2161646935
  0
LINE
  5
58A
100
AcDbEntity
  8
0
100
AcDbLine
 62
7
  6
CONTINUOUS
 10
239.3602624038
 20
56.7951388563
 11
239.3362373857
 21
56.7592231062
  0
LINE
  5
58B
100
AcDbEntity
  8
0
100
AcDbLine
 62
7
  6
CONTINUOUS
 10
198.5229083765
 20
20.3368398707
 11
198.7281387782
 21
20.4889842492
  0
LINE
  5
58C
100
AcDbEntity
  8
02___PRT_ALL_AXES
100
AcDbLine
 62
7
  6
CONTINUOUS
 10
196.6864052264
 20
22.1437172583
 11
199.9481021297
 21
24.2358325693
  0
LINE
  5
58D
100
AcDbEntity
  8
0
100
AcDbLine
 62
7
  6
CONTINUOUS
 10
198.7281387782
 20
20.4889842492
 11
199.1126567256
 21
20.7356214779
  0
LINE
  5
58E
100
AcDbEntity
  8
0
100
AcDbLine
 62
7
  6
CONTINUOUS
 10
198.4988833583
 20
20.3009241206
 11
199.1141120742
 21
20.6955436865
  0
LINE
  5
58F
100
AcDbEntity
  8
0
100
AcDbLine
 62
7
  6
CONTINUOUS
 10
203.8582689727
 20
18.6072282081
 11
204.0634993744
 21
18.7593725866
  0
LINE
  5
590
100
AcDbEntity
  8
0
100
AcDbLine
 62
7
  6
CONTINUOUS
 10
212.7373327651
 20
24.3024309993
 11
212.5321023634
 21
24.1502866208
  0
LINE
  5
591
100
AcDbEntity
  8
02___PRT_ALL_AXES
100
AcDbLine
 62
7
  6
CONTINUOUS
 10
200.3658608652
 20
19.6956892894
 11
193.8443395693
 21
15.5126597318
  0
LINE
  5
592
100
AcDbEntity
  8
0
100
AcDbLine
 62
7
  6
CONTINUOUS
 10
229.8883355219
 20
66.7288405017
 11
229.8546691805
 21
66.9584301785
  0
LINE
  5
593
100
AcDbEntity
  8
0
100
AcDbLine
 62
7
  6
CONTINUOUS
 10
233.477893002
 20
73.5884303441
 11
233.4657050594
 21
73.9240652787
  0
LINE
  5
594
100
AcDbEntity
  8
0
100
AcDbLine
 62
7
  6
CONTINUOUS
 10
204.0634993744
 20
18.7593725866
 11
212.7613577832
 21
24.3383467494
  0
LINE
  5
595
100
AcDbEntity
  8
0
100
AcDbLine
 62
7
  6
CONTINUOUS
 10
203.8342439546
 20
18.571312458
 11
212.5321023634
 21
24.1502866208
  0
LINE
  5
596
100
AcDbEntity
  8
02___PRT_ALL_AXES
100
AcDbLine
 62
7
  6
CONTINUOUS
 10
190.8704210332
 20
20.7955525777
 11
192.0618675345
 21
21.1941279075
  0
LINE
  5
597
100
AcDbEntity
  8
0
100
AcDbLine
 62
7
  6
CONTINUOUS
 10
233.432038718
 20
74.1536549555
 11
233.4657050594
 21
73.9240652787
  0
LINE
  5
598
100
AcDbEntity
  8
0
100
AcDbLine
 62
7
  6
CONTINUOUS
 10
239.3602624038
 20
56.7951388563
 11
238.8010656556
 21
72.1944536161
  0
LINE
  5
599
100
AcDbEntity
  8
0
100
AcDbLine
 62
7
  6
CONTINUOUS
 10
229.6831051202
 20
66.5766961232
 11
225.2236992487
 21
68.0223416919
  0
LINE
  5
59A
100
AcDbEntity
  8
0
100
AcDbLine
 62
7
  6
CONTINUOUS
 10
219.8883386525
 20
69.7519533545
 11
224.347744524
 21
68.3063077858
  0
LINE
  5
59B
100
AcDbEntity
  8
0
100
AcDbLine
 62
7
  6
CONTINUOUS
 10
229.8546691805
 20
66.9584301785
 11
225.395263309
 21
68.4040757472
  0
LINE
  5
59C
100
AcDbEntity
  8
0
100
AcDbLine
 62
7
  6
CONTINUOUS
 10
220.0599027128
 20
70.1336874098
 11
224.5193085842
 21
68.6880418411
  0
LINE
  5
59D
100
AcDbEntity
  8
0
100
AcDbLine
 62
7
  6
CONTINUOUS
 10
224.7678466506
 20
68.3450911159
 11
224.5529749257
 21
68.4584521643
  0
LINE
  5
59E
100
AcDbEntity
  8
0
100
AcDbLine
 62
7
  6
CONTINUOUS
 10
230.1032072468
 20
66.6154794533
 11
229.8883355219
 21
66.7288405017
  0
LINE
  5
59F
100
AcDbEntity
  8
0
100
AcDbLine
 62
7
  6
CONTINUOUS
 10
238.8010656556
 20
72.1944536161
 11
238.7673993142
 21
72.4240432929
  0
LINE
  5
5A0
100
AcDbEntity
  8
02___PRT_ALL_AXES
100
AcDbLine
 62
7
  6
CONTINUOUS
 10
219.4148363771
 20
76.2900307073
 11
218.2203526615
 21
76.6772571989
  0
LINE
  5
5A1
100
AcDbEntity
  8
0
100
AcDbLine
 62
7
  6
CONTINUOUS
 10
238.5525275893
 20
72.5374043413
 11
234.0931217178
 21
73.98304991
  0
LINE
  5
5A2
100
AcDbEntity
  8
0
100
AcDbLine
 62
7
  6
CONTINUOUS
 10
228.7577611216
 20
75.7126615726
 11
233.217166993
 21
74.2670160039
  0
LINE
  5
5A3
100
AcDbEntity
  8
0
100
AcDbLine
 62
7
  6
CONTINUOUS
 10
233.217166993
 20
74.2670160039
 11
233.432038718
 21
74.1536549555
  0
LINE
  5
5A4
100
AcDbEntity
  8
0
100
AcDbLine
 62
7
  6
CONTINUOUS
 10
238.5525275893
 20
72.5374043413
 11
238.7673993142
 21
72.4240432929
  0
LINE
  5
5A5
100
AcDbEntity
  8
02___PRT_ALL_AXES
100
AcDbLine
 62
7
  6
CONTINUOUS
 10
228.4751055529
 20
82.1014621268
 11
227.2806218374
 21
82.4886886185
  0
CIRCLE
  5
5A6
100
AcDbEntity
  8
0
100
AcDbCircle
 62
7
  6
CONTINUOUS
 10
62.9987595189
 20
207.6991294682
 40
6.45
  0
CIRCLE
  5
5A7
100
AcDbEntity
  8
0
100
AcDbCircle
 62
7
  6
CONTINUOUS
 10
62.9987595189
 20
227.7991294682
 40
6.45
  0
CIRCLE
  5
5A8
100
AcDbEntity
  8
02___PRT_ALL_AXES
100
AcDbCircle
 62
7
  6
CONTINUOUS
 10
62.9987595189
 20
192.7491294682
 40
3.5
  0
CIRCLE
  5
5A9
100
AcDbEntity
  8
0
100
AcDbCircle
 62
7
  6
CONTINUOUS
 10
62.9987595189
 20
207.6991294682
 40
3.3
  0
CIRCLE
  5
5AA
100
AcDbEntity
  8
0
100
AcDbCircle
 62
7
  6
CONTINUOUS
 10
62.9987595189
 20
227.7991294682
 40
3.3
  0
ARC
  5
5AB
100
AcDbEntity
  8
0
100
AcDbCircle
 62
7
  6
CONTINUOUS
 10
80.9987595189
 20
241.7491294682
 40
30.0
100
AcDbArc
 50
270.0
 51
315.0
  0
ARC
  5
5AC
100
AcDbEntity
  8
0
100
AcDbCircle
 62
7
  6
CONTINUOUS
 10
80.9987595189
 20
241.7491294682
 40
18.0
100
AcDbArc
 50
270.0
 51
315.0
  0
CIRCLE
  5
5AD
100
AcDbEntity
  8
02___PRT_ALL_AXES
100
AcDbCircle
 62
7
  6
CONTINUOUS
 10
62.9987595189
 20
242.7491294682
 40
3.5
  0
ARC
  5
5AE
100
AcDbEntity
  8
0
100
AcDbCircle
 62
7
  6
CONTINUOUS
 10
134.8810105128
 20
227.7491294682
 40
30.0
100
AcDbArc
 50
90.0
 51
104.4270536914
  0
ARC
  5
5AF
100
AcDbEntity
  8
0
100
AcDbCircle
 62
7
  6
CONTINUOUS
 10
134.8810105128
 20
227.7491294682
 40
18.0
100
AcDbArc
 50
90.0
 51
135.0
  0
CIRCLE
  5
5B0
100
AcDbEntity
  8
02___PRT_ALL_AXES
100
AcDbCircle
 62
7
  6
CONTINUOUS
 10
152.8810105128
 20
226.7491294682
 40
3.5
  0
CIRCLE
  5
5B1
100
AcDbEntity
  8
0
100
AcDbCircle
 62
7
  6
CONTINUOUS
 10
152.8810105128
 20
241.6991294682
 40
6.45
  0
CIRCLE
  5
5B2
100
AcDbEntity
  8
0
100
AcDbCircle
 62
7
  6
CONTINUOUS
 10
152.8810105128
 20
261.7991294682
 40
6.45
  0
CIRCLE
  5
5B3
100
AcDbEntity
  8
02___PRT_ALL_AXES
100
AcDbCircle
 62
7
  6
CONTINUOUS
 10
152.8810105128
 20
276.7491294682
 40
3.5
  0
CIRCLE
  5
5B4
100
AcDbEntity
  8
0
100
AcDbCircle
 62
7
  6
CONTINUOUS
 10
152.8810105128
 20
241.6991294682
 40
3.3
  0
CIRCLE
  5
5B5
100
AcDbEntity
  8
0
100
AcDbCircle
 62
7
  6
CONTINUOUS
 10
152.8810105128
 20
261.7991294682
 40
3.3
  0
ARC
  5
5B6
100
AcDbEntity
  8
0
100
AcDbCircle
 62
7
  6
CONTINUOUS
 10
221.3709352112
 20
243.5166898025
 40
19.2958158545
100
AcDbArc
 50
47.4350017987
 51
49.8094772442
  0
ARC
  5
5B7
100
AcDbEntity
  8
0
100
AcDbCircle
 62
7
  6
CONTINUOUS
 10
234.9235693671
 20
220.5761797797
 40
8.4450276386
100
AcDbArc
 50
86.5771710235
 51
93.4228289765
  0
CIRCLE
  5
5B8
100
AcDbEntity
  8
0
100
AcDbCircle
 62
7
  6
CONTINUOUS
 10
234.9231299143
 20
217.7491294682
 40
7.95
  0
CIRCLE
  5
5B9
100
AcDbEntity
  8
0
100
AcDbCircle
 62
7
  6
CONTINUOUS
 10
234.9231299143
 20
217.7491294682
 40
7.75
  0
CIRCLE
  5
5BA
100
AcDbEntity
  8
0
100
AcDbCircle
 62
7
  6
CONTINUOUS
 10
234.9231299143
 20
217.7491294682
 40
7.0
  0
CIRCLE
  5
5BB
100
AcDbEntity
  8
0
100
AcDbCircle
 62
7
  6
CONTINUOUS
 10
234.9231299143
 20
217.7491294682
 40
6.8
  0
CIRCLE
  5
5BC
100
AcDbEntity
  8
02___PRT_ALL_AXES
100
AcDbCircle
 62
7
  6
CONTINUOUS
 10
234.9231299143
 20
217.7491294682
 40
4.625
  0
CIRCLE
  5
5BD
100
AcDbEntity
  8
02___PRT_ALL_AXES
100
AcDbCircle
 62
7
  6
CONTINUOUS
 10
234.9231299143
 20
217.7491294682
 40
4.0
  0
CIRCLE
  5
5BE
100
AcDbEntity
  8
02___PRT_ALL_AXES
100
AcDbCircle
 62
7
  6
CONTINUOUS
 10
234.9231299143
 20
217.7491294682
 40
3.4
  0
ARC
  5
5BF
100
AcDbEntity
  8
0
100
AcDbCircle
 62
7
  6
CONTINUOUS
 10
234.9231299143
 20
251.7491294682
 40
7.95
100
AcDbArc
 50
86.383059286
 51
93.6169405412
  0
ARC
  5
5C0
100
AcDbEntity
  8
0
100
AcDbCircle
 62
7
  6
CONTINUOUS
 10
234.9231299143
 20
251.7491294682
 40
7.75
100
AcDbArc
 50
86.2774607193
 51
93.7225394591
  0
ARC
  5
5C1
100
AcDbEntity
  8
0
100
AcDbCircle
 62
7
  6
CONTINUOUS
 10
234.923138047
 20
251.7491392266
 40
6.5999969645
100
AcDbArc
 50
335.5174544463
 51
80.4059872678
  0
ARC
  5
5C2
100
AcDbEntity
  8
0
100
AcDbCircle
 62
7
  6
CONTINUOUS
 10
234.9231217817
 20
251.7491197098
 40
6.5999969645
100
AcDbArc
 50
99.5939844943
 51
204.4825352169
  0
ARC
  5
5C3
100
AcDbEntity
  8
0
100
AcDbCircle
 62
7
  6
CONTINUOUS
 10
234.9231299143
 20
251.7491294682
 40
6.2
100
AcDbArc
 50
85.3466994103
 51
94.6533005551
  0
ARC
  5
5C4
100
AcDbEntity
  8
0
100
AcDbCircle
 62
7
  6
CONTINUOUS
 10
234.9231299143
 20
251.7491294682
 40
6.0
100
AcDbArc
 50
0.0
 51
180.0
  0
CIRCLE
  5
5C5
100
AcDbEntity
  8
02___PRT_ALL_AXES
100
AcDbCircle
 62
7
  6
CONTINUOUS
 10
234.9231299143
 20
251.7491294682
 40
4.7
  0
CIRCLE
  5
5C6
100
AcDbEntity
  8
0
100
AcDbCircle
 62
7
  6
CONTINUOUS
 10
234.9231299143
 20
251.7491294682
 40
3.25
  0
CIRCLE
  5
5C7
100
AcDbEntity
  8
0
100
AcDbCircle
 62
7
  6
CONTINUOUS
 10
234.9231299143
 20
251.7491294682
 40
2.375
  0
ARC
  5
5C8
100
AcDbEntity
  8
0
100
AcDbCircle
 62
7
  6
CONTINUOUS
 10
248.1758964002
 20
243.85659032
 40
18.8429368281
100
AcDbArc
 50
130.1619839545
 51
132.5935370025
  0
CIRCLE
  5
5C9
100
AcDbEntity
  8
0
100
AcDbCircle
 62
7
  6
CONTINUOUS
 10
261.154196543
 20
114.9455206484
 40
6.45
  0
CIRCLE
  5
5CA
100
AcDbEntity
  8
0
100
AcDbCircle
 62
7
  6
CONTINUOUS
 10
261.154196543
 20
135.0455206484
 40
6.45
  0
CIRCLE
  5
5CB
100
AcDbEntity
  8
02___PRT_ALL_AXES
100
AcDbCircle
 62
7
  6
CONTINUOUS
 10
261.154196543
 20
99.9955206484
 40
3.5
  0
CIRCLE
  5
5CC
100
AcDbEntity
  8
0
100
AcDbCircle
 62
7
  6
CONTINUOUS
 10
261.154196543
 20
114.9455206484
 40
3.3
  0
CIRCLE
  5
5CD
100
AcDbEntity
  8
0
100
AcDbCircle
 62
7
  6
CONTINUOUS
 10
261.154196543
 20
135.0455206484
 40
3.3
  0
ARC
  5
5CE
100
AcDbEntity
  8
0
100
AcDbCircle
 62
7
  6
CONTINUOUS
 10
279.154196543
 20
148.9955206484
 40
30.0
100
AcDbArc
 50
270.0
 51
315.0
  0
ARC
  5
5CF
100
AcDbEntity
  8
0
100
AcDbCircle
 62
7
  6
CONTINUOUS
 10
279.154196543
 20
148.9955206484
 40
18.0
100
AcDbArc
 50
270.0
 51
315.0
  0
CIRCLE
  5
5D0
100
AcDbEntity
  8
02___PRT_ALL_AXES
100
AcDbCircle
 62
7
  6
CONTINUOUS
 10
261.154196543
 20
149.9955206484
 40
3.5
  0
ARC
  5
5D1
100
AcDbEntity
  8
0
100
AcDbCircle
 62
7
  6
CONTINUOUS
 10
333.0364475369
 20
134.9955206484
 40
30.0
100
AcDbArc
 50
90.0
 51
104.4270536914
  0
ARC
  5
5D2
100
AcDbEntity
  8
0
100
AcDbCircle
 62
7
  6
CONTINUOUS
 10
333.0364475369
 20
134.9955206484
 40
18.0
100
AcDbArc
 50
90.0
 51
135.0
  0
CIRCLE
  5
5D3
100
AcDbEntity
  8
02___PRT_ALL_AXES
100
AcDbCircle
 62
7
  6
CONTINUOUS
 10
351.0364475369
 20
133.9955206484
 40
3.5
  0
CIRCLE
  5
5D4
100
AcDbEntity
  8
0
100
AcDbCircle
 62
7
  6
CONTINUOUS
 10
351.0364475369
 20
148.9455206484
 40
6.45
  0
CIRCLE
  5
5D5
100
AcDbEntity
  8
0
100
AcDbCircle
 62
7
  6
CONTINUOUS
 10
351.0364475369
 20
169.0455206484
 40
6.45
  0
CIRCLE
  5
5D6
100
AcDbEntity
  8
02___PRT_ALL_AXES
100
AcDbCircle
 62
7
  6
CONTINUOUS
 10
351.0364475369
 20
183.9955206484
 40
3.5
  0
CIRCLE
  5
5D7
100
AcDbEntity
  8
0
100
AcDbCircle
 62
7
  6
CONTINUOUS
 10
351.0364475369
 20
148.9455206484
 40
3.3
  0
CIRCLE
  5
5D8
100
AcDbEntity
  8
0
100
AcDbCircle
 62
7
  6
CONTINUOUS
 10
351.0364475369
 20
169.0455206484
 40
3.3
  0
ARC
  5
5D9
100
AcDbEntity
  8
0
100
AcDbCircle
 62
7
  6
CONTINUOUS
 10
195.0736207444
 20
49.0360264109
 40
17.1336898827
100
AcDbArc
 50
330.8743152292
 51
335.8577442843
  0
ARC
  5
5DA
100
AcDbEntity
  8
0
100
AcDbCircle
 62
7
  6
CONTINUOUS
 10
219.4614410586
 20
51.7997938356
 40
12.7354985091
100
AcDbArc
 50
64.464342564
 51
66.5830658289
  0
ARC
  5
5DB
100
AcDbEntity
  8
0
100
AcDbCircle
 62
7
  6
CONTINUOUS
 10
192.862536438
 20
19.3430017287
 40
12.7354985091
100
AcDbArc
 50
64.464342564
 51
66.5830658289
  0
ARC
  5
5DC
100
AcDbEntity
  8
0
100
AcDbCircle
 62
7
  6
CONTINUOUS
 10
215.4083643747
 20
58.5682074657
 40
5.7649437882
100
AcDbArc
 50
308.8272731934
 51
310.2461881233
  0
ARC
  5
5DD
100
AcDbEntity
  8
0
100
AcDbCircle
 62
7
  6
CONTINUOUS
 10
235.6234207334
 20
67.2368443692
 40
5.6534708607
100
AcDbArc
 50
22.9261168571
 51
42.4275488583
  0
ARC
  5
5DE
100
AcDbEntity
  8
0
100
AcDbCircle
 62
7
  6
CONTINUOUS
 10
195.373881861
 20
26.0242721359
 40
5.6532702834
100
AcDbArc
 50
22.9257675295
 51
42.4278981923
  0
ARC
  5
5DF
100
AcDbEntity
  8
0
100
AcDbCircle
 62
7
  6
CONTINUOUS
 10
228.2639778606
 20
59.4322841045
 40
5.6004691055
100
AcDbArc
 50
348.8186793663
 51
348.963833141
  0
ARC
  5
5E0
100
AcDbEntity
  8
0
100
AcDbCircle
 62
7
  6
CONTINUOUS
 10
201.665073253
 20
26.9754919951
 40
5.6004690923
100
AcDbArc
 50
348.8186793662
 51
348.9638331412
  0
ARC
  5
5E1
100
AcDbEntity
  8
0
100
AcDbCircle
 62
7
  6
CONTINUOUS
 10
235.7449064509
 20
67.3147665068
 40
5.5112515041
100
AcDbArc
 50
22.9269945173
 51
42.4296037637
  0
ARC
  5
5E2
100
AcDbEntity
  8
0
100
AcDbCircle
 62
7
  6
CONTINUOUS
 10
195.4953846579
 20
26.1022052352
 40
5.511030926
100
AcDbArc
 50
22.9266004135
 51
42.4299978727
  0
ARC
  5
5E3
100
AcDbEntity
  8
0
100
AcDbCircle
 62
7
  6
CONTINUOUS
 10
238.0576899951
 20
68.7982247359
 40
4.9780994555
100
AcDbArc
 50
22.9265604721
 51
42.427216797
  0
ARC
  5
5E4
100
AcDbEntity
  8
0
100
AcDbCircle
 62
7
  6
CONTINUOUS
 10
238.1791749197
 20
68.8761472809
 40
4.8358806256
100
AcDbArc
 50
22.9279804456
 51
42.426492764
  0
ARC
  5
5E5
100
AcDbEntity
  8
0
100
AcDbCircle
 62
7
  6
CONTINUOUS
 10
223.0493771434
 20
59.1716036582
 40
4.6934617077
100
AcDbArc
 50
22.922818808
 51
42.425574076
  0
ARC
  5
5E6
100
AcDbEntity
  8
0
100
AcDbCircle
 62
7
  6
CONTINUOUS
 10
196.4504725228
 20
26.7148115513
 40
4.6934617077
100
AcDbArc
 50
22.9228188079
 51
42.425574076
  0
ARC
  5
5E7
100
AcDbEntity
  8
0
100
AcDbCircle
 62
7
  6
CONTINUOUS
 10
239.507400202
 20
69.1400133298
 40
3.4779891922
100
AcDbArc
 50
1.9066683272
 51
2.0797178683
  0
ARC
  5
5E8
100
AcDbEntity
  8
0
100
AcDbCircle
 62
7
  6
CONTINUOUS
 10
193.4284432649
 20
23.8537194164
 40
2.98248388
100
AcDbArc
 50
250.5772782944
 51
252.0345847488
  0
ARC
  5
5E9
100
AcDbEntity
  8
0
100
AcDbCircle
 62
7
  6
CONTINUOUS
 10
193.3134491723
 20
23.7451163105
 40
2.8159957807
100
AcDbArc
 50
252.0351506622
 51
253.5627456124
  0
ARC
  5
5EA
100
AcDbEntity
  8
0
100
AcDbCircle
 62
7
  6
CONTINUOUS
 10
197.6159216075
 20
28.7877656596
 40
2.2628549672
100
AcDbArc
 50
82.1785112019
 51
84.3996799776
  0
ARC
  5
5EB
100
AcDbEntity
  8
0
100
AcDbCircle
 62
7
  6
CONTINUOUS
 10
197.8445302686
 20
28.6469365303
 40
2.2457199375
100
AcDbArc
 50
76.9278464997
 51
79.5929503301
  0
ARC
  5
5EC
100
AcDbEntity
  8
02___PRT_ALL_AXES
100
AcDbCircle
 62
7
  6
CONTINUOUS
 10
240.9019359902
 20
71.978454677
 40
1.1719322387
100
AcDbArc
 50
108.4946130909
 51
108.8793725218
  0
ARC
  5
5ED
100
AcDbEntity
  8
02___PRT_ALL_AXES
100
AcDbCircle
 62
7
  6
CONTINUOUS
 10
242.1346970272
 20
70.0567451591
 40
1.1713539525
100
AcDbArc
 50
316.4189652895
 51
316.8561467343
  0
SPLINE
  5
5EE
100
AcDbEntity
  8
0
100
AcDbSpline
 62
7
  6
CONTINUOUS
 70
0
 71
3
 72
11
 73
7
 74
0
 42
0.0000001
 43
0.0000001
 44
0.0000000001
 40
0.0
 40
0.0
 40
0.0
 40
0.0
 40
0.2811038043
 40
0.5391406571
 40
0.7760683054
 40
1.0
 40
1.0
 40
1.0
 40
1.0
 10
238.1051574441
 20
248.3164595452
 30
0.0
 10
238.5179014592
 20
248.1338121687
 30
0.0
 10
239.2783933814
 20
247.7033149307
 30
0.0
 10
240.1953027619
 20
246.8388135063
 30
0.0
 10
240.7849378715
 20
245.8249758468
 30
0.0
 10
240.92306063
 20
245.0792454591
 30
0.0
 10
240.9230725051
 20
244.7196922157
 30
0.0
  0
SPLINE
  5
5EF
100
AcDbEntity
  8
0
100
AcDbSpline
 62
7
  6
CONTINUOUS
 70
0
 71
3
 72
10
 73
6
 74
0
 42
0.0000001
 43
0.0000001
 44
0.0000000001
 40
0.0
 40
0.0
 40
0.0
 40
0.0
 40
0.4383984861
 40
0.703413716
 40
1.0
 40
1.0
 40
1.0
 40
1.0
 10
232.3940786905
 20
255.7055297406
 30
0.0
 10
232.6803374972
 20
256.0027727575
 30
0.0
 10
233.2245146379
 20
256.4088970921
 30
0.0
 10
234.1127052313
 20
256.7373746769
 30
0.0
 10
234.6439487122
 20
256.8030983012
 30
0.0
 10
234.9231299143
 20
256.8030983012
 30
0.0
  0
SPLINE
  5
5F0
100
AcDbEntity
  8
0
100
AcDbSpline
 62
7
  6
CONTINUOUS
 70
0
 71
3
 72
11
 73
7
 74
0
 42
0.0000001
 43
0.0000001
 44
0.0000000001
 40
0.0
 40
0.0
 40
0.0
 40
0.0
 40
0.2239316946
 40
0.4608593429
 40
0.7188961957
 40
1.0
 40
1.0
 40
1.0
 40
1.0
 10
228.9231873236
 20
244.7196922157
 30
0.0
 10
228.9231991987
 20
245.0792454591
 30
0.0
 10
229.0613219571
 20
245.8249758468
 30
0.0
 10
229.6509570668
 20
246.8388135063
 30
0.0
 10
230.5678664473
 20
247.7033149307
 30
0.0
 10
231.3283583695
 20
248.1338121687
 30
0.0
 10
231.7411023846
 20
248.3164595452
 30
0.0
  0
SPLINE
  5
5F1
100
AcDbEntity
  8
0
100
AcDbSpline
 62
7
  6
CONTINUOUS
 70
0
 71
3
 72
10
 73
6
 74
0
 42
0.0000001
 43
0.0000001
 44
0.0000000001
 40
0.0
 40
0.0
 40
0.0
 40
0.0
 40
0.2963582944
 40
0.5613509992
 40
1.0
 40
1.0
 40
1.0
 40
1.0
 10
234.9231299143
 20
256.8030983012
 30
0.0
 10
235.2007681188
 20
256.8030983012
 30
0.0
 10
235.7292238257
 20
256.7381230497
 30
0.0
 10
236.6137377968
 20
256.4128706717
 30
0.0
 10
237.1566541368
 20
256.0102981446
 30
0.0
 10
237.4427583167
 20
255.7153121162
 30
0.0
  0
SPLINE
  5
5F2
100
AcDbEntity
  8
0
100
AcDbSpline
 62
7
  6
CONTINUOUS
 70
0
 71
3
 72
11
 73
7
 74
0
 42
0.0000001
 43
0.0000001
 44
0.0000000001
 40
0.0
 40
0.0
 40
0.0
 40
0.0
 40
0.2751690261
 40
0.5308306053
 40
0.7701424959
 40
1.0
 40
1.0
 40
1.0
 40
1.0
 10
114.7537966438
 20
67.6441457086
 30
0.0
 10
114.9448422376
 20
67.3432469137
 30
0.0
 10
115.3681651546
 20
66.794451166
 30
0.0
 10
116.141847857
 20
66.1503367562
 30
0.0
 10
117.0015309644
 20
65.7459241473
 30
0.0
 10
117.6127148673
 20
65.6531102007
 30
0.0
 10
117.9104477653
 20
65.6531003673
 30
0.0
  0
SPLINE
  5
5F3
100
AcDbEntity
  8
0
100
AcDbSpline
 62
7
  6
CONTINUOUS
 70
0
 71
3
 72
15
 73
11
 74
0
 42
0.0000001
 43
0.0000001
 44
0.0000000001
 40
0.0
 40
0.0
 40
0.0
 40
0.0
 40
0.2390103686
 40
0.3593668161
 40
0.480736431
 40
0.6038315678
 40
0.7299515698
 40
0.8613063719
 40
0.9299642568
 40
1.0
 40
1.0
 40
1.0
 40
1.0
 10
121.4546144948
 20
75.416930092
 30
0.0
 10
122.0581547852
 20
75.3541191747
 30
0.0
 10
122.9623173926
 20
75.2080066735
 30
0.0
 10
124.1385093177
 20
74.8776372261
 30
0.0
 10
125.0041466773
 20
74.5433128695
 30
0.0
 10
125.8362806147
 20
74.0972646581
 30
0.0
 10
126.6031985176
 20
73.5003280864
 30
0.0
 10
127.1168651569
 20
72.8302101457
 30
0.0
 10
127.3616199327
 20
72.1844451058
 30
0.0
 10
127.4065944787
 20
71.8308498071
 30
0.0
 10
127.4065944787
 20
71.6530429581
 30
0.0
  0
SPLINE
  5
5F4
100
AcDbEntity
  8
0
100
AcDbSpline
 62
7
  6
CONTINUOUS
 70
0
 71
3
 72
11
 73
7
 74
0
 42
0.0000001
 43
0.0000001
 44
0.0000000001
 40
0.0
 40
0.0
 40
0.0
 40
0.0
 40
0.2750698173
 40
0.5306907209
 40
0.7700412943
 40
1.0
 40
1.0
 40
1.0
 40
1.0
 10
94.820785826
 20
67.6314858162
 30
0.0
 10
95.0117676684
 20
67.3323249436
 30
0.0
 10
95.4347495624
 20
66.7868848984
 30
0.0
 10
96.2066184761
 20
66.1469305547
 30
0.0
 10
97.0636191914
 20
65.7452686689
 30
0.0
 10
97.672605077
 20
65.6530429581
 30
0.0
 10
97.9693222674
 20
65.6530429581
 30
0.0
  0
SPLINE
  5
5F5
100
AcDbEntity
  8
0
100
AcDbSpline
 62
7
  6
CONTINUOUS
 70
0
 71
3
 72
11
 73
7
 74
0
 42
0.0000001
 43
0.0000001
 44
0.0000000001
 40
0.0
 40
0.0
 40
0.0
 40
0.0
 40
0.2298575041
 40
0.4691693947
 40
0.7248309739
 40
1.0
 40
1.0
 40
1.0
 40
1.0
 10
117.9104477653
 20
77.6529855488
 30
0.0
 10
117.6127148673
 20
77.6529757155
 30
0.0
 10
117.0015309644
 20
77.5601617688
 30
0.0
 10
116.141847857
 20
77.1557491599
 30
0.0
 10
115.3681651546
 20
76.5116347501
 30
0.0
 10
114.9448422376
 20
75.9628390024
 30
0.0
 10
114.7537966438
 20
75.6619402075
 30
0.0
  0
SPLINE
  5
5F6
100
AcDbEntity
  8
0
100
AcDbSpline
 62
7
  6
CONTINUOUS
 70
0
 71
3
 72
15
 73
11
 74
0
 42
0.0000001
 43
0.0000001
 44
0.0000000001
 40
0.0
 40
0.0
 40
0.0
 40
0.0
 40
0.0700589519
 40
0.1387297337
 40
0.2700766929
 40
0.3961773736
 40
0.5192575373
 40
0.6406197502
 40
0.7609774875
 40
1.0
 40
1.0
 40
1.0
 40
1.0
 10
127.4065944787
 20
71.6530429581
 30
0.0
 10
127.4065944787
 20
71.4746435292
 30
0.0
 10
127.3612374819
 20
71.1199015897
 30
0.0
 10
127.1151230437
 20
70.4723363145
 30
0.0
 10
126.5986997691
 20
69.8011156804
 30
0.0
 10
125.8286083393
 20
69.2037295551
 30
0.0
 10
124.9933360061
 20
68.7577585819
 30
0.0
 10
124.1246431506
 20
68.4237870209
 30
0.0
 10
122.9444228336
 20
68.0941443807
 30
0.0
 10
122.0372946401
 20
67.9489736827
 30
0.0
 10
121.4318265432
 20
67.8868051994
 30
0.0
  0
SPLINE
  5
5F7
100
AcDbEntity
  8
0
100
AcDbSpline
 62
7
  6
CONTINUOUS
 70
0
 71
3
 72
11
 73
7
 74
0
 42
0.0000001
 43
0.0000001
 44
0.0000000001
 40
0.0
 40
0.0
 40
0.0
 40
0.0
 40
0.2299587057
 40
0.4693092791
 40
0.7249301827
 40
1.0
 40
1.0
 40
1.0
 40
1.0
 10
97.9693222674
 20
77.6530429581
 30
0.0
 10
97.672605077
 20
77.6530429581
 30
0.0
 10
97.0636191914
 20
77.5608172472
 30
0.0
 10
96.2066184761
 20
77.1591553614
 30
0.0
 10
95.4347495624
 20
76.5192010177
 30
0.0
 10
95.0117676684
 20
75.9737609726
 30
0.0
 10
94.820785826
 20
75.6746000999
 30
0.0
  0
SPLINE
  5
5F8
100
AcDbEntity
  8
0
100
AcDbSpline
 62
7
  6
CONTINUOUS
 70
0
 71
3
 72
9
 73
5
 74
0
 42
0.0000001
 43
0.0000001
 44
0.0000000001
 40
0.0
 40
0.0
 40
0.0
 40
0.0
 40
0.265516907
 40
1.0
 40
1.0
 40
1.0
 40
1.0
 10
241.7321991797
 20
72.1567149386
 30
0.0
 10
241.6126765127
 20
72.28722487
 30
0.0
 10
241.1367501325
 20
72.753007063
 30
0.0
 10
240.5491712891
 20
73.1163563153
 30
0.0
 10
240.0834876796
 20
73.2673211434
 30
0.0
  0
SPLINE
  5
5F9
100
AcDbEntity
  8
02___PRT_ALL_AXES
100
AcDbSpline
 62
7
  6
CONTINUOUS
 70
0
 71
3
 72
10
 73
6
 74
0
 42
0.0000001
 43
0.0000001
 44
0.0000000001
 40
0.0
 40
0.0
 40
0.0
 40
0.0
 40
0.5213415193
 40
0.7650444419
 40
1.0
 40
1.0
 40
1.0
 40
1.0
 10
242.5175651788
 20
73.4701376161
 30
0.0
 10
242.3839981654
 20
73.513437232
 30
0.0
 10
242.1777374631
 20
73.5528835676
 30
0.0
 10
241.9078522211
 20
73.5379409144
 30
0.0
 10
241.7814749405
 20
73.5084571063
 30
0.0
 10
241.7214652435
 20
73.4883795239
 30
0.0
  0
SPLINE
  5
5FA
100
AcDbEntity
  8
0
100
AcDbSpline
 62
7
  6
CONTINUOUS
 70
0
 71
3
 72
9
 73
5
 74
0
 42
0.0000001
 43
0.0000001
 44
0.0000000001
 40
0.0
 40
0.0
 40
0.0
 40
0.0
 40
0.2564539356
 40
1.0
 40
1.0
 40
1.0
 40
1.0
 10
239.7964230501
 20
71.0510001653
 30
0.0
 10
239.7218480916
 20
71.1324343916
 30
0.0
 10
239.4215336184
 20
71.4410175097
 30
0.0
 10
239.0828741417
 20
71.713101796
 30
0.0
 10
238.8132180874
 20
71.8856747273
 30
0.0
  0
SPLINE
  5
5FB
100
AcDbEntity
  8
0
100
AcDbSpline
 62
7
  6
CONTINUOUS
 70
0
 71
3
 72
11
 73
7
 74
0
 42
0.0000001
 43
0.0000001
 44
0.0000000001
 40
0.0
 40
0.0
 40
0.0
 40
0.0
 40
0.2709378731
 40
0.5251652129
 40
0.7662414411
 40
1.0
 40
1.0
 40
1.0
 40
1.0
 10
240.0834876796
 20
73.2673211434
 30
0.0
 10
239.9253861875
 20
73.3185743216
 30
0.0
 10
239.6095747028
 20
73.3923234779
 30
0.0
 10
239.136298526
 20
73.4067302049
 30
0.0
 10
238.6935506771
 20
73.3194973696
 30
0.0
 10
238.4270189489
 20
73.193222314
 30
0.0
 10
238.306319839
 20
73.1158029721
 30
0.0
  0
SPLINE
  5
5FC
100
AcDbEntity
  8
02___PRT_ALL_AXES
100
AcDbSpline
 62
7
  6
CONTINUOUS
 70
0
 71
3
 72
16
 73
12
 74
0
 42
0.0000001
 43
0.0000001
 44
0.0000000001
 40
0.0
 40
0.0
 40
0.0
 40
0.0
 40
0.1219909052
 40
0.253990699
 40
0.3918004409
 40
0.5299727589
 40
0.6629919671
 40
0.7864210538
 40
0.8981352726
 40
0.9500845769
 40
1.0
 40
1.0
 40
1.0
 40
1.0
 10
242.5175651788
 20
73.4701376161
 30
0.0
 10
242.6748291596
 20
73.419155942
 30
0.0
 10
242.9874470643
 20
73.2647385909
 30
0.0
 10
243.4002206221
 20
72.9249220031
 30
0.0
 10
243.75006055
 20
72.4920645175
 30
0.0
 10
244.0105792592
 20
71.9988606722
 30
0.0
 10
244.1621507531
 20
71.4818004741
 30
0.0
 10
244.1928903033
 20
70.9791484709
 30
0.0
 10
244.1103715242
 20
70.591983281
 30
0.0
 10
243.9792944996
 20
70.3324173323
 30
0.0
 10
243.8948532061
 20
70.2219249956
 30
0.0
 10
243.8485994365
 20
70.1725647222
 30
0.0
  0
SPLINE
  5
5FD
100
AcDbEntity
  8
0
100
AcDbSpline
 62
7
  6
CONTINUOUS
 70
0
 71
3
 72
14
 73
10
 74
0
 42
0.0000001
 43
0.0000001
 44
0.0000000001
 40
0.0
 40
0.0
 40
0.0
 40
0.0
 40
0.1054215258
 40
0.2137915795
 40
0.3275283072
 40
0.4481911423
 40
0.5763991422
 40
0.7119145269
 40
1.0
 40
1.0
 40
1.0
 40
1.0
 10
240.1978103523
 20
65.4485179227
 30
0.0
 10
240.3270300576
 20
65.5313953953
 30
0.0
 10
240.5696637222
 20
65.7319637912
 30
0.0
 10
240.8590280066
 20
66.1159270513
 30
0.0
 10
241.0689733247
 20
66.5726205265
 30
0.0
 10
241.1947158074
 20
67.0883507786
 30
0.0
 10
241.2340476426
 20
67.6491739409
 30
0.0
 10
241.1696300002
 20
68.4522754698
 30
0.0
 10
240.9933480759
 20
69.0525894119
 30
0.0
 10
240.8303122699
 20
69.4391189434
 30
0.0
  0
SPLINE
  5
5FE
100
AcDbEntity
  8
0
100
AcDbSpline
 62
7
  6
CONTINUOUS
 70
0
 71
3
 72
12
 73
8
 74
0
 42
0.0000001
 43
0.0000001
 44
0.0000000001
 40
0.0
 40
0.0
 40
0.0
 40
0.0
 40
0.1135302724
 40
0.2284385526
 40
0.4666732306
 40
0.7228244645
 40
1.0
 40
1.0
 40
1.0
 40
1.0
 10
242.0856197292
 20
67.2237126873
 30
0.0
 10
242.1595169429
 20
67.2711121558
 30
0.0
 10
242.301014584
 20
67.3782872114
 30
0.0
 10
242.5528042143
 20
67.6384543131
 30
0.0
 10
242.7998419839
 20
68.0478155485
 30
0.0
 10
242.9663134445
 20
68.626392124
 30
0.0
 10
242.9905950058
 20
69.0415113975
 30
0.0
 10
242.983463807
 20
69.2557312418
 30
0.0
  0
SPLINE
  5
5FF
100
AcDbEntity
  8
0
100
AcDbSpline
 62
7
  6
CONTINUOUS
 70
0
 71
3
 72
9
 73
5
 74
0
 42
0.0000001
 43
0.0000001
 44
0.0000000001
 40
0.0
 40
0.0
 40
0.0
 40
0.0
 40
0.2398242701
 40
1.0
 40
1.0
 40
1.0
 40
1.0
 10
242.983098452
 20
69.2662293982
 30
0.0
 10
242.9787038449
 20
69.3872492577
 30
0.0
 10
242.9341556999
 20
69.890803844
 30
0.0
 10
242.7917214592
 20
70.3837697116
 30
0.0
 10
242.6425440924
 20
70.7374480588
 30
0.0
  0
SPLINE
  5
600
100
AcDbEntity
  8
02___PRT_ALL_AXES
100
AcDbSpline
 62
7
  6
CONTINUOUS
 70
0
 71
3
 72
10
 73
6
 74
0
 42
0.0000001
 43
0.0000001
 44
0.0000000001
 40
0.0
 40
0.0
 40
0.0
 40
0.0
 40
0.5213332987
 40
0.7650406727
 40
1.0
 40
1.0
 40
1.0
 40
1.0
 10
241.4504907299
 20
73.0687054369
 30
0.0
 10
241.2960877099
 20
73.1187596477
 30
0.0
 10
241.0576508961
 20
73.1643704143
 30
0.0
 10
240.7456612154
 20
73.1471137461
 30
0.0
 10
240.5995558154
 20
73.1130660502
 30
0.0
 10
240.5301809258
 20
73.0898606984
 30
0.0
  0
SPLINE
  5
601
100
AcDbEntity
  8
02___PRT_ALL_AXES
100
AcDbSpline
 62
7
  6
CONTINUOUS
 70
0
 71
3
 72
17
 73
13
 74
0
 42
0.0000001
 43
0.0000001
 44
0.0000000001
 40
0.0
 40
0.0
 40
0.0
 40
0.0
 40
0.1219518766
 40
0.2539126528
 40
0.3916797659
 40
0.5298084428
 40
0.662784532
 40
0.7861717522
 40
0.8436286708
 40
0.8981697597
 40
0.950101411
 40
1.0
 40
1.0
 40
1.0
 40
1.0
 10
241.4504907299
 20
73.0687054369
 30
0.0
 10
241.6323356303
 20
73.0097551457
 30
0.0
 10
241.9938219581
 20
72.8311994954
 30
0.0
 10
242.4711061363
 20
72.4382430705
 30
0.0
 10
242.875638276
 20
71.9377491864
 30
0.0
 10
243.1768125925
 20
71.3673215275
 30
0.0
 10
243.3521591738
 20
70.7698369281
 30
0.0
 10
243.3821405253
 20
70.273121688
 30
0.0
 10
243.3276664602
 20
69.9070112377
 30
0.0
 10
243.2515457397
 20
69.6604002149
 30
0.0
 10
243.1405185887
 20
69.440526873
 30
0.0
 10
243.0428499792
 20
69.3128052754
 30
0.0
 10
242.9893626663
 20
69.2557353418
 30
0.0
  0
SPLINE
  5
602
100
AcDbEntity
  8
02___PRT_ALL_AXES
100
AcDbSpline
 62
7
  6
CONTINUOUS
 70
0
 71
3
 72
9
 73
5
 74
0
 42
0.0000001
 43
0.0000001
 44
0.0000000001
 40
0.0
 40
0.0
 40
0.0
 40
0.0
 40
0.5191315508
 40
1.0
 40
1.0
 40
1.0
 40
1.0
 10
241.4565165569
 20
72.9027645451
 30
0.0
 10
241.3390243552
 20
72.9408530451
 30
0.0
 10
241.1041201511
 20
72.991240176
 30
0.0
 10
240.8629819792
 20
72.9808715609
 30
0.0
 10
240.7506908311
 20
72.9589642061
 30
0.0
  0
SPLINE
  5
603
100
AcDbEntity
  8
02___PRT_ALL_AXES
100
AcDbSpline
 62
7
  6
CONTINUOUS
 70
0
 71
3
 72
15
 73
11
 74
0
 42
0.0000001
 43
0.0000001
 44
0.0000000001
 40
0.0
 40
0.0
 40
0.0
 40
0.0
 40
0.1207035564
 40
0.2510475154
 40
0.3873101697
 40
0.5245954362
 40
0.6578230754
 40
0.782679271
 40
0.8966329267
 40
1.0
 40
1.0
 40
1.0
 40
1.0
 10
241.4565165569
 20
72.9027645451
 30
0.0
 10
241.6163174581
 20
72.8509604547
 30
0.0
 10
241.9343041434
 20
72.6963330026
 30
0.0
 10
242.3579765077
 20
72.3574267225
 30
0.0
 10
242.7225640652
 20
71.9250555517
 30
0.0
 10
243.0026839263
 20
71.4293152965
 30
0.0
 10
243.1791048692
 20
70.9043273762
 30
0.0
 10
243.2388299516
 20
70.3855119607
 30
0.0
 10
243.176326051
 20
69.9079326605
 30
0.0
 10
243.0462055395
 20
69.6274214313
 30
0.0
 10
242.9622575089
 20
69.5105947256
 30
0.0
  0
SPLINE
  5
604
100
AcDbEntity
  8
0
100
AcDbSpline
 62
7
  6
CONTINUOUS
 70
0
 71
3
 72
12
 73
8
 74
0
 42
0.0000001
 43
0.0000001
 44
0.0000000001
 40
0.0
 40
0.0
 40
0.0
 40
0.0
 40
0.2771029354
 40
0.5332274637
 40
0.7714929203
 40
0.8864326468
 40
1.0
 40
1.0
 40
1.0
 40
1.0
 10
189.6083461299
 20
25.034261772
 30
0.0
 10
189.6016059873
 20
25.2478841707
 30
0.0
 10
189.626501776
 20
25.6618064162
 30
0.0
 10
189.7933354046
 20
26.2385897562
 30
0.0
 10
190.0401417384
 20
26.646649848
 30
0.0
 10
190.2914645898
 20
26.9060660784
 30
0.0
 10
190.4326549952
 20
27.0129689041
 30
0.0
 10
190.5063853471
 20
27.0602613434
 30
0.0
  0
SPLINE
  5
605
100
AcDbEntity
  8
02___PRT_ALL_AXES
100
AcDbSpline
 62
7
  6
CONTINUOUS
 70
0
 71
3
 72
16
 73
12
 74
0
 42
0.0000001
 43
0.0000001
 44
0.0000000001
 40
0.0
 40
0.0
 40
0.0
 40
0.0
 40
0.1219909052
 40
0.253990699
 40
0.3918004409
 40
0.5299727589
 40
0.6629919671
 40
0.7864210538
 40
0.8981352726
 40
0.9500845769
 40
1.0
 40
1.0
 40
1.0
 40
1.0
 10
190.0744398974
 20
20.8138364145
 30
0.0
 10
189.9171759165
 20
20.8648180887
 30
0.0
 10
189.6045580119
 20
21.0192354398
 30
0.0
 10
189.1917844541
 20
21.3590520275
 30
0.0
 10
188.8419445261
 20
21.7919095131
 30
0.0
 10
188.581425817
 20
22.2851133584
 30
0.0
 10
188.429854323
 20
22.8021735565
 30
0.0
 10
188.3991147728
 20
23.3048255597
 30
0.0
 10
188.481633552
 20
23.6919907496
 30
0.0
 10
188.6127105765
 20
23.9515566983
 30
0.0
 10
188.69715187
 20
24.062049035
 30
0.0
 10
188.7434056396
 20
24.1114093085
 30
0.0
  0
SPLINE
  5
606
100
AcDbEntity
  8
0
100
AcDbSpline
 62
7
  6
CONTINUOUS
 70
0
 71
3
 72
11
 73
7
 74
0
 42
0.0000001
 43
0.0000001
 44
0.0000000001
 40
0.0
 40
0.0
 40
0.0
 40
0.0
 40
0.2620051548
 40
0.5140810674
 40
0.7589425546
 40
1.0
 40
1.0
 40
1.0
 40
1.0
 10
191.5461294391
 20
27.7274589345
 30
0.0
 10
191.5877731493
 20
27.8442350458
 30
0.0
 10
191.6857149027
 20
28.0680597339
 30
0.0
 10
191.8798719127
 20
28.371998939
 30
0.0
 10
192.1153379331
 20
28.632120419
 30
0.0
 10
192.2981791165
 20
28.7738747041
 30
0.0
 10
192.3941947238
 20
28.8354561079
 30
0.0
  0
SPLINE
  5
607
100
AcDbEntity
  8
0
100
AcDbSpline
 62
7
  6
CONTINUOUS
 70
0
 71
3
 72
9
 73
5
 74
0
 42
0.0000001
 43
0.0000001
 44
0.0000000001
 40
0.0
 40
0.0
 40
0.0
 40
0.0
 40
0.2457165293
 40
1.0
 40
1.0
 40
1.0
 40
1.0
 10
192.436662516
 20
21.0409661317
 30
0.0
 10
192.4059804654
 20
21.0517824062
 30
0.0
 10
192.2818272436
 20
21.0978114796
 30
0.0
 10
192.1606017211
 20
21.1516676186
 30
0.0
 10
192.0711698055
 20
21.1961120298
 30
0.0
  0
SPLINE
  5
608
100
AcDbEntity
  8
02___PRT_ALL_AXES
100
AcDbSpline
 62
7
  6
CONTINUOUS
 70
0
 71
3
 72
10
 73
6
 74
0
 42
0.0000001
 43
0.0000001
 44
0.0000000001
 40
0.0
 40
0.0
 40
0.0
 40
0.0
 40
0.5213415193
 40
0.7650444419
 40
1.0
 40
1.0
 40
1.0
 40
1.0
 10
190.0744398974
 20
20.8138364145
 30
0.0
 10
190.2080069108
 20
20.7705367987
 30
0.0
 10
190.4142676131
 20
20.7310904631
 30
0.0
 10
190.684152855
 20
20.7460331162
 30
0.0
 10
190.8105301356
 20
20.7755169243
 30
0.0
 10
190.8705398327
 20
20.7955945068
 30
0.0
  0
SPLINE
  5
609
100
AcDbEntity
  8
0
100
AcDbSpline
 62
7
  6
CONTINUOUS
 70
0
 71
3
 72
10
 73
6
 74
0
 42
0.0000001
 43
0.0000001
 44
0.0000000001
 40
0.0
 40
0.0
 40
0.0
 40
0.0
 40
0.2337481901
 40
0.606355913
 40
1.0
 40
1.0
 40
1.0
 40
1.0
 10
197.6742483673
 20
31.099650521
 30
0.0
 10
197.8431931504
 20
31.0448821769
 30
0.0
 10
198.27054442
 20
30.8678139379
 30
0.0
 10
198.9153893376
 20
30.4570096212
 30
0.0
 10
199.3447191053
 20
30.0588908344
 30
0.0
 10
199.5467128712
 20
29.838318053
 30
0.0
  0
SPLINE
  5
60A
100
AcDbEntity
  8
0
100
AcDbSpline
 62
7
  6
CONTINUOUS
 70
0
 71
3
 72
14
 73
10
 74
0
 42
0.0000001
 43
0.0000001
 44
0.0000000001
 40
0.0
 40
0.0
 40
0.0
 40
0.0
 40
0.288085473
 40
0.4236008578
 40
0.5518088577
 40
0.6724716928
 40
0.7862084205
 40
0.8945784742
 40
1.0
 40
1.0
 40
1.0
 40
1.0
 10
200.5806020908
 20
28.2264368314
 30
0.0
 10
200.7436378969
 20
27.8399072999
 30
0.0
 10
200.9199198212
 20
27.2395933578
 30
0.0
 10
200.9843374637
 20
26.4364918289
 30
0.0
 10
200.9450056286
 20
25.8756686666
 30
0.0
 10
200.8192631459
 20
25.3599384143
 30
0.0
 10
200.6093178279
 20
24.9032449391
 30
0.0
 10
200.3199535435
 20
24.5192816789
 30
0.0
 10
200.0773198789
 20
24.318713283
 30
0.0
 10
199.9481001736
 20
24.2358358104
 30
0.0
  0
SPLINE
  5
60B
100
AcDbEntity
  8
0
100
AcDbSpline
 62
7
  6
CONTINUOUS
 70
0
 71
3
 72
11
 73
7
 74
0
 42
0.0000001
 43
0.0000001
 44
0.0000000001
 40
0.0
 40
0.0
 40
0.0
 40
0.0
 40
0.2412207599
 40
0.4861736318
 40
0.7382147083
 40
1.0
 40
1.0
 40
1.0
 40
1.0
 10
196.6864032702
 20
22.1437204992
 30
0.0
 10
196.5913673919
 20
22.0827674629
 30
0.0
 10
196.3885353279
 20
21.9766172252
 30
0.0
 10
196.0577646119
 20
21.8713212829
 30
0.0
 10
195.7047417275
 20
21.8206891214
 30
0.0
 10
195.4632360091
 20
21.8236484839
 30
0.0
 10
195.341117018
 20
21.8336542353
 30
0.0
  0
SPLINE
  5
60C
100
AcDbEntity
  8
02___PRT_ALL_AXES
100
AcDbSpline
 62
7
  6
CONTINUOUS
 70
0
 71
3
 72
11
 73
7
 74
0
 42
0.0000001
 43
0.0000001
 44
0.0000000001
 40
0.0
 40
0.0
 40
0.0
 40
0.0
 40
0.2337609439
 40
0.4748286161
 40
0.7290728941
 40
1.0
 40
1.0
 40
1.0
 40
1.0
 10
189.0922334677
 20
24.0147454876
 30
0.0
 10
189.150864237
 20
24.0523590667
 30
0.0
 10
189.2803281538
 20
24.1137190406
 30
0.0
 10
189.4954060316
 20
24.1561197874
 30
0.0
 10
189.7253135613
 20
24.1491204631
 30
0.0
 10
189.8787309412
 20
24.1133000645
 30
0.0
 10
189.955530244
 20
24.0884033462
 30
0.0
  0
SPLINE
  5
60D
100
AcDbEntity
  8
02___PRT_ALL_AXES
100
AcDbSpline
 62
7
  6
CONTINUOUS
 70
0
 71
3
 72
11
 73
7
 74
0
 42
0.0000001
 43
0.0000001
 44
0.0000000001
 40
0.0
 40
0.0
 40
0.0
 40
0.0
 40
0.2364816598
 40
0.4754195705
 40
0.727584818
 40
1.0
 40
1.0
 40
1.0
 40
1.0
 10
189.6026424099
 20
25.0282386889
 30
0.0
 10
189.683250377
 20
25.1142458386
 30
0.0
 10
189.8733726067
 20
25.2634206738
 30
0.0
 10
190.2202578835
 20
25.3874633935
 30
0.0
 10
190.6052234176
 20
25.4054132852
 30
0.0
 10
190.8637071979
 20
25.3503514814
 30
0.0
 10
190.9928772796
 20
25.3084772584
 30
0.0
  0
SPLINE
  5
60E
100
AcDbEntity
  8
0
100
AcDbSpline
 62
7
  6
CONTINUOUS
 70
0
 71
3
 72
11
 73
7
 74
0
 42
0.0000001
 43
0.0000001
 44
0.0000000001
 40
0.0
 40
0.0
 40
0.0
 40
0.0
 40
0.2337585589
 40
0.4748347871
 40
0.729062127
 40
1.0
 40
1.0
 40
1.0
 40
1.0
 10
194.285685237
 20
21.1681710585
 30
0.0
 10
194.1649861271
 20
21.0907517166
 30
0.0
 10
193.8984543988
 20
20.964476661
 30
0.0
 10
193.45570655
 20
20.8772438258
 30
0.0
 10
192.9824303732
 20
20.8916505528
 30
0.0
 10
192.6666188887
 20
20.9653997091
 30
0.0
 10
192.5085173966
 20
21.0166528872
 30
0.0
  0
SPLINE
  5
60F
100
AcDbEntity
  8
0
100
AcDbSpline
 62
7
  6
CONTINUOUS
 70
0
 71
3
 72
11
 73
7
 74
0
 42
0.0000001
 43
0.0000001
 44
0.0000000001
 40
0.0
 40
0.0
 40
0.0
 40
0.0
 40
0.2337588688
 40
0.474834939
 40
0.7290614121
 40
1.0
 40
1.0
 40
1.0
 40
1.0
 10
195.655891627
 20
30.9275714189
 30
0.0
 10
195.7929750067
 20
31.0154924059
 30
0.0
 10
196.0956756753
 20
31.1589094427
 30
0.0
 10
196.5985120185
 20
31.2579775268
 30
0.0
 10
197.1360179223
 20
31.2416177258
 30
0.0
 10
197.494689731
 20
31.1578596539
 30
0.0
 10
197.6742483673
 20
31.099650521
 30
0.0
  0
SPLINE
  5
610
100
AcDbEntity
  8
02___PRT_ALL_AXES
100
AcDbSpline
 62
7
  6
CONTINUOUS
 70
0
 71
3
 72
18
 73
14
 74
0
 42
0.0000001
 43
0.0000001
 44
0.0000000001
 40
0.0
 40
0.0
 40
0.0
 40
0.0
 40
0.0493414346
 40
0.0998548204
 40
0.152530917
 40
0.2080607517
 40
0.2667935373
 40
0.3287528132
 40
0.460863309
 40
0.600277966
 40
0.7407253579
 40
0.8756900132
 40
1.0
 40
1.0
 40
1.0
 40
1.0
 10
190.9280953504
 20
21.1529997
 30
0.0
 10
190.9788086515
 20
21.1855339612
 30
0.0
 10
191.0744451434
 20
21.2630165835
 30
0.0
 10
191.1915425655
 20
21.4095164215
 30
0.0
 10
191.2805359286
 20
21.5830422391
 30
0.0
 10
191.3396011697
 20
21.7791839446
 30
0.0
 10
191.3677535104
 20
21.9933849896
 30
0.0
 10
191.363410698
 20
22.302942051
 30
0.0
 10
191.2766585045
 20
22.7053252811
 30
0.0
 10
191.0637225993
 20
23.1650557486
 30
0.0
 10
190.7580672595
 20
23.5738424973
 30
0.0
 10
190.3863828129
 20
23.8960396168
 30
0.0
 10
190.0999302823
 20
24.0415918916
 30
0.0
 10
189.955530244
 20
24.0884033462
 30
0.0
  0
SPLINE
  5
611
100
AcDbEntity
  8
02___PRT_ALL_AXES
100
AcDbSpline
 62
7
  6
CONTINUOUS
 70
0
 71
3
 72
19
 73
15
 74
0
 42
0.0000001
 43
0.0000001
 44
0.0000000001
 40
0.0
 40
0.0
 40
0.0
 40
0.0
 40
0.050114039
 40
0.1001339353
 40
0.151424692
 40
0.2051281812
 40
0.2620069848
 40
0.3223977475
 40
0.4528488537
 40
0.5928793767
 40
0.7355691863
 40
0.8056186474
 40
0.8735354025
 40
1.0
 40
1.0
 40
1.0
 40
1.0
 10
192.0618241503
 20
21.1941133323
 30
0.0
 10
192.1452192123
 20
21.2220083209
 30
0.0
 10
192.3062158789
 20
21.2969682388
 30
0.0
 10
192.5158103936
 20
21.4641033303
 30
0.0
 10
192.6854344365
 20
21.6796695211
 30
0.0
 10
192.8105689543
 20
21.9368151697
 30
0.0
 10
192.8886077974
 20
22.2281999779
 30
0.0
 10
192.9288892624
 20
22.6627233527
 30
0.0
 10
192.8488981108
 20
23.2459386014
 30
0.0
 10
192.5769767225
 20
23.9243903843
 30
0.0
 10
192.221869024
 20
24.4384587994
 30
0.0
 10
191.8754594633
 20
24.7901219835
 30
0.0
 10
191.5118503232
 20
25.0792307599
 30
0.0
 10
191.2039735719
 20
25.2400442814
 30
0.0
 10
190.9928772796
 20
25.3084772584
 30
0.0
  0
SPLINE
  5
612
100
AcDbEntity
  8
0
100
AcDbSpline
 62
7
  6
CONTINUOUS
 70
0
 71
3
 72
19
 73
15
 74
0
 42
0.0000001
 43
0.0000001
 44
0.0000000001
 40
0.0
 40
0.0
 40
0.0
 40
0.0
 40
0.1242896305
 40
0.1908233551
 40
0.2594648123
 40
0.3998930345
 40
0.5392877177
 40
0.606699287
 40
0.6716189484
 40
0.79197225
 40
0.8474928911
 40
0.9001603943
 40
0.9506657348
 40
1.0
 40
1.0
 40
1.0
 40
1.0
 10
192.2835531875
 20
27.2117795147
 30
0.0
 10
192.5808525257
 20
27.1154013229
 30
0.0
 10
193.0155755723
 20
26.8945422222
 30
0.0
 10
193.5353909976
 20
26.499123387
 30
0.0
 10
194.0363760906
 20
26.0181330175
 30
0.0
 10
194.5651341818
 20
25.3107968559
 30
0.0
 10
194.9350357268
 20
24.5119832993
 30
0.0
 10
195.1140260859
 20
23.8509419298
 30
0.0
 10
195.2057377957
 20
23.2213757709
 30
0.0
 10
195.1779175894
 20
22.6062004069
 30
0.0
 10
195.0114380297
 20
22.0535123343
 30
0.0
 10
194.8281638689
 20
21.6962228322
 30
0.0
 10
194.5870440489
 20
21.3946323553
 30
0.0
 10
194.3901038703
 20
21.2351477071
 30
0.0
 10
194.285685237
 20
21.1681710585
 30
0.0
  0
SPLINE
  5
613
100
AcDbEntity
  8
0
100
AcDbSpline
 62
7
  6
CONTINUOUS
 70
0
 71
3
 72
19
 73
15
 74
0
 42
0.0000001
 43
0.0000001
 44
0.0000000001
 40
0.0
 40
0.0
 40
0.0
 40
0.0
 40
0.1242891427
 40
0.1908234036
 40
0.2594646167
 40
0.3998928502
 40
0.5392875446
 40
0.6066991317
 40
0.6716188166
 40
0.791972173
 40
0.8474928406
 40
0.9001603673
 40
0.9506657323
 40
1.0
 40
1.0
 40
1.0
 40
1.0
 10
194.412551464
 20
29.0075352099
 30
0.0
 10
194.7501973755
 20
28.8980775078
 30
0.0
 10
195.2439176312
 20
28.6472427742
 30
0.0
 10
195.8342818739
 20
28.1981635699
 30
0.0
 10
196.4032569995
 20
27.6518932605
 30
0.0
 10
197.0037765219
 20
26.8485631839
 30
0.0
 10
197.4238793132
 20
25.941338619
 30
0.0
 10
197.6271617327
 20
25.1905841851
 30
0.0
 10
197.7313203855
 20
24.475576417
 30
0.0
 10
197.6997249351
 20
23.7769122267
 30
0.0
 10
197.5106514834
 20
23.1492162243
 30
0.0
 10
197.3025048687
 20
22.7434361886
 30
0.0
 10
197.0286594164
 20
22.4009183535
 30
0.0
 10
196.8049960528
 20
22.2197821964
 30
0.0
 10
196.6864032702
 20
22.1437204992
 30
0.0
  0
SPLINE
  5
614
100
AcDbEntity
  8
0
100
AcDbSpline
 62
7
  6
CONTINUOUS
 70
0
 71
3
 72
21
 73
17
 74
0
 42
0.0000001
 43
0.0000001
 44
0.0000000001
 40
0.0
 40
0.0
 40
0.0
 40
0.0
 40
0.1289405017
 40
0.1984962686
 40
0.2701504256
 40
0.4149204083
 40
0.485943937
 40
0.554506165
 40
0.6197585397
 40
0.6811773628
 40
0.7386761151
 40
0.7927043105
 40
0.844285318
 40
0.8949195917
 40
0.9463113225
 40
1.0
 40
1.0
 40
1.0
 40
1.0
 10
194.3553634439
 20
28.8802905248
 30
0.0
 10
194.7467030275
 20
28.7534264661
 30
0.0
 10
195.3150597158
 20
28.444036434
 30
0.0
 10
195.9730397222
 20
27.8855124805
 30
0.0
 10
196.5871666714
 20
27.2076072345
 30
0.0
 10
197.0713415372
 20
26.415281571
 30
0.0
 10
197.3904005491
 20
25.5638601774
 30
0.0
 10
197.5361531979
 20
24.9244810359
 30
0.0
 10
197.5847319207
 20
24.3010275069
 30
0.0
 10
197.5340818033
 20
23.7126215954
 30
0.0
 10
197.3846601117
 20
23.1776464428
 30
0.0
 10
197.1394836351
 20
22.7135289942
 30
0.0
 10
196.8048178294
 20
22.3370100721
 30
0.0
 10
196.3915496727
 20
22.0631992079
 30
0.0
 10
195.9159033852
 20
21.9028048114
 30
0.0
 10
195.5783078564
 20
21.8751503693
 30
0.0
 10
195.4070587682
 20
21.8791442568
 30
0.0
  0
SPLINE
  5
615
100
AcDbEntity
  8
0
100
AcDbSpline
 62
7
  6
CONTINUOUS
 70
0
 71
3
 72
14
 73
10
 74
0
 42
0.0000001
 43
0.0000001
 44
0.0000000001
 40
0.0
 40
0.0
 40
0.0
 40
0.0
 40
0.1261030032
 40
0.2474501866
 40
0.3661528175
 40
0.4846805398
 40
0.605528674
 40
0.7308718035
 40
1.0
 40
1.0
 40
1.0
 40
1.0
 10
191.6217346105
 20
27.7864953834
 30
0.0
 10
191.6760605275
 20
27.9120273034
 30
0.0
 10
191.8037488064
 20
28.150055773
 30
0.0
 10
192.055445225
 20
28.4604428553
 30
0.0
 10
192.3580707873
 20
28.7091463116
 30
0.0
 10
192.7048031607
 20
28.8901433231
 30
0.0
 10
193.0877716537
 20
28.9994839007
 30
0.0
 10
193.6472108499
 20
29.0486123896
 30
0.0
 10
194.0776694826
 20
28.9703130661
 30
0.0
 10
194.3553634439
 20
28.8802905248
 30
0.0
  0
SPLINE
  5
616
100
AcDbEntity
  8
02___PRT_ALL_AXES
100
AcDbSpline
 62
7
  6
CONTINUOUS
 70
0
 71
3
 72
18
 73
14
 74
0
 42
0.0000001
 43
0.0000001
 44
0.0000000001
 40
0.0
 40
0.0
 40
0.0
 40
0.0
 40
0.1243099868
 40
0.2592746421
 40
0.399722034
 40
0.539136691
 40
0.6712471868
 40
0.7332064627
 40
0.7919392483
 40
0.847469083
 40
0.9001451796
 40
0.9506585654
 40
1.0
 40
1.0
 40
1.0
 40
1.0
 10
190.0647985741
 20
21.0793418414
 30
0.0
 10
189.9203985358
 20
21.126153296
 30
0.0
 10
189.6339460052
 20
21.2717055708
 30
0.0
 10
189.2622615587
 20
21.5939026903
 30
0.0
 10
188.9566062189
 20
22.002689439
 30
0.0
 10
188.7436703137
 20
22.4624199064
 30
0.0
 10
188.6569181201
 20
22.8648031366
 30
0.0
 10
188.6525753078
 20
23.174360198
 30
0.0
 10
188.6807276484
 20
23.388561243
 30
0.0
 10
188.7397928895
 20
23.5847029485
 30
0.0
 10
188.8287862527
 20
23.7582287661
 30
0.0
 10
188.9458836748
 20
23.9047286041
 30
0.0
 10
189.0415201666
 20
23.9822112263
 30
0.0
 10
189.0922334677
 20
24.0147454876
 30
0.0
  0
SPLINE
  5
617
100
AcDbEntity
  8
02___PRT_ALL_AXES
100
AcDbSpline
 62
7
  6
CONTINUOUS
 70
0
 71
3
 72
17
 73
13
 74
0
 42
0.0000001
 43
0.0000001
 44
0.0000000001
 40
0.0
 40
0.0
 40
0.0
 40
0.0
 40
0.0493910555
 40
0.0996098334
 40
0.1513933403
 40
0.2053190849
 40
0.320672026
 40
0.4467325206
 40
0.5816502063
 40
0.7218433214
 40
0.8628301837
 40
1.0
 40
1.0
 40
1.0
 40
1.0
 10
196.3695350027
 20
22.5047924947
 30
0.0
 10
196.4567304346
 20
22.5607207223
 30
0.0
 10
196.6225673693
 20
22.690032253
 30
0.0
 10
196.8347711093
 20
22.9283467558
 30
0.0
 10
197.0080764148
 20
23.2075094761
 30
0.0
 10
197.1875773415
 20
23.6368139336
 30
0.0
 10
197.2956955809
 20
24.2550805569
 30
0.0
 10
197.2425143202
 20
25.0485777936
 30
0.0
 10
197.0166696087
 20
25.8645215193
 30
0.0
 10
196.6326404016
 20
26.6533694571
 30
0.0
 10
196.1146953489
 20
27.366863463
 30
0.0
 10
195.6904137983
 20
27.773203385
 30
0.0
 10
195.463757353
 20
27.9503885885
 30
0.0
  0
SPLINE
  5
618
100
AcDbEntity
  8
02___PRT_ALL_AXES
100
AcDbSpline
 62
7
  6
CONTINUOUS
 70
0
 71
3
 72
9
 73
5
 74
0
 42
0.0000001
 43
0.0000001
 44
0.0000000001
 40
0.0
 40
0.0
 40
0.0
 40
0.0
 40
0.2617872773
 40
1.0
 40
1.0
 40
1.0
 40
1.0
 10
195.463757353
 20
27.9503885885
 30
0.0
 10
195.3776642449
 20
28.0176905567
 30
0.0
 10
195.0392786611
 20
28.2619793308
 30
0.0
 10
194.6605480455
 20
28.4533812064
 30
0.0
 10
194.367415098
 20
28.5484087412
 30
0.0
  0
SPLINE
  5
619
100
AcDbEntity
  8
02___PRT_ALL_AXES
100
AcDbSpline
 62
7
  6
CONTINUOUS
 70
0
 71
3
 72
11
 73
7
 74
0
 42
0.0000001
 43
0.0000001
 44
0.0000000001
 40
0.0
 40
0.0
 40
0.0
 40
0.0
 40
0.2364846241
 40
0.4754220797
 40
0.7275841942
 40
1.0
 40
1.0
 40
1.0
 40
1.0
 10
188.7434056396
 20
24.1114093085
 30
0.0
 10
188.8131245079
 20
24.1858106477
 30
0.0
 10
188.9775476851
 20
24.3148806834
 30
0.0
 10
189.2775894033
 20
24.4222067615
 30
0.0
 10
189.6105752899
 20
24.4377549568
 30
0.0
 10
189.8341590859
 20
24.390129235
 30
0.0
 10
189.9458889208
 20
24.3539087731
 30
0.0
  0
SPLINE
  5
61A
100
AcDbEntity
  8
0
100
AcDbSpline
 62
7
  6
CONTINUOUS
 70
0
 71
3
 72
9
 73
5
 74
0
 42
0.0000001
 43
0.0000001
 44
0.0000000001
 40
0.0
 40
0.0
 40
0.0
 40
0.0
 40
0.2456474727
 40
1.0
 40
1.0
 40
1.0
 40
1.0
 10
192.4449018276
 20
21.06641182
 30
0.0
 10
192.4155690264
 20
21.075920897
 30
0.0
 10
192.2967916026
 20
21.116565895
 30
0.0
 10
192.1806163629
 20
21.1647397636
 30
0.0
 10
192.0947924832
 20
21.2047510012
 30
0.0
  0
SPLINE
  5
61B
100
AcDbEntity
  8
02___PRT_ALL_AXES
100
AcDbSpline
 62
7
  6
CONTINUOUS
 70
0
 71
3
 72
11
 73
7
 74
0
 42
0.0000001
 43
0.0000001
 44
0.0000000001
 40
0.0
 40
0.0
 40
0.0
 40
0.0
 40
0.2337589789
 40
0.4748329479
 40
0.7290684347
 40
1.0
 40
1.0
 40
1.0
 40
1.0
 10
191.1883772088
 20
25.8641676637
 30
0.0
 10
191.2616572917
 20
25.9111695121
 30
0.0
 10
191.4234786315
 20
25.9878239638
 30
0.0
 10
191.6922829557
 20
26.0407836033
 30
0.0
 10
191.9796193527
 20
26.0320262635
 30
0.0
 10
192.1713560552
 20
25.9872529974
 30
0.0
 10
192.2673407912
 20
25.9561367653
 30
0.0
  0
SPLINE
  5
61C
100
AcDbEntity
  8
0
100
AcDbSpline
 62
7
  6
CONTINUOUS
 70
0
 71
3
 72
11
 73
7
 74
0
 42
0.0000001
 43
0.0000001
 44
0.0000000001
 40
0.0
 40
0.0
 40
0.0
 40
0.0
 40
0.2337585589
 40
0.4748347871
 40
0.729062127
 40
1.0
 40
1.0
 40
1.0
 40
1.0
 10
190.5063853471
 20
27.0602613434
 30
0.0
 10
190.627084457
 20
27.1376806853
 30
0.0
 10
190.8936161852
 20
27.263955741
 30
0.0
 10
191.3363640341
 20
27.351188576
 30
0.0
 10
191.809640211
 20
27.3367818495
 30
0.0
 10
192.1254516952
 20
27.263032692
 30
0.0
 10
192.2835531875
 20
27.2117795147
 30
0.0
  0
SPLINE
  5
61D
100
AcDbEntity
  8
02___PRT_ALL_AXES
100
AcDbSpline
 62
7
  6
CONTINUOUS
 70
0
 71
3
 72
11
 73
7
 74
0
 42
0.0000001
 43
0.0000001
 44
0.0000000001
 40
0.0
 40
0.0
 40
0.0
 40
0.0
 40
0.2337585112
 40
0.4748348023
 40
0.7290621856
 40
1.0
 40
1.0
 40
1.0
 40
1.0
 10
192.5902594023
 20
28.3968983602
 30
0.0
 10
192.710958203
 20
28.4743160626
 30
0.0
 10
192.9774887461
 20
28.6005881192
 30
0.0
 10
193.4202335231
 20
28.6878181096
 30
0.0
 10
193.8935059399
 20
28.6734102904
 30
0.0
 10
194.2093148707
 20
28.5996615088
 30
0.0
 10
194.367415098
 20
28.5484087412
 30
0.0
  0
SPLINE
  5
61E
100
AcDbEntity
  8
0
100
AcDbSpline
 62
7
  6
CONTINUOUS
 70
0
 71
3
 72
11
 73
7
 74
0
 42
0.0000001
 43
0.0000001
 44
0.0000000001
 40
0.0
 40
0.0
 40
0.0
 40
0.0
 40
0.2337588689
 40
0.4748349392
 40
0.7290614123
 40
1.0
 40
1.0
 40
1.0
 40
1.0
 10
192.3941947238
 20
28.8354561079
 30
0.0
 10
192.5312781036
 20
28.923377095
 30
0.0
 10
192.8339787724
 20
29.0667941318
 30
0.0
 10
193.3368151157
 20
29.1658622157
 30
0.0
 10
193.8743210194
 20
29.1495024153
 30
0.0
 10
194.2329928275
 20
29.065744342
 30
0.0
 10
194.412551464
 20
29.0075352099
 30
0.0
  0
SPLINE
  5
61F
100
AcDbEntity
  8
0
100
AcDbSpline
 62
7
  6
CONTINUOUS
 70
0
 71
3
 72
22
 73
18
 74
0
 42
0.0000001
 43
0.0000001
 44
0.0000000001
 40
0.0
 40
0.0
 40
0.0
 40
0.0
 40
0.1301992853
 40
0.2006750761
 40
0.2731466231
 40
0.3462594053
 40
0.4185974145
 40
0.4888181756
 40
0.5557895368
 40
0.6187349153
 40
0.6773878783
 40
0.7321370019
 40
0.7841010203
 40
0.8350229368
 40
0.8869067592
 40
0.9415117328
 40
1.0
 40
1.0
 40
1.0
 40
1.0
 10
192.2263651674
 20
27.0845348296
 30
0.0
 10
192.5995508827
 20
26.9635558732
 30
0.0
 10
193.1393892074
 20
26.6588530978
 30
0.0
 10
193.7522818959
 20
26.1080416918
 30
0.0
 10
194.1728116891
 20
25.6079004256
 30
0.0
 10
194.5247550879
 20
25.0513291123
 30
0.0
 10
194.7957358864
 20
24.4583994256
 30
0.0
 10
194.975583002
 20
23.8508909725
 30
0.0
 10
195.0575106488
 20
23.2508403355
 30
0.0
 10
195.0379337177
 20
22.6798772641
 30
0.0
 10
194.9163520897
 20
22.1586212901
 30
0.0
 10
194.6951643472
 20
21.7066915646
 30
0.0
 10
194.3804243805
 20
21.3431832735
 30
0.0
 10
193.9841098508
 20
21.0856705842
 30
0.0
 10
193.5245820958
 20
20.9462243165
 30
0.0
 10
193.023018762
 20
20.9285863963
 30
0.0
 10
192.6856526565
 20
20.9943520469
 30
0.0
 10
192.5166204917
 20
21.0442097422
 30
0.0
  0
SPLINE
  5
620
100
AcDbEntity
  8
02___PRT_ALL_AXES
100
AcDbSpline
 62
7
  6
CONTINUOUS
 70
0
 71
3
 72
18
 73
14
 74
0
 42
0.0000001
 43
0.0000001
 44
0.0000000001
 40
0.0
 40
0.0
 40
0.0
 40
0.0
 40
0.0493416867
 40
0.0998545223
 40
0.1525296835
 40
0.2080582754
 40
0.2667895221
 40
0.3287473322
 40
0.4608569537
 40
0.6002726263
 40
0.7407216166
 40
0.8756897396
 40
1.0
 40
1.0
 40
1.0
 40
1.0
 10
193.4828897863
 20
22.2867789859
 30
0.0
 10
193.5462881744
 20
22.3274427148
 30
0.0
 10
193.6658641989
 20
22.4242663905
 30
0.0
 10
193.8122656152
 20
22.6073803048
 30
0.0
 10
193.9235364636
 20
22.82427884
 30
0.0
 10
193.9973919799
 20
23.0694542825
 30
0.0
 10
194.032607418
 20
23.337206779
 30
0.0
 10
194.0272140123
 20
23.7241636785
 30
0.0
 10
193.9188014447
 20
24.2271704368
 30
0.0
 10
193.6526307539
 20
24.8018653305
 30
0.0
 10
193.2705578858
 20
25.3128900083
 30
0.0
 10
192.8059334994
 20
25.7156673501
 30
0.0
 10
192.4478486524
 20
25.8976199142
 30
0.0
 10
192.2673407912
 20
25.9561367653
 30
0.0
  0
SPLINE
  5
621
100
AcDbEntity
  8
02___PRT_ALL_AXES
100
AcDbSpline
 62
7
  6
CONTINUOUS
 70
0
 71
3
 72
11
 73
7
 74
0
 42
0.0000001
 43
0.0000001
 44
0.0000000001
 40
0.0
 40
0.0
 40
0.0
 40
0.0
 40
0.2709271059
 40
0.5251713839
 40
0.7662390561
 40
1.0
 40
1.0
 40
1.0
 40
1.0
 10
190.0647985741
 20
21.0793418414
 30
0.0
 10
190.141597877
 20
21.0544451231
 30
0.0
 10
190.2950152569
 20
21.0186247245
 30
0.0
 10
190.5249227865
 20
21.0116254002
 30
0.0
 10
190.7400006643
 20
21.0540261469
 30
0.0
 10
190.8694645812
 20
21.1153861209
 30
0.0
 10
190.9280953504
 20
21.1529997
 30
0.0
  0
SPLINE
  5
622
100
AcDbEntity
  8
0
100
AcDbSpline
 62
7
  6
CONTINUOUS
 70
0
 71
3
 72
15
 73
11
 74
0
 42
0.0000001
 43
0.0000001
 44
0.0000000001
 40
0.0
 40
0.0
 40
0.0
 40
0.0
 40
0.1398963337
 40
0.2702831201
 40
0.3923658329
 40
0.5089297513
 40
0.6240025704
 40
0.7419804558
 40
0.866547675
 40
1.0
 40
1.0
 40
1.0
 40
1.0
 10
189.6259936528
 20
25.0542463648
 30
0.0
 10
189.6248964423
 20
25.2384235277
 30
0.0
 10
189.6526818834
 20
25.5955626861
 30
0.0
 10
189.7948403356
 20
26.0961508006
 30
0.0
 10
190.0330092972
 20
26.5252715338
 30
0.0
 10
190.3603445027
 20
26.8645571928
 30
0.0
 10
190.7640409714
 20
27.0979577856
 30
0.0
 10
191.2257401754
 20
27.2152950093
 30
0.0
 10
191.7251937727
 20
27.2141356636
 30
0.0
 10
192.0592314477
 20
27.1387160661
 30
0.0
 10
192.2263651674
 20
27.0845348296
 30
0.0
  0
SPLINE
  5
623
100
AcDbEntity
  8
02___PRT_ALL_AXES
100
AcDbSpline
 62
7
  6
CONTINUOUS
 70
0
 71
3
 72
18
 73
14
 74
0
 42
0.0000001
 43
0.0000001
 44
0.0000000001
 40
0.0
 40
0.0
 40
0.0
 40
0.0
 40
0.0501262615
 40
0.1001588261
 40
0.1514634051
 40
0.205181691
 40
0.2620762245
 40
0.3224835848
 40
0.4529700145
 40
0.5930369367
 40
0.7357619885
 40
0.8735028582
 40
1.0
 40
1.0
 40
1.0
 40
1.0
 10
190.8705398327
 20
20.7955945068
 30
0.0
 10
190.9426598805
 20
20.8197238771
 30
0.0
 10
191.0818799331
 20
20.8845838975
 30
0.0
 10
191.2631203864
 20
21.0291539923
 30
0.0
 10
191.4097928141
 20
21.215604205
 30
0.0
 10
191.5179905958
 20
21.4380071473
 30
0.0
 10
191.5854614793
 20
21.6900155825
 30
0.0
 10
191.6202733991
 20
22.0658163607
 30
0.0
 10
191.5510759062
 20
22.5701752524
 30
0.0
 10
191.3158526557
 20
23.1570264557
 30
0.0
 10
190.9499500673
 20
23.686431253
 30
0.0
 10
190.4897508241
 20
24.1059716681
 30
0.0
 10
190.1284518493
 20
24.2947257123
 30
0.0
 10
189.9458889208
 20
24.3539087731
 30
0.0
  0
SPLINE
  5
624
100
AcDbEntity
  8
0
100
AcDbSpline
 62
7
  6
CONTINUOUS
 70
0
 71
3
 72
14
 73
10
 74
0
 42
0.0000001
 43
0.0000001
 44
0.0000000001
 40
0.0
 40
0.0
 40
0.0
 40
0.0
 40
0.1039309725
 40
0.218474572
 40
0.3437664595
 40
0.4772129898
 40
0.6145260905
 40
0.7507010828
 40
1.0
 40
1.0
 40
1.0
 40
1.0
 10
208.0073338073
 20
47.6718430737
 30
0.0
 10
208.0692465481
 20
47.7624286881
 30
0.0
 10
208.1640273774
 20
47.9781404398
 30
0.0
 10
208.2065235271
 20
48.3425623901
 30
0.0
 10
208.1571294789
 20
48.7368843993
 30
0.0
 10
208.0203472033
 20
49.1346944988
 30
0.0
 10
207.8053918741
 20
49.5100460011
 30
0.0
 10
207.4477371263
 20
49.9315901617
 30
0.0
 10
207.0942618702
 20
50.1675854453
 30
0.0
 10
206.8438987664
 20
50.2487478966
 30
0.0
  0
SPLINE
  5
625
100
AcDbEntity
  8
02___PRT_ALL_AXES
100
AcDbSpline
 62
7
  6
CONTINUOUS
 70
0
 71
3
 72
11
 73
7
 74
0
 42
0.0000001
 43
0.0000001
 44
0.0000000001
 40
0.0
 40
0.0
 40
0.0
 40
0.0
 40
0.2709165422
 40
0.5251765644
 40
0.7662372212
 40
1.0
 40
1.0
 40
1.0
 40
1.0
 10
208.9346617096
 20
52.2463866761
 30
0.0
 10
208.8285090926
 20
52.2807991214
 30
0.0
 10
208.6164440096
 20
52.3303076717
 30
0.0
 10
208.2986519818
 20
52.3400015672
 30
0.0
 10
208.0013558001
 20
52.2813875375
 30
0.0
 10
207.8223956874
 20
52.1965930883
 30
0.0
 10
207.7413500711
 20
52.1446038174
 30
0.0
  0
SPLINE
  5
626
100
AcDbEntity
  8
0
100
AcDbSpline
 62
7
  6
CONTINUOUS
 70
0
 71
3
 72
9
 73
5
 74
0
 42
0.0000001
 43
0.0000001
 44
0.0000000001
 40
0.0
 40
0.0
 40
0.0
 40
0.0
 40
0.5184589603
 40
1.0
 40
1.0
 40
1.0
 40
1.0
 10
206.8438987664
 20
50.2487478966
 30
0.0
 10
206.7575101931
 20
50.2767532546
 30
0.0
 10
206.5848528596
 20
50.3144709387
 30
0.0
 10
206.4074609869
 20
50.3096562425
 30
0.0
 10
206.3243226544
 20
50.2954227837
 30
0.0
  0
SPLINE
  5
627
100
AcDbEntity
  8
02___PRT_ALL_AXES
100
AcDbSpline
 62
7
  6
CONTINUOUS
 70
0
 71
3
 72
16
 73
12
 74
0
 42
0.0000001
 43
0.0000001
 44
0.0000000001
 40
0.0
 40
0.0
 40
0.0
 40
0.0
 40
0.1244071246
 40
0.2594738717
 40
0.4000292877
 40
0.539550548
 40
0.6717617495
 40
0.7922254281
 40
0.9000696583
 40
0.9506212168
 40
1.0
 40
1.0
 40
1.0
 40
1.0
 10
208.9346617096
 20
52.2463866761
 30
0.0
 10
209.1342802418
 20
52.1816745475
 30
0.0
 10
209.5302635362
 20
51.9804659093
 30
0.0
 10
210.0440825177
 20
51.535050062
 30
0.0
 10
210.4665678802
 20
50.9700088861
 30
0.0
 10
210.7610219155
 20
50.33423446
 30
0.0
 10
210.9016212245
 20
49.6814346099
 30
0.0
 10
210.874748092
 20
49.0660874123
 30
0.0
 10
210.7017406099
 20
48.6161363726
 30
0.0
 10
210.4813341176
 20
48.3406791061
 30
0.0
 10
210.3491267111
 20
48.2335562
 30
0.0
 10
210.2790207455
 20
48.1885845136
 30
0.0
  0
SPLINE
  5
628
100
AcDbEntity
  8
02___PRT_ALL_AXES
100
AcDbSpline
 62
7
  6
CONTINUOUS
 70
0
 71
3
 72
11
 73
7
 74
0
 42
0.0000001
 43
0.0000001
 44
0.0000000001
 40
0.0
 40
0.0
 40
0.0
 40
0.0
 40
0.2337627788
 40
0.4748234356
 40
0.7290834578
 40
1.0
 40
1.0
 40
1.0
 40
1.0
 10
208.1649579378
 20
46.832583849
 30
0.0
 10
208.0839123215
 20
46.7805945781
 30
0.0
 10
207.9049522088
 20
46.6958001289
 30
0.0
 10
207.6076560271
 20
46.6371860991
 30
0.0
 10
207.2898639993
 20
46.6468799947
 30
0.0
 10
207.0777989163
 20
46.696388545
 30
0.0
 10
206.9716462994
 20
46.7308009902
 30
0.0
  0
SPLINE
  5
629
100
AcDbEntity
  8
02___PRT_ALL_AXES
100
AcDbSpline
 62
7
  6
CONTINUOUS
 70
0
 71
3
 72
16
 73
12
 74
0
 42
0.0000001
 43
0.0000001
 44
0.0000000001
 40
0.0
 40
0.0
 40
0.0
 40
0.0
 40
0.0493787832
 40
0.0999303417
 40
0.2077745719
 40
0.3282382505
 40
0.460449452
 40
0.5999707123
 40
0.7405261283
 40
0.8755928754
 40
1.0
 40
1.0
 40
1.0
 40
1.0
 10
205.6272872634
 20
50.7886031528
 30
0.0
 10
205.5571812978
 20
50.7436314664
 30
0.0
 10
205.4249738913
 20
50.6365085603
 30
0.0
 10
205.204567399
 20
50.3610512937
 30
0.0
 10
205.0315599169
 20
49.9111002541
 30
0.0
 10
205.0046867844
 20
49.2957530565
 30
0.0
 10
205.1452860934
 20
48.6429532064
 30
0.0
 10
205.4397401288
 20
48.0071787803
 30
0.0
 10
205.8622254912
 20
47.4421376044
 30
0.0
 10
206.3760444727
 20
46.9967217571
 30
0.0
 10
206.7720277671
 20
46.7955131189
 30
0.0
 10
206.9716462994
 20
46.7308009902
 30
0.0
  0
SPLINE
  5
62A
100
AcDbEntity
  8
0
100
AcDbSpline
 62
7
  6
CONTINUOUS
 70
0
 71
3
 72
11
 73
7
 74
0
 42
0.0000001
 43
0.0000001
 44
0.0000000001
 40
0.0
 40
0.0
 40
0.0
 40
0.0
 40
0.2720832198
 40
0.5219921778
 40
0.7597966167
 40
1.0
 40
1.0
 40
1.0
 40
1.0
 10
206.9483464349
 20
47.3724391052
 30
0.0
 10
207.0502046448
 20
47.3394188164
 30
0.0
 10
207.254436409
 20
47.2985330387
 30
0.0
 10
207.5571045511
 20
47.3283863854
 30
0.0
 10
207.8212028842
 20
47.4542234633
 30
0.0
 10
207.9539931325
 20
47.5937993991
 30
0.0
 10
208.0073338073
 20
47.6718430737
 30
0.0
  0
SPLINE
  5
62B
100
AcDbEntity
  8
0
100
AcDbSpline
 62
7
  6
CONTINUOUS
 70
0
 71
3
 72
15
 73
11
 74
0
 42
0.0000001
 43
0.0000001
 44
0.0000000001
 40
0.0
 40
0.0
 40
0.0
 40
0.0
 40
0.1047038249
 40
0.2199738216
 40
0.3455765686
 40
0.4788145594
 40
0.6154819324
 40
0.7507683337
 40
0.8800872503
 40
1.0
 40
1.0
 40
1.0
 40
1.0
 10
206.9715620354
 20
50.1951767023
 30
0.0
 10
206.9300523147
 20
50.1271116148
 30
0.0
 10
206.8683002449
 20
49.9678735449
 30
0.0
 10
206.8456560748
 20
49.7030674682
 30
0.0
 10
206.8875329049
 20
49.4190486873
 30
0.0
 10
206.9906385172
 20
49.1341604245
 30
0.0
 10
207.1478428782
 20
48.8667275671
 30
0.0
 10
207.3489149889
 20
48.6342966948
 30
0.0
 10
207.5805289759
 20
48.4522232102
 30
0.0
 10
207.75345854
 20
48.3689340791
 30
0.0
 10
207.8403130894
 20
48.3407776614
 30
0.0
  0
SPLINE
  5
62C
100
AcDbEntity
  8
0
100
AcDbSpline
 62
7
  6
CONTINUOUS
 70
0
 71
3
 72
9
 73
5
 74
0
 42
0.0000001
 43
0.0000001
 44
0.0000000001
 40
0.0
 40
0.0
 40
0.0
 40
0.0
 40
0.2383381151
 40
1.0
 40
1.0
 40
1.0
 40
1.0
 10
208.1888474118
 20
48.3021026796
 30
0.0
 10
208.1610668972
 20
48.2987010434
 30
0.0
 10
208.0436234626
 20
48.2916916264
 30
0.0
 10
207.9253958093
 20
48.3131956335
 30
0.0
 10
207.8403130894
 20
48.3407776614
 30
0.0
  0
SPLINE
  5
62D
100
AcDbEntity
  8
02___PRT_ALL_AXES
100
AcDbSpline
 62
7
  6
CONTINUOUS
 70
0
 71
3
 72
11
 73
7
 74
0
 42
0.0000001
 43
0.0000001
 44
0.0000000001
 40
0.0
 40
0.0
 40
0.0
 40
0.0
 40
0.2709165422
 40
0.5251765644
 40
0.7662372212
 40
1.0
 40
1.0
 40
1.0
 40
1.0
 10
206.8205989019
 20
50.8903860116
 30
0.0
 10
206.7144462849
 20
50.9247984568
 30
0.0
 10
206.5023812019
 20
50.9743070071
 30
0.0
 10
206.1845891741
 20
50.9840009027
 30
0.0
 10
205.8872929924
 20
50.9253868729
 30
0.0
 10
205.7083328797
 20
50.8405924237
 30
0.0
 10
205.6272872634
 20
50.7886031528
 30
0.0
  0
SPLINE
  5
62E
100
AcDbEntity
  8
0
100
AcDbSpline
 62
7
  6
CONTINUOUS
 70
0
 71
3
 72
17
 73
13
 74
0
 42
0.0000001
 43
0.0000001
 44
0.0000000001
 40
0.0
 40
0.0
 40
0.0
 40
0.0
 40
0.0513725294
 40
0.1017106522
 40
0.1525293871
 40
0.2052523603
 40
0.3197309053
 40
0.4487716077
 40
0.5888895224
 40
0.7328329692
 40
0.8722064911
 40
1.0
 40
1.0
 40
1.0
 40
1.0
 10
206.3243226544
 20
50.2954227837
 30
0.0
 10
206.2597440991
 20
50.2843667981
 30
0.0
 10
206.1337357136
 20
50.2480859878
 30
0.0
 10
205.9636916528
 20
50.1497300578
 30
0.0
 10
205.8215723375
 20
50.0115742665
 30
0.0
 10
205.6714009096
 20
49.7749037672
 30
0.0
 10
205.5792086134
 20
49.3981656889
 30
0.0
 10
205.6220326185
 20
48.9044443685
 30
0.0
 10
205.8026081643
 20
48.4038546952
 30
0.0
 10
206.1017605854
 20
47.9482867521
 30
0.0
 10
206.4870090773
 20
47.585576704
 30
0.0
 10
206.793307747
 20
47.4226993862
 30
0.0
 10
206.9483464349
 20
47.3724391052
 30
0.0
  0
SPLINE
  5
62F
100
AcDbEntity
  8
02___PRT_ALL_AXES
100
AcDbSpline
 62
7
  6
CONTINUOUS
 70
0
 71
3
 72
16
 73
12
 74
0
 42
0.0000001
 43
0.0000001
 44
0.0000000001
 40
0.0
 40
0.0
 40
0.0
 40
0.0
 40
0.1244071246
 40
0.2594738717
 40
0.4000292877
 40
0.539550548
 40
0.6717617495
 40
0.7922254281
 40
0.9000696583
 40
0.9506212168
 40
1.0
 40
1.0
 40
1.0
 40
1.0
 10
206.8205989019
 20
50.8903860116
 30
0.0
 10
207.0202174341
 20
50.8256738829
 30
0.0
 10
207.4162007285
 20
50.6244652447
 30
0.0
 10
207.93001971
 20
50.1790493975
 30
0.0
 10
208.3525050725
 20
49.6140082215
 30
0.0
 10
208.6469591078
 20
48.9782337954
 30
0.0
 10
208.7875584168
 20
48.3254339453
 30
0.0
 10
208.7606852843
 20
47.7100867477
 30
0.0
 10
208.5876778023
 20
47.2601357081
 30
0.0
 10
208.3672713099
 20
46.9846784415
 30
0.0
 10
208.2350639034
 20
46.8775555354
 30
0.0
 10
208.1649579378
 20
46.832583849
 30
0.0
  0
SPLINE
  5
630
100
AcDbEntity
  8
0
100
AcDbSpline
 62
7
  6
CONTINUOUS
 70
0
 71
3
 72
11
 73
7
 74
0
 42
0.0000001
 43
0.0000001
 44
0.0000000001
 40
0.0
 40
0.0
 40
0.0
 40
0.0
 40
0.2673546282
 40
0.5206681952
 40
0.7632367557
 40
1.0
 40
1.0
 40
1.0
 40
1.0
 10
224.9513671437
 20
63.2912530056
 30
0.0
 10
224.8322638169
 20
63.318887909
 30
0.0
 10
224.5954082201
 20
63.3543602349
 30
0.0
 10
224.2444342123
 20
63.3420863143
 30
0.0
 10
223.916512284
 20
63.2623797342
 30
0.0
 10
223.717966615
 20
63.1645343309
 30
0.0
 10
223.6268259841
 20
63.1060764041
 30
0.0
  0
SPLINE
  5
631
100
AcDbEntity
  8
0
100
AcDbSpline
 62
7
  6
CONTINUOUS
 70
0
 71
3
 72
11
 73
7
 74
0
 42
0.0000001
 43
0.0000001
 44
0.0000000001
 40
0.0
 40
0.0
 40
0.0
 40
0.0
 40
0.2523395743
 40
0.4939278377
 40
0.7388554746
 40
1.0
 40
1.0
 40
1.0
 40
1.0
 10
222.6440770788
 20
62.4827211652
 30
0.0
 10
222.7231896267
 20
62.6580915962
 30
0.0
 10
222.9285966946
 20
62.9825281982
 30
0.0
 10
223.3805643417
 20
63.3374884427
 30
0.0
 10
223.9331705569
 20
63.5165208906
 30
0.0
 10
224.325518925
 20
63.5134358588
 30
0.0
 10
224.5227716959
 20
63.4863611012
 30
0.0
  0
SPLINE
  5
632
100
AcDbEntity
  8
0
100
AcDbSpline
 62
7
  6
CONTINUOUS
 70
0
 71
3
 72
13
 73
9
 74
0
 42
0.0000001
 43
0.0000001
 44
0.0000000001
 40
0.0
 40
0.0
 40
0.0
 40
0.0
 40
0.3041855076
 40
0.5690316672
 40
0.6870613965
 40
0.7967023115
 40
0.900050629
 40
1.0
 40
1.0
 40
1.0
 40
1.0
 10
232.9452691169
 20
56.0086354991
 30
0.0
 10
232.9532768843
 20
55.7881153848
 30
0.0
 10
233.0009024542
 20
55.375626245
 30
0.0
 10
233.1631046589
 20
54.8980412184
 30
0.0
 10
233.3515938522
 20
54.5928022599
 30
0.0
 10
233.5118805065
 20
54.4121214998
 30
0.0
 10
233.6942608644
 20
54.2742986237
 30
0.0
 10
233.8298216898
 20
54.212601924
 30
0.0
 10
233.8987954151
 20
54.1902458804
 30
0.0
  0
SPLINE
  5
633
100
AcDbEntity
  8
0
100
AcDbSpline
 62
7
  6
CONTINUOUS
 70
0
 71
3
 72
13
 73
9
 74
0
 42
0.0000001
 43
0.0000001
 44
0.0000000001
 40
0.0
 40
0.0
 40
0.0
 40
0.0
 40
0.3041855076
 40
0.5690316672
 40
0.6870613965
 40
0.7967023115
 40
0.900050629
 40
1.0
 40
1.0
 40
1.0
 40
1.0
 10
232.6222847882
 20
64.9030673
 30
0.0
 10
232.6302925556
 20
64.6825471857
 30
0.0
 10
232.6779181255
 20
64.2700580459
 30
0.0
 10
232.8401203302
 20
63.7924730193
 30
0.0
 10
233.0286095235
 20
63.4872340608
 30
0.0
 10
233.1888961778
 20
63.3065533007
 30
0.0
 10
233.3712765357
 20
63.1687304246
 30
0.0
 10
233.5068373611
 20
63.1070337249
 30
0.0
 10
233.5758110864
 20
63.0846776813
 30
0.0
  0
SPLINE
  5
634
100
AcDbEntity
  8
0
100
AcDbSpline
 62
7
  6
CONTINUOUS
 70
0
 71
3
 72
13
 73
9
 74
0
 42
0.0000001
 43
0.0000001
 44
0.0000000001
 40
0.0
 40
0.0
 40
0.0
 40
0.0
 40
0.1058612435
 40
0.2145781465
 40
0.3285092269
 40
0.4492050897
 40
0.711957301
 40
1.0
 40
1.0
 40
1.0
 40
1.0
 10
226.8662239839
 20
58.055714724
 30
0.0
 10
226.9619049301
 20
58.1170848253
 30
0.0
 10
227.1417479775
 20
58.2650496917
 30
0.0
 10
227.3575566858
 20
58.5475392104
 30
0.0
 10
227.515916854
 20
58.8832769059
 30
0.0
 10
227.649294967
 20
59.4032019073
 30
0.0
 10
227.6459389314
 20
60.1360834257
 30
0.0
 10
227.4866518507
 20
60.7123291062
 30
0.0
 10
227.3715877276
 20
60.9994222001
 30
0.0
  0
SPLINE
  5
635
100
AcDbEntity
  8
0
100
AcDbSpline
 62
7
  6
CONTINUOUS
 70
0
 71
3
 72
9
 73
5
 74
0
 42
0.0000001
 43
0.0000001
 44
0.0000000001
 40
0.0
 40
0.0
 40
0.0
 40
0.0
 40
0.2622289702
 40
1.0
 40
1.0
 40
1.0
 40
1.0
 10
226.5130130946
 20
62.3379301543
 30
0.0
 10
226.426860496
 20
62.4286637883
 30
0.0
 10
226.0829520543
 20
62.7591803993
 30
0.0
 10
225.6745785171
 20
63.0270498863
 30
0.0
 10
225.3495283822
 20
63.1621775083
 30
0.0
  0
SPLINE
  5
636
100
AcDbEntity
  8
0
100
AcDbSpline
 62
7
  6
CONTINUOUS
 70
0
 71
3
 72
17
 73
13
 74
0
 42
0.0000001
 43
0.0000001
 44
0.0000000001
 40
0.0
 40
0.0
 40
0.0
 40
0.0
 40
0.0411061894
 40
0.0838868142
 40
0.1297226157
 40
0.1795457472
 40
0.2924209521
 40
0.4223917199
 40
0.5650463444
 40
0.713812939
 40
0.8612185988
 40
1.0
 40
1.0
 40
1.0
 40
1.0
 10
235.8876585643
 20
60.3259406282
 30
0.0
 10
235.8118360501
 20
60.3505165291
 30
0.0
 10
235.650133116
 20
60.3812730489
 30
0.0
 10
235.3968905421
 20
60.3680174555
 30
0.0
 10
235.1360869051
 20
60.297391398
 30
0.0
 10
234.7695813717
 20
60.1224308341
 30
0.0
 10
234.3219986723
 20
59.7619577133
 30
0.0
 10
233.8502200582
 20
59.177220377
 30
0.0
 10
233.4502263496
 20
58.4606964645
 30
0.0
 10
233.1496769216
 20
57.6613981724
 30
0.0
 10
232.9691246281
 20
56.8346839704
 30
0.0
 10
232.935503683
 20
56.277558719
 30
0.0
 10
232.9452691169
 20
56.0086354991
 30
0.0
  0
SPLINE
  5
637
100
AcDbEntity
  8
0
100
AcDbSpline
 62
7
  6
CONTINUOUS
 70
0
 71
3
 72
17
 73
13
 74
0
 42
0.0000001
 43
0.0000001
 44
0.0000000001
 40
0.0
 40
0.0
 40
0.0
 40
0.0
 40
0.0411061894
 40
0.0838868142
 40
0.1297226157
 40
0.1795457472
 40
0.2924209521
 40
0.4223917199
 40
0.5650463444
 40
0.713812939
 40
0.8612185988
 40
1.0
 40
1.0
 40
1.0
 40
1.0
 10
235.5646742356
 20
69.2203724292
 30
0.0
 10
235.4888517214
 20
69.24494833
 30
0.0
 10
235.3271487873
 20
69.2757048498
 30
0.0
 10
235.0739062134
 20
69.2624492564
 30
0.0
 10
234.8131025763
 20
69.191823199
 30
0.0
 10
234.446597043
 20
69.016862635
 30
0.0
 10
233.9990143436
 20
68.6563895142
 30
0.0
 10
233.5272357295
 20
68.0716521779
 30
0.0
 10
233.1272420209
 20
67.3551282654
 30
0.0
 10
232.8266925929
 20
66.5558299733
 30
0.0
 10
232.6461402994
 20
65.7291157713
 30
0.0
 10
232.6125193543
 20
65.1719905199
 30
0.0
 10
232.6222847882
 20
64.9030673
 30
0.0
  0
SPLINE
  5
638
100
AcDbEntity
  8
0
100
AcDbSpline
 62
7
  6
CONTINUOUS
 70
0
 71
3
 72
9
 73
5
 74
0
 42
0.0000001
 43
0.0000001
 44
0.0000000001
 40
0.0
 40
0.0
 40
0.0
 40
0.0
 40
0.2663208318
 40
1.0
 40
1.0
 40
1.0
 40
1.0
 10
225.3495283822
 20
63.1621775083
 30
0.0
 10
225.3534527043
 20
63.1662410361
 30
0.0
 10
225.3686078915
 20
63.1810820043
 30
0.0
 10
225.3854999008
 20
63.1941941912
 30
0.0
 10
225.3987264207
 20
63.2023950073
 30
0.0
  0
SPLINE
  5
639
100
AcDbEntity
  8
0
100
AcDbSpline
 62
7
  6
CONTINUOUS
 70
0
 71
3
 72
13
 73
9
 74
0
 42
0.0000001
 43
0.0000001
 44
0.0000000001
 40
0.0
 40
0.0
 40
0.0
 40
0.0
 40
0.3041855076
 40
0.5690316672
 40
0.6870613965
 40
0.7967023115
 40
0.900050629
 40
1.0
 40
1.0
 40
1.0
 40
1.0
 10
236.8411848625
 20
58.5075510095
 30
0.0
 10
236.8331770951
 20
58.7280711238
 30
0.0
 10
236.7855515251
 20
59.1405602637
 30
0.0
 10
236.6233493205
 20
59.6181452903
 30
0.0
 10
236.4348601272
 20
59.9233842487
 30
0.0
 10
236.2745734729
 20
60.1040650088
 30
0.0
 10
236.0921931149
 20
60.2418878849
 30
0.0
 10
235.9566322895
 20
60.3035845847
 30
0.0
 10
235.8876585643
 20
60.3259406282
 30
0.0
  0
SPLINE
  5
63A
100
AcDbEntity
  8
0
100
AcDbSpline
 62
7
  6
CONTINUOUS
 70
0
 71
3
 72
9
 73
5
 74
0
 42
0.0000001
 43
0.0000001
 44
0.0000000001
 40
0.0
 40
0.0
 40
0.0
 40
0.0
 40
0.2399232669
 40
1.0
 40
1.0
 40
1.0
 40
1.0
 10
225.3987264207
 20
63.2023950073
 30
0.0
 10
225.4996154036
 20
63.1510863209
 30
0.0
 10
225.9090517893
 20
62.9156969648
 30
0.0
 10
226.2717025262
 20
62.6024012222
 30
0.0
 10
226.5138760425
 20
62.3379627946
 30
0.0
  0
SPLINE
  5
63B
100
AcDbEntity
  8
0
100
AcDbSpline
 62
7
  6
CONTINUOUS
 70
0
 71
3
 72
13
 73
9
 74
0
 42
0.0000001
 43
0.0000001
 44
0.0000000001
 40
0.0
 40
0.0
 40
0.0
 40
0.0
 40
0.3041855076
 40
0.5690316672
 40
0.6870613965
 40
0.7967023115
 40
0.900050629
 40
1.0
 40
1.0
 40
1.0
 40
1.0
 10
236.5182005338
 20
67.4019828105
 30
0.0
 10
236.5101927664
 20
67.6225029247
 30
0.0
 10
236.4625671964
 20
68.0349920646
 30
0.0
 10
236.3003649918
 20
68.5125770912
 30
0.0
 10
236.1118757985
 20
68.8178160496
 30
0.0
 10
235.9515891442
 20
68.9984968097
 30
0.0
 10
235.7692087862
 20
69.1363196859
 30
0.0
 10
235.6336479608
 20
69.1980163856
 30
0.0
 10
235.5646742356
 20
69.2203724292
 30
0.0
  0
SPLINE
  5
63C
100
AcDbEntity
  8
0
100
AcDbSpline
 62
7
  6
CONTINUOUS
 70
0
 71
3
 72
14
 73
10
 74
0
 42
0.0000001
 43
0.0000001
 44
0.0000000001
 40
0.0
 40
0.0
 40
0.0
 40
0.0
 40
0.2939363297
 40
0.4281762587
 40
0.5521478609
 40
0.6671657653
 40
0.7767307754
 40
0.8859366469
 40
1.0
 40
1.0
 40
1.0
 40
1.0
 10
227.3721978637
 20
60.9996637837
 30
0.0
 10
227.5480377817
 20
60.5827423083
 30
0.0
 10
227.7176339241
 20
59.9277998412
 30
0.0
 10
227.6877976033
 20
59.0734340648
 30
0.0
 10
227.5409749304
 20
58.5120766022
 30
0.0
 10
227.2720599524
 20
58.0395709765
 30
0.0
 10
226.8904361798
 20
57.6827899589
 30
0.0
 10
226.4173449646
 20
57.4652542491
 30
0.0
 10
226.0708346377
 20
57.4217542902
 30
0.0
 10
225.8952468069
 20
57.4224272946
 30
0.0
  0
SPLINE
  5
63D
100
AcDbEntity
  8
0
100
AcDbSpline
 62
7
  6
CONTINUOUS
 70
0
 71
3
 72
9
 73
5
 74
0
 42
0.0000001
 43
0.0000001
 44
0.0000000001
 40
0.0
 40
0.0
 40
0.0
 40
0.0
 40
0.4924253926
 40
1.0
 40
1.0
 40
1.0
 40
1.0
 10
232.9569631616
 20
56.3580593368
 30
0.0
 10
233.1515051595
 20
56.653140305
 30
0.0
 10
233.4807321445
 20
57.2969032711
 30
0.0
 10
233.6874959052
 20
57.9888742236
 30
0.0
 10
233.7581412519
 20
58.3462717511
 30
0.0
  0
SPLINE
  5
63E
100
AcDbEntity
  8
0
100
AcDbSpline
 62
7
  6
CONTINUOUS
 70
0
 71
3
 72
9
 73
5
 74
0
 42
0.0000001
 43
0.0000001
 44
0.0000000001
 40
0.0
 40
0.0
 40
0.0
 40
0.0
 40
0.2554120592
 40
1.0
 40
1.0
 40
1.0
 40
1.0
 10
233.7608749337
 20
58.3601941969
 30
0.0
 10
233.7735361505
 20
58.4251118842
 30
0.0
 10
233.8185925874
 20
58.6801263494
 30
0.0
 10
233.845474353
 20
58.9384601319
 30
0.0
 10
233.8536270453
 20
59.1311042874
 30
0.0
  0
SPLINE
  5
63F
100
AcDbEntity
  8
0
100
AcDbSpline
 62
7
  6
CONTINUOUS
 70
0
 71
3
 72
17
 73
13
 74
0
 42
0.0000001
 43
0.0000001
 44
0.0000000001
 40
0.0
 40
0.0
 40
0.0
 40
0.0
 40
0.0411061894
 40
0.0838868142
 40
0.1297226157
 40
0.1795457472
 40
0.2924209521
 40
0.4223917199
 40
0.5650463444
 40
0.713812939
 40
0.8612185988
 40
1.0
 40
1.0
 40
1.0
 40
1.0
 10
233.8987954151
 20
54.1902458804
 30
0.0
 10
233.9746179293
 20
54.1656699796
 30
0.0
 10
234.1363208633
 20
54.1349134597
 30
0.0
 10
234.3895634372
 20
54.1481690532
 30
0.0
 10
234.6503670743
 20
54.2187951106
 30
0.0
 10
235.0168726077
 20
54.3937556745
 30
0.0
 10
235.4644553071
 20
54.7542287953
 30
0.0
 10
235.9362339211
 20
55.3389661316
 30
0.0
 10
236.3362276297
 20
56.0554900442
 30
0.0
 10
236.6367770577
 20
56.8547883363
 30
0.0
 10
236.8173293513
 20
57.6815025383
 30
0.0
 10
236.8509502964
 20
58.2386277897
 30
0.0
 10
236.8411848625
 20
58.5075510095
 30
0.0
  0
SPLINE
  5
640
100
AcDbEntity
  8
0
100
AcDbSpline
 62
7
  6
CONTINUOUS
 70
0
 71
3
 72
11
 73
7
 74
0
 42
0.0000001
 43
0.0000001
 44
0.0000000001
 40
0.0
 40
0.0
 40
0.0
 40
0.0
 40
0.2452531701
 40
0.5000945045
 40
0.7548789033
 40
1.0
 40
1.0
 40
1.0
 40
1.0
 10
232.6339788329
 20
65.2524911378
 30
0.0
 10
232.7665314791
 20
65.4535467637
 30
0.0
 10
233.0057994232
 20
65.8845295483
 30
0.0
 10
233.2785513036
 20
66.5757985426
 30
0.0
 10
233.4621649901
 20
67.2957564758
 30
0.0
 10
233.5204658839
 20
67.7850624797
 30
0.0
 10
233.5306427166
 20
68.0255360883
 30
0.0
  0
SPLINE
  5
641
100
AcDbEntity
  8
0
100
AcDbSpline
 62
7
  6
CONTINUOUS
 70
0
 71
3
 72
17
 73
13
 74
0
 42
0.0000001
 43
0.0000001
 44
0.0000000001
 40
0.0
 40
0.0
 40
0.0
 40
0.0
 40
0.0411061894
 40
0.0838868142
 40
0.1297226157
 40
0.1795457472
 40
0.2924209521
 40
0.4223917199
 40
0.5650463444
 40
0.713812939
 40
0.8612185988
 40
1.0
 40
1.0
 40
1.0
 40
1.0
 10
233.5758110864
 20
63.0846776813
 30
0.0
 10
233.6516336006
 20
63.0601017805
 30
0.0
 10
233.8133365346
 20
63.0293452606
 30
0.0
 10
234.0665791085
 20
63.0426008541
 30
0.0
 10
234.3273827456
 20
63.1132269115
 30
0.0
 10
234.6938882789
 20
63.2881874754
 30
0.0
 10
235.1414709783
 20
63.6486605963
 30
0.0
 10
235.6132495924
 20
64.2333979325
 30
0.0
 10
236.013243301
 20
64.9499218451
 30
0.0
 10
236.313792729
 20
65.7492201372
 30
0.0
 10
236.4943450226
 20
66.5759343392
 30
0.0
 10
236.5279659677
 20
67.1330595906
 30
0.0
 10
236.5182005338
 20
67.4019828105
 30
0.0
  0
SPLINE
  5
642
100
AcDbEntity
  8
02___PRT_ALL_AXES
100
AcDbSpline
 62
7
  6
CONTINUOUS
 70
0
 71
3
 72
11
 73
7
 74
0
 42
0.0000001
 43
0.0000001
 44
0.0000000001
 40
0.0
 40
0.0
 40
0.0
 40
0.0
 40
0.3009876353
 40
0.5642038666
 40
0.7929315576
 40
1.0
 40
1.0
 40
1.0
 40
1.0
 10
223.8123606172
 20
53.1668490726
 30
0.0
 10
223.8226130783
 20
53.0618955682
 30
0.0
 10
223.8571908485
 20
52.8659498848
 30
0.0
 10
223.9625130224
 20
52.6060671385
 30
0.0
 10
224.1160482113
 20
52.4099163991
 30
0.0
 10
224.2521080291
 20
52.3304374788
 30
0.0
 10
224.3211179084
 20
52.3080583316
 30
0.0
  0
SPLINE
  5
643
100
AcDbEntity
  8
02___PRT_ALL_AXES
100
AcDbSpline
 62
7
  6
CONTINUOUS
 70
0
 71
3
 72
11
 73
7
 74
0
 42
0.0000001
 43
0.0000001
 44
0.0000000001
 40
0.0
 40
0.0
 40
0.0
 40
0.0
 40
0.3047879857
 40
0.5701820666
 40
0.7974798244
 40
1.0
 40
1.0
 40
1.0
 40
1.0
 10
223.0004216657
 20
75.420182771
 30
0.0
 10
223.0047661078
 20
75.3005443214
 30
0.0
 10
223.0306585696
 20
75.0765607561
 30
0.0
 10
223.1323595508
 20
74.7771247359
 30
0.0
 10
223.2927164236
 20
74.5497477276
 30
0.0
 10
223.4420059769
 20
74.4580489817
 30
0.0
 10
223.5176743046
 20
74.4335105727
 30
0.0
  0
SPLINE
  5
644
100
AcDbEntity
  8
02___PRT_ALL_AXES
100
AcDbSpline
 62
7
  6
CONTINUOUS
 70
0
 71
3
 72
9
 73
5
 74
0
 42
0.0000001
 43
0.0000001
 44
0.0000000001
 40
0.0
 40
0.0
 40
0.0
 40
0.0
 40
0.262051712
 40
1.0
 40
1.0
 40
1.0
 40
1.0
 10
223.9200007578
 20
77.1634099272
 30
0.0
 10
223.9187706022
 20
77.1972862916
 30
0.0
 10
223.9110817805
 20
77.3264036915
 30
0.0
 10
223.891233911
 20
77.4550265264
 30
0.0
 10
223.8678233343
 20
77.5475715163
 30
0.0
  0
SPLINE
  5
645
100
AcDbEntity
  8
02___PRT_ALL_AXES
100
AcDbSpline
 62
7
  6
CONTINUOUS
 70
0
 71
3
 72
9
 73
5
 74
0
 42
0.0000001
 43
0.0000001
 44
0.0000000001
 40
0.0
 40
0.0
 40
0.0
 40
0.0
 40
0.2410583301
 40
1.0
 40
1.0
 40
1.0
 40
1.0
 10
223.8589748364
 20
52.9119422145
 30
0.0
 10
223.8749601679
 20
52.9253463483
 30
0.0
 10
223.9401023346
 20
52.9823427775
 30
0.0
 10
224.0006521465
 20
53.0445107525
 30
0.0
 10
224.044119619
 20
53.0937490379
 30
0.0
  0
SPLINE
  5
646
100
AcDbEntity
  8
02___PRT_ALL_AXES
100
AcDbSpline
 62
7
  6
CONTINUOUS
 70
0
 71
3
 72
16
 73
12
 74
0
 42
0.0000001
 43
0.0000001
 44
0.0000000001
 40
0.0
 40
0.0
 40
0.0
 40
0.0
 40
0.041123002
 40
0.0839178657
 40
0.179217545
 40
0.2921322248
 40
0.4221517779
 40
0.5648619195
 40
0.7136940655
 40
0.8611568339
 40
1.0
 40
1.0
 40
1.0
 40
1.0
 10
224.5972318345
 20
77.7628556339
 30
0.0
 10
224.5560870033
 20
77.7761984515
 30
0.0
 10
224.468344179
 20
77.7929059127
 30
0.0
 10
224.2785520062
 20
77.7830490928
 30
0.0
 10
224.0272361592
 20
77.6825686434
 30
0.0
 10
223.7479213107
 20
77.4570939581
 30
0.0
 10
223.4914622911
 20
77.1396412131
 30
0.0
 10
223.2745024771
 20
76.7508685448
 30
0.0
 10
223.111365433
 20
76.3170981238
 30
0.0
 10
223.0133648528
 20
75.8684661724
 30
0.0
 10
222.9951220386
 20
75.5661253693
 30
0.0
 10
223.0004216657
 20
75.420182771
 30
0.0
  0
SPLINE
  5
647
100
AcDbEntity
  8
02___PRT_ALL_AXES
100
AcDbSpline
 62
7
  6
CONTINUOUS
 70
0
 71
3
 72
11
 73
7
 74
0
 42
0.0000001
 43
0.0000001
 44
0.0000000001
 40
0.0
 40
0.0
 40
0.0
 40
0.0
 40
0.2267923843
 40
0.4836584932
 40
0.7492522444
 40
1.0
 40
1.0
 40
1.0
 40
1.0
 10
223.0555312327
 20
75.0373944556
 30
0.0
 10
223.1921742718
 20
75.1519733479
 30
0.0
 10
223.4415817382
 20
75.4464763612
 30
0.0
 10
223.7152877376
 20
75.9720411375
 30
0.0
 10
223.8893922513
 20
76.5581945552
 30
0.0
 10
223.9271555463
 20
76.9663793828
 30
0.0
 10
223.9200007578
 20
77.1634099272
 30
0.0
  0
SPLINE
  5
648
100
AcDbEntity
  8
02___PRT_ALL_AXES
100
AcDbSpline
 62
7
  6
CONTINUOUS
 70
0
 71
3
 72
11
 73
7
 74
0
 42
0.0000001
 43
0.0000001
 44
0.0000000001
 40
0.0
 40
0.0
 40
0.0
 40
0.0
 40
0.3047879857
 40
0.5701820666
 40
0.7974798244
 40
1.0
 40
1.0
 40
1.0
 40
1.0
 10
225.1144844734
 20
76.7761834356
 30
0.0
 10
225.1101400312
 20
76.8958218852
 30
0.0
 10
225.0842475695
 20
77.1198054505
 30
0.0
 10
224.9825465883
 20
77.4192414707
 30
0.0
 10
224.8221897154
 20
77.646618479
 30
0.0
 10
224.6729001621
 20
77.7383172249
 30
0.0
 10
224.5972318345
 20
77.7628556339
 30
0.0
  0
SPLINE
  5
649
100
AcDbEntity
  8
02___PRT_ALL_AXES
100
AcDbSpline
 62
7
  6
CONTINUOUS
 70
0
 71
3
 72
13
 73
9
 74
0
 42
0.0000001
 43
0.0000001
 44
0.0000000001
 40
0.0
 40
0.0
 40
0.0
 40
0.0
 40
0.0966098925
 40
0.1973430958
 40
0.3055807671
 40
0.4235495535
 40
0.6914581952
 40
1.0
 40
1.0
 40
1.0
 40
1.0
 10
224.3211179084
 20
52.3080583316
 30
0.0
 10
224.3633311735
 20
52.2943690326
 30
0.0
 10
224.4535536869
 20
52.2774987275
 30
0.0
 10
224.5948531491
 20
52.2861430409
 30
0.0
 10
224.7402727777
 20
52.3275245657
 30
0.0
 10
224.9445227431
 20
52.4288213969
 30
0.0
 10
225.1927016276
 20
52.6355540179
 30
0.0
 10
225.3563338356
 20
52.8457477245
 30
0.0
 10
225.4340633642
 20
52.9642586899
 30
0.0
  0
SPLINE
  5
64A
100
AcDbEntity
  8
02___PRT_ALL_AXES
100
AcDbSpline
 62
7
  6
CONTINUOUS
 70
0
 71
3
 72
16
 73
12
 74
0
 42
0.0000001
 43
0.0000001
 44
0.0000000001
 40
0.0
 40
0.0
 40
0.0
 40
0.0
 40
0.041123002
 40
0.0839178657
 40
0.179217545
 40
0.2921322248
 40
0.4221517779
 40
0.5648619195
 40
0.7136940655
 40
0.8611568339
 40
1.0
 40
1.0
 40
1.0
 40
1.0
 10
223.5176743046
 20
74.4335105727
 30
0.0
 10
223.5588191358
 20
74.4201677551
 30
0.0
 10
223.6465619601
 20
74.4034602939
 30
0.0
 10
223.8363541328
 20
74.4133171138
 30
0.0
 10
224.0876699798
 20
74.5137975632
 30
0.0
 10
224.3669848284
 20
74.7392722485
 30
0.0
 10
224.623443848
 20
75.0567249935
 30
0.0
 10
224.840403662
 20
75.4454976618
 30
0.0
 10
225.0035407061
 20
75.8792680828
 30
0.0
 10
225.1015412862
 20
76.3279000342
 30
0.0
 10
225.1197841005
 20
76.6302408373
 30
0.0
 10
225.1144844734
 20
76.7761834356
 30
0.0
  0
SPLINE
  5
64B
100
AcDbEntity
  8
0
100
AcDbSpline
 62
7
  6
CONTINUOUS
 70
0
 71
3
 72
13
 73
9
 74
0
 42
0.0000001
 43
0.0000001
 44
0.0000000001
 40
0.0
 40
0.0
 40
0.0
 40
0.0
 40
0.3041855076
 40
0.5690316672
 40
0.6870613965
 40
0.7967023115
 40
0.900050629
 40
1.0
 40
1.0
 40
1.0
 40
1.0
 10
206.3463644963
 20
23.5518433922
 30
0.0
 10
206.3543722637
 20
23.3313232779
 30
0.0
 10
206.4019978336
 20
22.9188341381
 30
0.0
 10
206.5642000383
 20
22.4412491115
 30
0.0
 10
206.7526892316
 20
22.136010153
 30
0.0
 10
206.9129758859
 20
21.9553293929
 30
0.0
 10
207.0953562438
 20
21.8175065168
 30
0.0
 10
207.2309170692
 20
21.7558098171
 30
0.0
 10
207.2998907945
 20
21.7334537735
 30
0.0
  0
SPLINE
  5
64C
100
AcDbEntity
  8
0
100
AcDbSpline
 62
7
  6
CONTINUOUS
 70
0
 71
3
 72
13
 73
9
 74
0
 42
0.0000001
 43
0.0000001
 44
0.0000000001
 40
0.0
 40
0.0
 40
0.0
 40
0.0
 40
0.3041855076
 40
0.5690316672
 40
0.6870613965
 40
0.7967023115
 40
0.900050629
 40
1.0
 40
1.0
 40
1.0
 40
1.0
 10
206.0233801676
 20
32.4462751931
 30
0.0
 10
206.031387935
 20
32.2257550788
 30
0.0
 10
206.0790135049
 20
31.813265939
 30
0.0
 10
206.2412157096
 20
31.3356809124
 30
0.0
 10
206.4297049029
 20
31.0304419539
 30
0.0
 10
206.5899915571
 20
30.8497611938
 30
0.0
 10
206.7723719151
 20
30.7119383177
 30
0.0
 10
206.9079327405
 20
30.650241618
 30
0.0
 10
206.9769064658
 20
30.6278855744
 30
0.0
  0
SPLINE
  5
64D
100
AcDbEntity
  8
0
100
AcDbSpline
 62
7
  6
CONTINUOUS
 70
0
 71
3
 72
10
 73
6
 74
0
 42
0.0000001
 43
0.0000001
 44
0.0000000001
 40
0.0
 40
0.0
 40
0.0
 40
0.0
 40
0.4723816875
 40
0.7308137053
 40
1.0
 40
1.0
 40
1.0
 40
1.0
 10
200.9617357459
 20
26.6123897654
 30
0.0
 10
201.039514539
 20
26.912001585
 30
0.0
 10
201.061936257
 20
27.4032300725
 30
0.0
 10
200.9463231974
 20
28.0488686147
 30
0.0
 10
200.8383052548
 20
28.378898211
 30
0.0
 10
200.7726831069
 20
28.5426300932
 30
0.0
  0
SPLINE
  5
64E
100
AcDbEntity
  8
0
100
AcDbSpline
 62
7
  6
CONTINUOUS
 70
0
 71
3
 72
9
 73
5
 74
0
 42
0.0000001
 43
0.0000001
 44
0.0000000001
 40
0.0
 40
0.0
 40
0.0
 40
0.0
 40
0.2622289702
 40
1.0
 40
1.0
 40
1.0
 40
1.0
 10
199.914108474
 20
29.8811380474
 30
0.0
 10
199.8279558754
 20
29.9718716814
 30
0.0
 10
199.4840474337
 20
30.3023882924
 30
0.0
 10
199.0756738965
 20
30.5702577794
 30
0.0
 10
198.7506237616
 20
30.7053854014
 30
0.0
  0
SPLINE
  5
64F
100
AcDbEntity
  8
0
100
AcDbSpline
 62
7
  6
CONTINUOUS
 70
0
 71
3
 72
17
 73
13
 74
0
 42
0.0000001
 43
0.0000001
 44
0.0000000001
 40
0.0
 40
0.0
 40
0.0
 40
0.0
 40
0.0411061894
 40
0.0838868142
 40
0.1297226157
 40
0.1795457472
 40
0.2924209521
 40
0.4223917199
 40
0.5650463444
 40
0.713812939
 40
0.8612185988
 40
1.0
 40
1.0
 40
1.0
 40
1.0
 10
209.2887539437
 20
27.8691485213
 30
0.0
 10
209.2129314295
 20
27.8937244222
 30
0.0
 10
209.0512284954
 20
27.924480942
 30
0.0
 10
208.7979859215
 20
27.9112253486
 30
0.0
 10
208.5371822844
 20
27.8405992911
 30
0.0
 10
208.1706767511
 20
27.6656387272
 30
0.0
 10
207.7230940517
 20
27.3051656064
 30
0.0
 10
207.2513154376
 20
26.7204282701
 30
0.0
 10
206.851321729
 20
26.0039043575
 30
0.0
 10
206.550772301
 20
25.2046060655
 30
0.0
 10
206.3702200075
 20
24.3778918634
 30
0.0
 10
206.3365990624
 20
23.820766612
 30
0.0
 10
206.3463644963
 20
23.5518433922
 30
0.0
  0
SPLINE
  5
650
100
AcDbEntity
  8
0
100
AcDbSpline
 62
7
  6
CONTINUOUS
 70
0
 71
3
 72
17
 73
13
 74
0
 42
0.0000001
 43
0.0000001
 44
0.0000000001
 40
0.0
 40
0.0
 40
0.0
 40
0.0
 40
0.0411061894
 40
0.0838868142
 40
0.1297226157
 40
0.1795457472
 40
0.2924209521
 40
0.4223917199
 40
0.5650463444
 40
0.713812939
 40
0.8612185988
 40
1.0
 40
1.0
 40
1.0
 40
1.0
 10
208.965769615
 20
36.7635803222
 30
0.0
 10
208.8899471007
 20
36.7881562231
 30
0.0
 10
208.7282441667
 20
36.8189127429
 30
0.0
 10
208.4750015928
 20
36.8056571495
 30
0.0
 10
208.2141979557
 20
36.735031092
 30
0.0
 10
207.8476924224
 20
36.5600705281
 30
0.0
 10
207.400109723
 20
36.1995974073
 30
0.0
 10
206.9283311089
 20
35.614860071
 30
0.0
 10
206.5283374003
 20
34.8983361585
 30
0.0
 10
206.2277879723
 20
34.0990378664
 30
0.0
 10
206.0472356788
 20
33.2723236644
 30
0.0
 10
206.0136147337
 20
32.715198413
 30
0.0
 10
206.0233801676
 20
32.4462751931
 30
0.0
  0
SPLINE
  5
651
100
AcDbEntity
  8
0
100
AcDbSpline
 62
7
  6
CONTINUOUS
 70
0
 71
3
 72
9
 73
5
 74
0
 42
0.0000001
 43
0.0000001
 44
0.0000000001
 40
0.0
 40
0.0
 40
0.0
 40
0.0
 40
0.2663208318
 40
1.0
 40
1.0
 40
1.0
 40
1.0
 10
198.7506237616
 20
30.7053854014
 30
0.0
 10
198.7545480836
 20
30.7094489292
 30
0.0
 10
198.7697032709
 20
30.7242898974
 30
0.0
 10
198.7865952802
 20
30.7374020843
 30
0.0
 10
198.7998218001
 20
30.7456029004
 30
0.0
  0
SPLINE
  5
652
100
AcDbEntity
  8
0
100
AcDbSpline
 62
7
  6
CONTINUOUS
 70
0
 71
3
 72
13
 73
9
 74
0
 42
0.0000001
 43
0.0000001
 44
0.0000000001
 40
0.0
 40
0.0
 40
0.0
 40
0.0
 40
0.3041855076
 40
0.5690316672
 40
0.6870613965
 40
0.7967023115
 40
0.900050629
 40
1.0
 40
1.0
 40
1.0
 40
1.0
 10
210.2422802419
 20
26.0507589026
 30
0.0
 10
210.2342724745
 20
26.2712790169
 30
0.0
 10
210.1866469045
 20
26.6837681568
 30
0.0
 10
210.0244446999
 20
27.1613531834
 30
0.0
 10
209.8359555066
 20
27.4665921418
 30
0.0
 10
209.6756688523
 20
27.6472729019
 30
0.0
 10
209.4932884943
 20
27.785095778
 30
0.0
 10
209.3577276689
 20
27.8467924778
 30
0.0
 10
209.2887539437
 20
27.8691485213
 30
0.0
  0
SPLINE
  5
653
100
AcDbEntity
  8
0
100
AcDbSpline
 62
7
  6
CONTINUOUS
 70
0
 71
3
 72
9
 73
5
 74
0
 42
0.0000001
 43
0.0000001
 44
0.0000000001
 40
0.0
 40
0.0
 40
0.0
 40
0.0
 40
0.2399232669
 40
1.0
 40
1.0
 40
1.0
 40
1.0
 10
198.7998218001
 20
30.7456029004
 30
0.0
 10
198.900710783
 20
30.694294214
 30
0.0
 10
199.3101471687
 20
30.4589048579
 30
0.0
 10
199.6727979056
 20
30.1456091153
 30
0.0
 10
199.9149714219
 20
29.8811706877
 30
0.0
  0
SPLINE
  5
654
100
AcDbEntity
  8
0
100
AcDbSpline
 62
7
  6
CONTINUOUS
 70
0
 71
3
 72
13
 73
9
 74
0
 42
0.0000001
 43
0.0000001
 44
0.0000000001
 40
0.0
 40
0.0
 40
0.0
 40
0.0
 40
0.3041855076
 40
0.5690316672
 40
0.6870613965
 40
0.7967023115
 40
0.900050629
 40
1.0
 40
1.0
 40
1.0
 40
1.0
 10
209.9192959132
 20
34.9451907035
 30
0.0
 10
209.9112881458
 20
35.1657108178
 30
0.0
 10
209.8636625758
 20
35.5781999577
 30
0.0
 10
209.7014603712
 20
36.0557849843
 30
0.0
 10
209.5129711779
 20
36.3610239427
 30
0.0
 10
209.3526845236
 20
36.5417047028
 30
0.0
 10
209.1703041656
 20
36.6795275789
 30
0.0
 10
209.0347433402
 20
36.7412242787
 30
0.0
 10
208.965769615
 20
36.7635803222
 30
0.0
  0
SPLINE
  5
655
100
AcDbEntity
  8
0
100
AcDbSpline
 62
7
  6
CONTINUOUS
 70
0
 71
3
 72
10
 73
6
 74
0
 42
0.0000001
 43
0.0000001
 44
0.0000000001
 40
0.0
 40
0.0
 40
0.0
 40
0.0
 40
0.2718429968
 40
0.5316149878
 40
1.0
 40
1.0
 40
1.0
 40
1.0
 10
200.7732932431
 20
28.5428716768
 30
0.0
 10
200.8579914333
 20
28.3420498452
 30
0.0
 10
200.9955921341
 20
27.9361465686
 30
0.0
 10
201.1328370489
 20
27.1454678497
 30
0.0
 10
201.0848161624
 20
26.5427129263
 30
0.0
 10
200.9649042675
 20
26.1868408204
 30
0.0
  0
SPLINE
  5
656
100
AcDbEntity
  8
0
100
AcDbSpline
 62
7
  6
CONTINUOUS
 70
0
 71
3
 72
9
 73
5
 74
0
 42
0.0000001
 43
0.0000001
 44
0.0000000001
 40
0.0
 40
0.0
 40
0.0
 40
0.0
 40
0.4924253926
 40
1.0
 40
1.0
 40
1.0
 40
1.0
 10
206.358058541
 20
23.9012672299
 30
0.0
 10
206.5526005389
 20
24.1963481981
 30
0.0
 10
206.8818275239
 20
24.8401111642
 30
0.0
 10
207.0885912846
 20
25.5320821167
 30
0.0
 10
207.1592366313
 20
25.8894796442
 30
0.0
  0
SPLINE
  5
657
100
AcDbEntity
  8
0
100
AcDbSpline
 62
7
  6
CONTINUOUS
 70
0
 71
3
 72
9
 73
5
 74
0
 42
0.0000001
 43
0.0000001
 44
0.0000000001
 40
0.0
 40
0.0
 40
0.0
 40
0.0
 40
0.2554120592
 40
1.0
 40
1.0
 40
1.0
 40
1.0
 10
207.1619703131
 20
25.90340209
 30
0.0
 10
207.1746315299
 20
25.9683197773
 30
0.0
 10
207.2196879668
 20
26.2233342425
 30
0.0
 10
207.2465697324
 20
26.481668025
 30
0.0
 10
207.2547224247
 20
26.6743121805
 30
0.0
  0
SPLINE
  5
658
100
AcDbEntity
  8
0
100
AcDbSpline
 62
7
  6
CONTINUOUS
 70
0
 71
3
 72
17
 73
13
 74
0
 42
0.0000001
 43
0.0000001
 44
0.0000000001
 40
0.0
 40
0.0
 40
0.0
 40
0.0
 40
0.0411061894
 40
0.0838868142
 40
0.1297226157
 40
0.1795457472
 40
0.2924209521
 40
0.4223917199
 40
0.5650463444
 40
0.713812939
 40
0.8612185988
 40
1.0
 40
1.0
 40
1.0
 40
1.0
 10
207.2998907945
 20
21.7334537735
 30
0.0
 10
207.3757133087
 20
21.7088778727
 30
0.0
 10
207.5374162427
 20
21.6781213528
 30
0.0
 10
207.7906588166
 20
21.6913769463
 30
0.0
 10
208.0514624537
 20
21.7620030037
 30
0.0
 10
208.417967987
 20
21.9369635676
 30
0.0
 10
208.8655506864
 20
22.2974366884
 30
0.0
 10
209.3373293005
 20
22.8821740247
 30
0.0
 10
209.7373230091
 20
23.5986979373
 30
0.0
 10
210.0378724371
 20
24.3979962294
 30
0.0
 10
210.2184247307
 20
25.2247104314
 30
0.0
 10
210.2520456758
 20
25.7818356828
 30
0.0
 10
210.2422802419
 20
26.0507589026
 30
0.0
  0
SPLINE
  5
659
100
AcDbEntity
  8
0
100
AcDbSpline
 62
7
  6
CONTINUOUS
 70
0
 71
3
 72
11
 73
7
 74
0
 42
0.0000001
 43
0.0000001
 44
0.0000000001
 40
0.0
 40
0.0
 40
0.0
 40
0.0
 40
0.2452531701
 40
0.5000945045
 40
0.7548789033
 40
1.0
 40
1.0
 40
1.0
 40
1.0
 10
206.0350742123
 20
32.7956990308
 30
0.0
 10
206.1676268585
 20
32.9967546568
 30
0.0
 10
206.4068948026
 20
33.4277374414
 30
0.0
 10
206.679646683
 20
34.1190064357
 30
0.0
 10
206.8632603695
 20
34.8389643689
 30
0.0
 10
206.9215612633
 20
35.3282703728
 30
0.0
 10
206.931738096
 20
35.5687439814
 30
0.0
  0
SPLINE
  5
65A
100
AcDbEntity
  8
0
100
AcDbSpline
 62
7
  6
CONTINUOUS
 70
0
 71
3
 72
17
 73
13
 74
0
 42
0.0000001
 43
0.0000001
 44
0.0000000001
 40
0.0
 40
0.0
 40
0.0
 40
0.0
 40
0.0411061894
 40
0.0838868142
 40
0.1297226157
 40
0.1795457472
 40
0.2924209521
 40
0.4223917199
 40
0.5650463444
 40
0.713812939
 40
0.8612185988
 40
1.0
 40
1.0
 40
1.0
 40
1.0
 10
206.9769064658
 20
30.6278855744
 30
0.0
 10
207.05272898
 20
30.6033096736
 30
0.0
 10
207.214431914
 20
30.5725531537
 30
0.0
 10
207.4676744879
 20
30.5858087472
 30
0.0
 10
207.728478125
 20
30.6564348046
 30
0.0
 10
208.0949836583
 20
30.8313953685
 30
0.0
 10
208.5425663577
 20
31.1918684893
 30
0.0
 10
209.0143449718
 20
31.7766058256
 30
0.0
 10
209.4143386804
 20
32.4931297382
 30
0.0
 10
209.7148881084
 20
33.2924280303
 30
0.0
 10
209.8954404019
 20
34.1191422323
 30
0.0
 10
209.9290613471
 20
34.6762674837
 30
0.0
 10
209.9192959132
 20
34.9451907035
 30
0.0
  0
SPLINE
  5
65B
100
AcDbEntity
  8
02___PRT_ALL_AXES
100
AcDbSpline
 62
7
  6
CONTINUOUS
 70
0
 71
3
 72
11
 73
7
 74
0
 42
0.0000001
 43
0.0000001
 44
0.0000000001
 40
0.0
 40
0.0
 40
0.0
 40
0.0
 40
0.3009876353
 40
0.5642038666
 40
0.7929315576
 40
1.0
 40
1.0
 40
1.0
 40
1.0
 10
197.2134559966
 20
20.7100569657
 30
0.0
 10
197.2237084577
 20
20.6051034613
 30
0.0
 10
197.2582862278
 20
20.4091577779
 30
0.0
 10
197.3636084018
 20
20.1492750316
 30
0.0
 10
197.5171435907
 20
19.9531242921
 30
0.0
 10
197.6532034085
 20
19.8736453719
 30
0.0
 10
197.7222132878
 20
19.8512662247
 30
0.0
  0
SPLINE
  5
65C
100
AcDbEntity
  8
02___PRT_ALL_AXES
100
AcDbSpline
 62
7
  6
CONTINUOUS
 70
0
 71
3
 72
11
 73
7
 74
0
 42
0.0000001
 43
0.0000001
 44
0.0000000001
 40
0.0
 40
0.0
 40
0.0
 40
0.0
 40
0.3047879857
 40
0.5701820666
 40
0.7974798244
 40
1.0
 40
1.0
 40
1.0
 40
1.0
 10
196.4015170451
 20
42.9633906641
 30
0.0
 10
196.4058614872
 20
42.8437522145
 30
0.0
 10
196.431753949
 20
42.6197686492
 30
0.0
 10
196.5334549302
 20
42.320332629
 30
0.0
 10
196.693811803
 20
42.0929556207
 30
0.0
 10
196.8431013563
 20
42.0012568747
 30
0.0
 10
196.918769684
 20
41.9767184658
 30
0.0
  0
SPLINE
  5
65D
100
AcDbEntity
  8
02___PRT_ALL_AXES
100
AcDbSpline
 62
7
  6
CONTINUOUS
 70
0
 71
3
 72
9
 73
5
 74
0
 42
0.0000001
 43
0.0000001
 44
0.0000000001
 40
0.0
 40
0.0
 40
0.0
 40
0.0
 40
0.262051712
 40
1.0
 40
1.0
 40
1.0
 40
1.0
 10
197.3210961372
 20
44.7066178203
 30
0.0
 10
197.3198659816
 20
44.7404941847
 30
0.0
 10
197.3121771599
 20
44.8696115846
 30
0.0
 10
197.2923292904
 20
44.9982344195
 30
0.0
 10
197.2689187137
 20
45.0907794093
 30
0.0
  0
SPLINE
  5
65E
100
AcDbEntity
  8
02___PRT_ALL_AXES
100
AcDbSpline
 62
7
  6
CONTINUOUS
 70
0
 71
3
 72
9
 73
5
 74
0
 42
0.0000001
 43
0.0000001
 44
0.0000000001
 40
0.0
 40
0.0
 40
0.0
 40
0.0
 40
0.2410583301
 40
1.0
 40
1.0
 40
1.0
 40
1.0
 10
197.2600702158
 20
20.4551501076
 30
0.0
 10
197.2760555473
 20
20.4685542414
 30
0.0
 10
197.341197714
 20
20.5255506706
 30
0.0
 10
197.4017475259
 20
20.5877186456
 30
0.0
 10
197.4452149984
 20
20.636956931
 30
0.0
  0
SPLINE
  5
65F
100
AcDbEntity
  8
02___PRT_ALL_AXES
100
AcDbSpline
 62
7
  6
CONTINUOUS
 70
0
 71
3
 72
16
 73
12
 74
0
 42
0.0000001
 43
0.0000001
 44
0.0000000001
 40
0.0
 40
0.0
 40
0.0
 40
0.0
 40
0.041123002
 40
0.0839178657
 40
0.179217545
 40
0.2921322248
 40
0.4221517779
 40
0.5648619195
 40
0.7136940655
 40
0.8611568339
 40
1.0
 40
1.0
 40
1.0
 40
1.0
 10
197.9983272138
 20
45.306063527
 30
0.0
 10
197.9571823827
 20
45.3194063446
 30
0.0
 10
197.8694395584
 20
45.3361138058
 30
0.0
 10
197.6796473856
 20
45.3262569859
 30
0.0
 10
197.4283315386
 20
45.2257765365
 30
0.0
 10
197.1490166901
 20
45.0003018512
 30
0.0
 10
196.8925576705
 20
44.6828491062
 30
0.0
 10
196.6755978565
 20
44.2940764379
 30
0.0
 10
196.5124608123
 20
43.8603060169
 30
0.0
 10
196.4144602322
 20
43.4116740655
 30
0.0
 10
196.3962174179
 20
43.1093332624
 30
0.0
 10
196.4015170451
 20
42.9633906641
 30
0.0
  0
SPLINE
  5
660
100
AcDbEntity
  8
02___PRT_ALL_AXES
100
AcDbSpline
 62
7
  6
CONTINUOUS
 70
0
 71
3
 72
11
 73
7
 74
0
 42
0.0000001
 43
0.0000001
 44
0.0000000001
 40
0.0
 40
0.0
 40
0.0
 40
0.0
 40
0.2267923843
 40
0.4836584932
 40
0.7492522444
 40
1.0
 40
1.0
 40
1.0
 40
1.0
 10
196.4566266121
 20
42.5806023487
 30
0.0
 10
196.5932696512
 20
42.695181241
 30
0.0
 10
196.8426771176
 20
42.9896842543
 30
0.0
 10
197.116383117
 20
43.5152490306
 30
0.0
 10
197.2904876307
 20
44.1014024483
 30
0.0
 10
197.3282509257
 20
44.5095872759
 30
0.0
 10
197.3210961372
 20
44.7066178203
 30
0.0
  0
SPLINE
  5
661
100
AcDbEntity
  8
02___PRT_ALL_AXES
100
AcDbSpline
 62
7
  6
CONTINUOUS
 70
0
 71
3
 72
11
 73
7
 74
0
 42
0.0000001
 43
0.0000001
 44
0.0000000001
 40
0.0
 40
0.0
 40
0.0
 40
0.0
 40
0.3047879857
 40
0.5701820666
 40
0.7974798244
 40
1.0
 40
1.0
 40
1.0
 40
1.0
 10
198.5155798528
 20
44.3193913287
 30
0.0
 10
198.5112354106
 20
44.4390297783
 30
0.0
 10
198.4853429489
 20
44.6630133436
 30
0.0
 10
198.3836419677
 20
44.9624493638
 30
0.0
 10
198.2232850948
 20
45.1898263721
 30
0.0
 10
198.0739955415
 20
45.281525118
 30
0.0
 10
197.9983272138
 20
45.306063527
 30
0.0
  0
SPLINE
  5
662
100
AcDbEntity
  8
02___PRT_ALL_AXES
100
AcDbSpline
 62
7
  6
CONTINUOUS
 70
0
 71
3
 72
13
 73
9
 74
0
 42
0.0000001
 43
0.0000001
 44
0.0000000001
 40
0.0
 40
0.0
 40
0.0
 40
0.0
 40
0.0966098925
 40
0.1973430958
 40
0.3055807671
 40
0.4235495535
 40
0.6914581952
 40
1.0
 40
1.0
 40
1.0
 40
1.0
 10
197.7222132878
 20
19.8512662247
 30
0.0
 10
197.7644265529
 20
19.8375769257
 30
0.0
 10
197.8546490663
 20
19.8207066206
 30
0.0
 10
197.9959485285
 20
19.829350934
 30
0.0
 10
198.1413681571
 20
19.8707324588
 30
0.0
 10
198.3456181225
 20
19.97202929
 30
0.0
 10
198.5937970069
 20
20.178761911
 30
0.0
 10
198.757429215
 20
20.3889556176
 30
0.0
 10
198.8351587436
 20
20.507466583
 30
0.0
  0
SPLINE
  5
663
100
AcDbEntity
  8
02___PRT_ALL_AXES
100
AcDbSpline
 62
7
  6
CONTINUOUS
 70
0
 71
3
 72
16
 73
12
 74
0
 42
0.0000001
 43
0.0000001
 44
0.0000000001
 40
0.0
 40
0.0
 40
0.0
 40
0.0
 40
0.041123002
 40
0.0839178657
 40
0.179217545
 40
0.2921322248
 40
0.4221517779
 40
0.5648619195
 40
0.7136940655
 40
0.8611568339
 40
1.0
 40
1.0
 40
1.0
 40
1.0
 10
196.918769684
 20
41.9767184658
 30
0.0
 10
196.9599145151
 20
41.9633756482
 30
0.0
 10
197.0476573395
 20
41.946668187
 30
0.0
 10
197.2374495122
 20
41.9565250069
 30
0.0
 10
197.4887653592
 20
42.0570054563
 30
0.0
 10
197.7680802078
 20
42.2824801416
 30
0.0
 10
198.0245392273
 20
42.5999328866
 30
0.0
 10
198.2414990414
 20
42.9887055549
 30
0.0
 10
198.4046360855
 20
43.4224759759
 30
0.0
 10
198.5026366656
 20
43.8711079273
 30
0.0
 10
198.5208794799
 20
44.1734487303
 30
0.0
 10
198.5155798528
 20
44.3193913287
 30
0.0
  0
SPLINE
  5
664
100
AcDbEntity
  8
0
100
AcDbSpline
 62
7
  6
CONTINUOUS
 70
0
 71
3
 72
9
 73
5
 74
0
 42
0.0000001
 43
0.0000001
 44
0.0000000001
 40
0.0
 40
0.0
 40
0.0
 40
0.0
 40
0.2623653338
 40
1.0
 40
1.0
 40
1.0
 40
1.0
 10
218.8551125464
 20
58.8884068725
 30
0.0
 10
219.1244688644
 20
59.2449864993
 30
0.0
 10
220.1983514316
 20
60.5659198736
 30
0.0
 10
221.4820476524
 20
61.7303815114
 30
0.0
 10
222.5395905282
 20
62.4087099116
 30
0.0
  0
SPLINE
  5
665
100
AcDbEntity
  8
0
100
AcDbSpline
 62
7
  6
CONTINUOUS
 70
0
 71
3
 72
9
 73
5
 74
0
 42
0.0000001
 43
0.0000001
 44
0.0000000001
 40
0.0
 40
0.0
 40
0.0
 40
0.0
 40
0.4849358487
 40
1.0
 40
1.0
 40
1.0
 40
1.0
 10
212.4278097611
 20
33.8546117646
 30
0.0
 10
213.1959448016
 20
34.6546243545
 30
0.0
 10
214.6078978465
 20
36.4729325019
 30
0.0
 10
215.698467173
 20
38.4942218093
 30
0.0
 10
216.1813631625
 20
39.5686767043
 30
0.0
  0
SPLINE
  5
666
100
AcDbEntity
  8
0
100
AcDbSpline
 62
7
  6
CONTINUOUS
 70
0
 71
3
 72
11
 73
7
 74
0
 42
0.0000001
 43
0.0000001
 44
0.0000000001
 40
0.0
 40
0.0
 40
0.0
 40
0.0
 40
0.2945633662
 40
0.5670851142
 40
0.8062148661
 40
1.0
 40
1.0
 40
1.0
 40
1.0
 10
221.8833305902
 20
52.2556878758
 30
0.0
 10
222.1447417684
 20
52.8373338743
 30
0.0
 10
222.7073830535
 20
53.9317611515
 30
0.0
 10
223.6823905659
 20
55.384843535
 30
0.0
 10
224.6967435373
 20
56.5326201548
 30
0.0
 10
225.4258755682
 20
57.1318401648
 30
0.0
 10
225.7789961575
 20
57.3583385224
 30
0.0
  0
SPLINE
  5
667
100
AcDbEntity
  8
0
100
AcDbSpline
 62
7
  6
CONTINUOUS
 70
0
 71
3
 72
15
 73
11
 74
0
 42
0.0000001
 43
0.0000001
 44
0.0000000001
 40
0.0
 40
0.0
 40
0.0
 40
0.0
 40
0.3620289549
 40
0.5301269299
 40
0.6798721466
 40
0.8049902144
 40
0.9006554201
 40
0.9365567333
 40
0.9644969979
 40
1.0
 40
1.0
 40
1.0
 40
1.0
 10
219.0228383385
 20
54.0770879119
 30
0.0
 10
219.4069776119
 20
53.9134107461
 30
0.0
 10
219.9618401446
 20
53.6549327578
 30
0.0
 10
220.6532578369
 20
53.2846674931
 30
0.0
 10
221.0928972649
 20
53.0240764241
 30
0.0
 10
221.4473316387
 20
52.7844086141
 30
0.0
 10
221.6787679898
 20
52.5997436605
 30
0.0
 10
221.8062153746
 20
52.4645517936
 30
0.0
 10
221.8728666546
 20
52.3751934925
 30
0.0
 10
221.9001026804
 20
52.2930438241
 30
0.0
 10
221.8833295227
 20
52.2556883556
 30
0.0
  0
SPLINE
  5
668
100
AcDbEntity
  8
0
100
AcDbSpline
 62
7
  6
CONTINUOUS
 70
0
 71
3
 72
12
 73
8
 74
0
 42
0.0000001
 43
0.0000001
 44
0.0000000001
 40
0.0
 40
0.0
 40
0.0
 40
0.0
 40
0.2519083306
 40
0.5075499456
 40
0.636394018
 40
0.7646261303
 40
1.0
 40
1.0
 40
1.0
 40
1.0
 10
219.102766749
 20
59.0188542975
 30
0.0
 10
219.2823391116
 20
59.2303989929
 30
0.0
 10
219.6614495676
 20
59.6425162987
 30
0.0
 10
220.1893128784
 20
60.1063147376
 30
0.0
 10
220.6615379654
 20
60.4212757041
 30
0.0
 10
221.1406460693
 20
60.6633680376
 30
0.0
 10
221.5741061715
 20
60.7520031065
 30
0.0
 10
221.8207410575
 20
60.6720492651
 30
0.0
  0
SPLINE
  5
669
100
AcDbEntity
  8
0
100
AcDbSpline
 62
7
  6
CONTINUOUS
 70
0
 71
3
 72
14
 73
10
 74
0
 42
0.0000001
 43
0.0000001
 44
0.0000000001
 40
0.0
 40
0.0
 40
0.0
 40
0.0
 40
0.258123118
 40
0.3990461983
 40
0.5389279325
 40
0.6714812864
 40
0.7922568139
 40
0.9003784267
 40
1.0
 40
1.0
 40
1.0
 40
1.0
 10
224.0628801104
 20
62.538578486
 30
0.0
 10
224.5902539462
 20
62.367614983
 30
0.0
 10
225.324350221
 20
61.8394885219
 30
0.0
 10
226.0177107365
 20
60.9098371876
 30
0.0
 10
226.3945499657
 20
60.0972426096
 30
0.0
 10
226.5740585294
 20
59.2642578812
 30
0.0
 10
226.5389075797
 20
58.4781232655
 30
0.0
 10
226.2822105417
 20
57.8048698894
 30
0.0
 10
225.9591037757
 20
57.473848669
 30
0.0
 10
225.778975442
 20
57.358370827
 30
0.0
  0
SPLINE
  5
66A
100
AcDbEntity
  8
0
100
AcDbSpline
 62
7
  6
CONTINUOUS
 70
0
 71
3
 72
10
 73
6
 74
0
 42
0.0000001
 43
0.0000001
 44
0.0000000001
 40
0.0
 40
0.0
 40
0.0
 40
0.0
 40
0.2343635547
 40
0.4760218349
 40
1.0
 40
1.0
 40
1.0
 40
1.0
 10
222.5396112438
 20
62.408677607
 30
0.0
 10
222.6430816208
 20
62.4750110683
 30
0.0
 10
222.8715782409
 20
62.5832817473
 30
0.0
 10
223.3900630307
 20
62.6857758034
 30
0.0
 10
223.8014821549
 20
62.623318204
 30
0.0
 10
224.0628801104
 20
62.538578486
 30
0.0
  0
SPLINE
  5
66B
100
AcDbEntity
  8
0
100
AcDbSpline
 62
7
  6
CONTINUOUS
 70
0
 71
3
 72
18
 73
14
 74
0
 42
0.0000001
 43
0.0000001
 44
0.0000000001
 40
0.0
 40
0.0
 40
0.0
 40
0.0
 40
0.1526806532
 40
0.3191812302
 40
0.4878202281
 40
0.6467242481
 40
0.719011781
 40
0.7848268699
 40
0.843055059
 40
0.8927778068
 40
0.9332976171
 40
0.9642874545
 40
1.0
 40
1.0
 40
1.0
 40
1.0
 10
212.095528819
 20
41.8540277945
 30
0.0
 10
212.3263642643
 20
41.7791957994
 30
0.0
 10
212.8038546256
 20
41.6070036417
 30
0.0
 10
213.5202605425
 20
41.3099824097
 30
0.0
 10
214.2321535269
 20
40.9781118011
 30
0.0
 10
214.7957874536
 20
40.6840282343
 30
0.0
 10
215.2047243888
 20
40.448021897
 30
0.0
 10
215.4697414438
 20
40.2833811367
 30
0.0
 10
215.6985229172
 20
40.1278916843
 30
0.0
 10
215.8860761939
 20
39.9862004358
 30
0.0
 10
216.0324035483
 20
39.8559264359
 30
0.0
 10
216.1422350785
 20
39.7366691661
 30
0.0
 10
216.2046552101
 20
39.6204369151
 30
0.0
 10
216.1813472028
 20
39.5686838776
 30
0.0
  0
SPLINE
  5
66C
100
AcDbEntity
  8
0
100
AcDbSpline
 62
7
  6
CONTINUOUS
 70
0
 71
3
 72
13
 73
9
 74
0
 42
0.0000001
 43
0.0000001
 44
0.0000000001
 40
0.0
 40
0.0
 40
0.0
 40
0.0
 40
0.1043194918
 40
0.1916293663
 40
0.305124443
 40
0.4444393835
 40
0.6082213869
 40
1.0
 40
1.0
 40
1.0
 40
1.0
 10
210.7086904456
 20
42.0282789816
 30
0.0
 10
210.7292055935
 20
42.0738307614
 30
0.0
 10
210.836060075
 20
42.1069383911
 30
0.0
 10
210.9763661578
 20
42.1095152792
 30
0.0
 10
211.1409696891
 20
42.0955564871
 30
0.0
 10
211.3370146479
 20
42.0618377191
 30
0.0
 10
211.6619194938
 20
41.987945184
 30
0.0
 10
211.9170510776
 20
41.9118865236
 30
0.0
 10
212.095528819
 20
41.8540277945
 30
0.0
  0
SPLINE
  5
66D
100
AcDbEntity
  8
0
100
AcDbSpline
 62
7
  6
CONTINUOUS
 70
0
 71
3
 72
17
 73
13
 74
0
 42
0.0000001
 43
0.0000001
 44
0.0000000001
 40
0.0
 40
0.0
 40
0.0
 40
0.0
 40
0.0595372793
 40
0.1163231376
 40
0.1727692909
 40
0.230222139
 40
0.3490894642
 40
0.4731008514
 40
0.600998021
 40
0.7318390909
 40
0.864982751
 40
1.0
 40
1.0
 40
1.0
 40
1.0
 10
221.8207410575
 20
60.6720492651
 30
0.0
 10
221.8893658638
 20
60.6498025466
 30
0.0
 10
222.0177924882
 20
60.5840470307
 30
0.0
 10
222.1628647667
 20
60.4282642086
 30
0.0
 10
222.2560106385
 20
60.2412084
 30
0.0
 10
222.3260990827
 20
59.9665238845
 30
0.0
 10
222.3339545904
 20
59.5988395769
 30
0.0
 10
222.266681118
 20
59.1536684207
 30
0.0
 10
222.1460465211
 20
58.705054629
 30
0.0
 10
221.9858851611
 20
58.2576607763
 30
0.0
 10
221.7947713042
 20
57.8132994276
 30
0.0
 10
221.6512702059
 20
57.5216241349
 30
0.0
 10
221.5758697431
 20
57.37643667
 30
0.0
  0
SPLINE
  5
66E
100
AcDbEntity
  8
0
100
AcDbSpline
 62
7
  6
CONTINUOUS
 70
0
 71
3
 72
9
 73
5
 74
0
 42
0.0000001
 43
0.0000001
 44
0.0000000001
 40
0.0
 40
0.0
 40
0.0
 40
0.0
 40
0.2484445633
 40
1.0
 40
1.0
 40
1.0
 40
1.0
 10
219.7796156665
 20
54.7921721222
 30
0.0
 10
219.729052256
 20
54.7375174359
 30
0.0
 10
219.522804661
 20
54.5201087352
 30
0.0
 10
219.3048750327
 20
54.3134629865
 30
0.0
 10
219.1329400587
 20
54.167967375
 30
0.0
  0
ELLIPSE
  5
66F
100
AcDbEntity
  8
0
100
AcDbEllipse
 62
7
  6
CONTINUOUS
 10
234.9231299143
 20
261.1127943874
 30
0.0
 11
-0.0
 21
14.1342550924
 31
0.0
 40
0.4245006165
 41
-3.290258606
 42
-2.9929293514
  0
ELLIPSE
  5
670
100
AcDbEntity
  8
0
100
AcDbEllipse
 62
7
  6
CONTINUOUS
 10
119.3185536465
 20
71.6530429581
 30
0.0
 11
6.4013381162
 21
-0.0
 31
0.0
 40
0.6248693519
 41
-1.5707965333
 42
1.5707961203
  0
ELLIPSE
  5
671
100
AcDbEntity
  8
0
100
AcDbEllipse
 62
7
  6
CONTINUOUS
 10
219.4592917347
 20
56.8688525237
 30
0.0
 11
2.0755071602
 21
2.9067476603
 31
0.0
 40
0.4514360489
 41
-2.2958514619
 42
0.8457411917
  0
ELLIPSE
  5
672
100
AcDbEntity
  8
0
100
AcDbEllipse
 62
7
  6
CONTINUOUS
 10
223.8344315334
 20
63.9151682182
 30
0.0
 11
6.7152290107
 21
10.5843280273
 31
0.0
 40
0.1942710813
 41
-2.977156995
 42
-2.6227039203
  0
ENDSEC
  0
SECTION
  2
OBJECTS
  0
DICTIONARY
  5
C
100
AcDbDictionary
280
0
281
1
  3
ACAD_GROUP
350
D
  3
ACAD_MLINESTYLE
350
17
  3
ACAD_LAYOUT
350
1A
  3
ACAD_PLOTSETTINGS
350
19
  3
ACAD_PLOTSTYLENAME
350
E
  0
DICTIONARY
  5
D
102
{ACAD_REACTORS
330
C
102
}
100
AcDbDictionary
280
0
281
1
  0
ACDBDICTIONARYWDFLT
  5
E
102
{ACAD_REACTORS
330
C
102
}
100
AcDbDictionary
281
1
  3
Normal
350
F
100
AcDbDictionaryWithDefault
340
F
  0
DICTIONARY
  5
17
102
{ACAD_REACTORS
330
C
102
}
100
AcDbDictionary
280
0
281
1
  3
Standard
350
18
  0
DICTIONARY
  5
19
102
{ACAD_REACTORS
330
C
102
}
100
AcDbDictionary
281
1
  0
DICTIONARY
  5
1A
102
{ACAD_REACTORS
330
C
102
}
100
AcDbDictionary
281
1
  3
Model
350
673
  3
Layout1
350
674
  0
ACDBPLACEHOLDER
  5
F
102
{ACAD_REACTORS
330
E
102
}
  0
MLINESTYLE
  5
18
102
{ACAD_REACTORS
330
17
102
}
100
AcDbMlineStyle
  2
STANDARD
 70
0
  3

 62
256
 51
90.0
 52
90.0
 71
2
 49
0.5
 62
256
  6
BYLAYER
 49
-0.5
 62
256
  6
BYLAYER
  0
LAYOUT
  5
673
102
{ACAD_REACTORS
330
1A
102
}
100
AcDbPlotSettings
  1

  2
none_device
  4
ISO_A3_(420.00_x_297.00_MM)
  6

 40
0.0
 41
0.0
 42
0.0
 43
0.0
 44
420.0
 45
297.0
 46
0.0
 47
0.0
 48
0.0
 49
0.0
140
0.0
141
0.0
142
1.0
143
1.0
 70
1024
 72
1
 73
0
 74
0
  7

 75
0
147
1.0
148
0.0
149
0.0
100
AcDbLayout
  1
Model
 70
0
 71
0
 10
0.0
 20
0.0
 11
420.0
 21
297.0
 12
0.0
 22
0.0
 32
0.0
 14
0.0
 24
0.0
 34
0.0
 15
0.0
 25
0.0
 35
0.0
146
0.0
 13
0.0
 23
0.0
 33
0.0
 16
1.0
 26
0.0
 36
0.0
 17
0.0
 27
1.0
 37
0.0
 76
0
330
216
345
0
346
0
  0
LAYOUT
  5
674
102
{ACAD_REACTORS
330
1A
102
}
100
AcDbPlotSettings
  1

  2
none_device
  4
ISO_A3_(420.00_x_297.00_MM)
  6

 40
0.0
 41
0.0
 42
0.0
 43
0.0
 44
420.0
 45
297.0
 46
0.0
 47
0.0
 48
0.0
 49
0.0
140
0.0
141
0.0
142
1.0
143
1.0
 70
0
 72
1
 73
0
 74
0
  7

 75
0
147
1.0
148
0.0
149
0.0
100
AcDbLayout
  1
Layout1
 70
0
 71
1
 10
0.0
 20
0.0
 11
420.0
 21
297.0
 12
0.0
 22
0.0
 32
0.0
 14
0.0
 24
0.0
 34
0.0
 15
0.0
 25
0.0
 35
0.0
146
0.0
 13
0.0
 23
0.0
 33
0.0
 16
1.0
 26
0.0
 36
0.0
 17
0.0
 27
1.0
 37
0.0
 76
0
330
217
345
0
346
0
  0
ENDSEC
  0
EOF
